#TITLE:Star;
#SUBTITLE:;
#ARTIST:LOONA;
#TITLETRANSLIT:;
#SUBTITLETRANSLIT:;
#ARTISTTRANSLIT:;
#CREDIT:;
#BANNER:Star banner.png;
#BACKGROUND:Star bg.png;
#LYRICSPATH:;
#CDTITLE:;
#MUSIC:Star.mp3;
#OFFSET:-6.420;
#SAMPLESTART:48.860;
#SAMPLELENGTH:15.000;
#SELECTABLE:YES;
#BPMS:0.000=158.000;
#STOPS:;
#BGCHANGES:0.000=Star.avi=1.000=1=0=0,
99999=-nosongbg-=1.000=0=0=0 // don't automatically add -songbackground-
;

//---------------dance-single - ----------------
#NOTES:
     dance-single:
     :
     Hard:
     8:
     0.571,0.579,0.336,0.175,0.099:
1000
0110
0000
0011
,
0000
0110
0000
1001
,
0010
0101
0000
0010
,
0110
0000
0000
0000
0000
0000
0000
1000
,
0100
0010
0001
0010
0100
0000
0010
0100
,
0000
0100
0000
1000
1001
0000
0010
0001
,
0000
0100
0010
1000
0010
0000
0100
0001
,
1000
0010
0010
0100
0010
0011
0011
0010
,
0100
0010
1000
0001
0100
0000
0010
1000
,
0000
1000
0000
0100
0010
0001
0010
0200
,
0000
0000
0000
0000
0000
0300
0010
0000
,
0110
0000
1001
0000
0110
0000
0000
0001
,
0010
0100
0010
1000
0010
0000
0010
0100
,
0010
0001
1000
0010
0100
0000
0100
0010
,
0100
0010
0001
1000
0010
0000
0010
0100
,
0100
1000
0100
0010
0001
0110
0110
0100
,
1000
0100
0010
1000
0100
0000
0010
0100
,
0000
1000
0000
0100
0010
1000
0001
0200
,
0000
0000
0010
0300
0010
0000
0010
0000
,
0001
0000
0011
0000
0010
0000
0010
0100
,
0000
0100
0010
0000
0100
0000
1000
0000
,
0010
0000
0100
0000
0110
0000
1000
0001
,
0000
0001
1000
0000
0010
0000
0100
0000
,
0011
0000
0010
0100
1000
0000
0100
0010
,
0000
0010
0100
0000
0010
0000
1000
0000
,
0001
0000
0100
0000
0010
0000
1000
0100
,
0020
0000
0000
0130
0002
0000
0000
0013
,
0200
0000
0000
0000
0310
0010
0100
0100
,
1001
0100
1001
0000
0100
0010
1001
0010
,
1001
0000
0010
0100
0001
0010
1000
0010
,
0002
0000
0013
0000
0010
0100
0010
0000
,
2000
0000
3100
0000
0020
0000
0130
0001
,
1000
0010
0001
0100
0010
1000
0100
0010
,
0001
1000
0010
0100
0000
0010
0000
0110
,
0000
1100
0000
0110
0000
0001
1000
0002
,
0000
0023
0000
0230
0000
0310
0010
1000
,
0110
1000
0001
0000
0110
0001
0110
1000
,
0110
0001
0010
0000
1000
0100
0010
0100
,
0010
0010
0100
0002
,
2003
3000
0120
0000
0130
0000
0010
0001
,
1000
0010
0100
0010
0001
0010
0100
0010
,
1000
0100
0001
0100
0000
0010
0000
0100
,
0100
0010
0100
0010
0000
1000
0001
1000
,
0000
0011
0000
1100
0000
0001
0010
0100
,
1000
0000
1000
0000
0100
0000
0010
0000
0100
0001
0000
0000
0010
0100
0000
0000
,
0010
0000
0000
0000
0010
0000
0000
0000
0100
1000
0000
0000
0100
0010
0000
0000
,
1000
0000
0100
0000
0010
0000
0001
0000
0010
0100
0000
0000
1010
0000
0000
0000
,
1100
1010
0210
0310
,
0010
0000
0100
0000
0001
0000
1000
0000
0010
0001
0000
0000
0100
0010
0000
0000
,
0100
0000
0000
0000
0001
0000
0000
0000
0010
1000
0000
0000
0010
0000
0100
0000
,
0100
0010
0001
1000
0000
0100
0010
0001
,
0001
1000
0100
0010
0000
0100
0110
0010
,
1000
0000
0001
0000
0100
0000
0010
0000
1000
0010
0000
0000
0100
1000
0000
0000
,
0100
0010
0000
0000
0001
0010
0000
0000
0100
0000
0000
0000
0110
0000
0000
0000
,
0010
0000
0100
0000
0010
0000
0001
0000
1000
0010
0000
0000
0101
0000
0000
0000
,
1010
0101
0120
0130
,
0010
0000
0100
0000
0010
0000
0001
0000
0010
0100
0000
0000
0010
0100
0000
0000
,
1000
0001
0000
0000
1000
0001
0000
0000
0010
0000
0000
0000
1000
0000
0100
0000
,
0001
0100
1000
0010
0000
0010
1000
0001
,
0100
0010
0001
0010
0000
0100
0010
1000
,
0200
0000
0000
0000
,
0320
0000
0032
0000
,
2003
0000
0000
3000
,
0010
0000
0000
0000
0100
0000
0000
0001
,
0000
0010
0000
0100
0010
0000
0010
0100
,
0000
0010
0000
1000
0100
0010
0001
0020
,
0000
0000
0000
0000
0030
0100
0001
1000
,
0200
0000
0000
0000
0310
0100
0010
1000
,
0100
0001
0000
0000
0010
1000
0000
0000
0010
0000
0001
0000
1000
0010
0000
0000
,
0100
0001
0000
0000
0100
0000
0010
0000
1000
0000
0001
0000
0100
0000
0010
0000
,
1000
0001
0000
0000
0100
0010
0000
0000
0100
0000
0100
0000
0010
0000
1000
0000
,
0020
0000
0130
0000
0002
0000
0013
0100
,
0100
0001
0010
1000
0010
0001
0100
0010
,
1000
0100
0001
0100
0000
0010
0000
1100
,
0000
0110
0000
0011
0000
0010
0100
0010
,
0000
0100
0000
0110
0000
0010
1000
0001
,
0100
0010
0100
0100
0010
0001
0010
1000
,
0100
0010
0001
0010
0100
0000
0010
0000
,
0001
0000
0010
0000
0100
0000
0010
0000
1000
0000
0100
0000
0001
0010
0000
0000
,
0010
0100
0000
0000
0100
1000
0000
0000
0100
0010
0000
0000
0001
0000
0000
0000
,
0100
0010
1000
0100
0001
0100
1000
0010
,
0001
0010
0100
0010
1000
0000
0001
0010
,
0100
0010
1000
0010
0000
0010
0100
0010
,
0000
1000
0000
1001
0000
0000
0000
0000
;

//---------------dance-single - ----------------
#NOTES:
     dance-single:
     :
     Medium:
     7:
     0.450,0.488,0.292,0.139,0.000:
0000
0110
0000
0011
,
0000
0110
0000
1100
,
0000
0110
0000
1001
,
0010
0000
0000
0000
0000
0000
0000
0100
,
0000
0010
0000
0100
0010
0000
0001
0010
,
0000
0100
0000
0010
1000
0000
0100
1000
,
0000
0100
0000
0010
0100
0000
0010
0001
,
0000
0010
0000
0100
0010
0001
0001
0010
,
0000
0100
0000
1000
0010
0000
0100
0010
,
0000
0001
0000
1000
0001
1000
0001
2000
,
0000
0100
0000
3100
,
0110
0000
1001
0000
0110
0000
0000
0010
,
0000
0100
0000
0010
0100
0000
0001
1000
,
0000
0001
0000
1000
0001
0000
0010
0100
,
0000
1000
0000
0100
0010
0000
1000
0100
,
0000
0010
0000
0100
0010
0100
0100
0010
,
0000
1000
0000
0001
0100
0000
0010
0100
,
0000
0100
0000
1000
0100
0010
0100
0020
,
0000
0100
0000
0130
,
0001
0000
0010
0000
1000
0000
0001
0010
,
0000
0010
0100
0000
0010
0000
1000
0000
,
0010
0000
0100
0000
0110
0000
1000
0010
,
0000
0010
1000
0000
0100
0000
0001
0000
,
0100
0000
0010
0000
1000
0000
0010
0100
,
0000
1000
0010
0000
0100
0000
0001
0000
,
1000
0000
0010
0000
0200
0000
0000
0301
,
0020
0000
0000
1030
0200
0000
0000
0310
,
0001
0000
0000
0000
0010
0010
0100
0100
,
0110
1001
0000
0110
,
1001
0000
0000
0010
0100
0010
0100
0001
,
1000
0100
0010
0001
,
2000
0000
0000
0000
3100
0000
0010
0100
,
0000
0001
0000
1000
0000
0010
0000
0001
,
0000
0100
0000
0010
0000
0100
0000
0011
,
0000
0011
0000
0011
0000
0010
0100
0010
,
0000
0010
0000
0110
0000
1000
0001
1000
,
0001
0002
0003
1000
,
2000
0000
3000
0000
0010
0100
0010
0100
,
0010
1000
0001
0100
,
0020
0000
0000
0000
0130
0000
0000
0010
,
0000
0100
0000
1000
0000
0001
0000
0100
,
0000
0010
0000
1001
0000
0110
0000
1100
,
0000
1100
0000
1100
0000
0010
0100
0010
,
0000
0010
0000
0010
0000
0100
0010
0000
,
1000
0001
1000
0001
0100
0000
0010
0000
,
1000
0010
0001
0100
,
0010
0100
0010
0100
0001
0000
1000
0000
,
0010
0100
0010
0010
,
0100
0001
0100
0001
0100
0000
1000
0000
,
0010
0000
0100
0000
1000
0000
0010
0100
,
0000
1000
0000
0001
0000
0100
0010
0100
,
0000
0010
0000
0110
0000
0100
0100
0000
,
0010
1000
0001
0100
0010
0000
1000
0000
,
0100
0001
0110
1001
,
0010
0001
0100
0010
1000
0000
0010
0000
,
0100
0010
0110
0110
,
1000
0001
1000
0100
0010
0000
0010
0000
,
1000
0000
0100
0000
0101
0000
0010
0100
,
0000
1000
0000
0001
0000
0100
0010
0100
,
0000
0010
0000
1000
0000
0000
0100
0010
,
0200
0000
0000
0000
,
0302
0000
0023
0000
,
2030
0000
0000
0000
,
3010
0000
0000
0000
0000
0000
0000
0010
,
0000
0100
0000
0001
1000
0000
0010
0100
,
0000
0100
0000
1000
0100
0001
0100
0002
,
0000
0000
0000
0000
0013
0000
0100
0010
,
2000
0000
0000
3000
0010
0010
0100
0100
,
0110
0000
1001
0000
0010
0100
0010
0001
,
0100
0000
0010
1000
0010
0100
0010
1000
,
0010
0100
0010
0001
,
2002
0000
3003
0000
0220
0000
0330
1000
,
0000
0100
0000
0010
0000
0001
0000
1100
,
0000
0110
0000
0011
0000
0000
0010
0100
,
0000
0001
0000
1000
0000
0010
0100
0010
,
0000
1000
0000
1001
0000
0010
0100
0010
,
0100
0100
0001
1000
0010
0000
0100
0001
,
0100
0000
0010
1000
0010
0000
1010
0000
,
0100
1000
1000
0100
0001
0000
0010
0000
,
0010
0010
0110
0010
,
1000
0001
0001
0100
0010
0000
1000
0010
,
0100
0000
0100
0001
0010
0000
1000
0010
,
0000
0001
0000
0100
0000
0010
1000
0001
,
0000
0100
0000
0110
0000
0000
0000
0000
;

//---------------dance-single - ----------------
#NOTES:
     dance-single:
     :
     Easy:
     3:
     0.329,0.398,0.146,0.139,0.000: // measure 1
0000
0100
0000
0010
,  // measure 2
0000
0100
0000
0001
,  // measure 3
1000
0001
0000
0100
,  // measure 4
0010
0000
0000
0000
,  // measure 5
1001
0010
0001
0000
,  // measure 6
0001
0010
0100
0000
,  // measure 7
0010
1000
0100
0000
,  // measure 8
0001
1000
0010
0000
,  // measure 9
0100
0100
0010
0010
,  // measure 10
0100
0001
1000
0010
,  // measure 11
0200
0000
0300
0000
,  // measure 12
0001
0001
0001
0000
,  // measure 13
0110
1000
0001
0000
,  // measure 14
0100
0010
1000
0000
,  // measure 15
0010
0100
0001
1000
,  // measure 16
0010
0100
0010
0000
,  // measure 17
0100
0100
0001
0001
,  // measure 18
0010
0010
1000
0001
,  // measure 19
0020
0000
0030
0000
,  // measure 20
1000
0100
0001
0100
,  // measure 21
0010
1000
0010
0100
,  // measure 22
0001
1000
1001
0000
,  // measure 23
0100
0100
1000
0100
,  // measure 24
0001
0100
0100
0010
,  // measure 25
1000
0010
0100
0001
,  // measure 26
0010
1000
0001
0000
,  // measure 27
0020
0000
0230
0000
,  // measure 28
0302
0000
0003
0100
,  // measure 29
1001
1001
0000
0110
,  // measure 30
0110
0000
1000
0100
,  // measure 31
0001
0001
0000
0010
,  // measure 32
0200
0000
0310
0000
,  // measure 33
1000
0001
0100
0010
,  // measure 34
0001
0010
1000
0010
,  // measure 35
0100
0100
0010
1000
,  // measure 36
0001
0001
0010
0100
,  // measure 37
0110
0110
0000
1001
,  // measure 38
1001
0000
0100
0001
,  // measure 39
1000
0010
0100
0001
,  // measure 40
2000
0000
3100
0000
,  // measure 41
0010
0100
0010
1000
,  // measure 42
0100
0001
0100
0010
,  // measure 43
0001
0001
0010
0100
,  // measure 44
0010
0010
1000
0001
,  // measure 45
1000
1000
1000
1000
,  // measure 46
0100
0010
0100
0010
,  // measure 47
0001
0001
0001
0001
,  // measure 48
0010
0010
0100
0010
,  // measure 49
0100
0100
0100
0100
,  // measure 50
0010
1000
0001
0100
,  // measure 51
0010
1000
0020
0030
,  // measure 52
0100
0001
0200
0310
,  // measure 53
0001
0001
0001
0001
,  // measure 54
0010
0100
0010
1000
,  // measure 55
0010
0010
0010
0010
,  // measure 56
0100
0100
1000
0001
,  // measure 57
0100
0100
0100
0100
,  // measure 58
1000
0100
0001
0100
,  // measure 59
1000
0010
2000
3000
,  // measure 60
0001
0010
0002
0003
,  // measure 61
0200
0000
0000
0300
,  // measure 62
0020
0000
2030
0000
,  // measure 63
3002
0000
0000
0000
,  // measure 64
0013
0000
0000
0000
,  // measure 65
0100
0000
0010
0000
,  // measure 66
1000
0000
0001
0010
,  // measure 67
0200
0000
0000
0310
,  // measure 68
0020
0000
0000
0130
,  // measure 69
1001
1001
0010
0110
,  // measure 70
0110
0001
0010
1000
,  // measure 71
0010
0001
0100
0010
,  // measure 72
2000
3010
0010
0000
,  // measure 73
0100
0010
0001
1000
,  // measure 74
0010
0100
0001
0100
,  // measure 75
0010
0010
0110
0010
,  // measure 76
1000
0100
0001
0100
,  // measure 77
0010
0010
1000
0100
,  // measure 78
0001
0100
1000
1001
,  // measure 79
0010
0100
0010
0001
,  // measure 80
0001
0001
1001
0110
,  // measure 81
0010
1000
0100
0001
,  // measure 82
0010
1000
0100
0110
,  // measure 83
0010
1000
0001
0100
,  // measure 84
0010
1000
0020
0030
;
