#TITLE:SUMMER OR SUMMER;
#SUBTITLE:;
#ARTIST:HYOLYN & DASOM;
#TITLETRANSLIT:;
#SUBTITLETRANSLIT:;
#ARTISTTRANSLIT:;
#CREDIT:;
#BANNER:SUMMER OR SUMMER banner.png;
#BACKGROUND:SUMMER OR SUMMER bg.png;
#LYRICSPATH:;
#CDTITLE:;
#MUSIC:SUMMER OR SUMMER.mp3;
#OFFSET:-9.380;
#SAMPLESTART:60.400;
#SAMPLELENGTH:15.000;
#SELECTABLE:YES;
#BPMS:0.000=130.000;
#STOPS:;
#BGCHANGES:;

//---------------dance-single - ----------------
#NOTES:
     dance-single:
     :
     Hard:
     8:
     0.542,0.490,0.320,0.156,0.201:
1001
0000
0010
0100
0010
0000
0001
1001
,
0000
0000
0010
0000
0001
0000
0100
0000
0010
0000
0000
0000
1000
0001
1000
0000
,
0100
0000
0010
0001
0010
0000
0001
0110
,
0000
0000
1001
0000
0000
0000
0010
0000
0001
0010
0001
0000
0010
0100
0010
0000
,
1001
0000
0010
0000
0100
0000
0010
0000
1000
0000
0100
0001
0000
0000
0010
0000
,
0100
0000
0100
0000
1000
0000
0010
0000
0100
0000
0010
1000
0000
0000
0100
0000
,
0001
0000
0100
0000
0010
0000
1000
0000
0010
0000
0001
0100
0000
0000
0010
0000
,
0100
0000
0010
0000
0001
0000
0001
0000
0010
0000
0000
0100
0000
0000
0010
0000
,
0110
0000
0000
0000
1000
0000
0001
0000
1000
0000
0000
0001
0000
0000
0100
0000
,
0010
0000
0001
0000
0010
0000
0100
0000
1000
0000
0000
0010
0000
0000
1000
0000
,
0100
0000
1000
0000
0010
0000
0100
0000
0001
0000
0000
0010
0000
0000
0100
0000
,
0010
0000
0010
0000
0100
0000
0100
0000
1001
0000
0000
1001
0000
0000
0010
0000
,
0100
0000
0001
0000
0010
0000
1100
0000
0000
0000
0110
0000
0000
0000
0001
0010
,
0001
0000
0010
0000
0100
0000
1000
0000
0000
0000
0010
0000
0100
0010
0000
0000
,
0001
0010
0000
0000
0010
0100
0000
0000
1001
0000
0000
0000
0010
0000
0100
0000
,
0000
0100
1000
0000
0100
0000
0010
0000
,
1100
0000
0100
0000
0010
0000
0001
0000
0000
0000
0010
0000
0000
0000
0100
0010
,
0100
0000
0001
0000
1000
0000
0010
0000
0000
0000
0010
0000
0100
0010
0000
0000
,
1000
0100
0000
0000
0100
0010
0000
0000
1001
0000
0000
0000
0010
0000
0100
0000
,
0000
0000
0001
0000
1000
0010
0000
0000
0100
0000
0000
0000
0110
0000
0000
0000
,
1000
0001
0001
0010
0100
0010
1000
0200
,
0000
2300
0000
3010
0000
0100
0011
0010
,
0100
0010
0001
1000
0010
1000
0010
0100
,
0020
0000
0000
0000
0130
0000
0001
1000
0002
0000
0000
0000
0013
0000
0000
0000
,
1000
0100
0000
0000
0010
0100
0000
0000
0010
0000
1000
0000
0001
0000
0010
0100
,
0000
0000
0010
0000
1000
0001
0000
0000
0010
0000
0100
0000
0001
0000
1000
0100
,
0000
0000
0010
0100
0000
0000
0001
0010
0000
0000
0010
0000
0100
0000
0001
0000
,
1000
0000
0000
0000
0100
0000
0000
0000
0010
0000
1000
0001
1000
0000
0010
0000
,
1001
0010
0110
0100
0001
1000
0010
0002
,
0000
0000
0023
0000
0000
0000
0130
0000
0000
0000
0100
0010
0100
0000
1000
0000
,
0010
0100
1000
0001
0010
0100
1000
0110
,
0000
1100
0000
0020
0000
0230
0000
0310
,
0001
0010
0001
1000
1001
0000
0010
0100
,
0010
0001
1000
0010
0000
0010
1000
0100
,
0010
0010
0100
0100
0001
1000
0010
0100
,
0000
0001
1000
0010
0100
0100
0010
1000
,
0200
0000
0000
0000
0000
1300
0010
0002
,
0000
0000
0000
0000
0013
0000
0200
0000
0000
0000
0000
0000
0310
0000
0000
0020
,
0000
0000
0130
0000
0001
0010
1000
0200
,
0000
0000
0310
2000
0000
0000
3100
0010
,
0001
0010
0110
0100
1000
0100
0110
0010
,
0001
0000
0010
0000
0100
0000
1000
0000
0100
0000
0010
0000
0001
0000
1000
0100
,
0010
0000
0010
0000
0100
0000
0001
0000
1000
0000
0010
0000
0100
0000
0000
0010
,
0200
0000
0000
0000
0010
0000
0000
0000
0010
0300
0001
1000
0001
0000
0010
0000
,
0110
0001
0110
1000
0100
0100
0010
0100
,
0001
0000
1000
0000
0000
0000
0010
0000
0010
0000
0100
0010
0100
0000
0001
0000
,
1001
0100
1001
0010
0100
0001
1000
0110
,
0000
1010
0000
0200
0000
0302
0000
0013
,
0001
1000
0001
1000
0110
0000
0010
0010
,
0100
0010
0001
1000
0000
0100
0010
0010
,
0100
0010
1000
0100
0001
0100
1000
0010
,
1000
0100
0010
0001
0010
0100
1000
0000
0100
0000
0010
0000
0001
0000
0000
0000
,
0011
0000
0000
0000
0010
0100
0000
0000
0100
0010
0000
0000
0100
0000
0110
0000
,
0000
1001
0000
1000
1001
0000
0020
0000
,
0130
1000
0000
0000
0100
0010
0000
0000
0001
0000
0000
0000
0010
0000
0100
0010
,
0000
0000
0001
0010
0000
0000
0010
0000
0110
0000
0000
0000
1001
0000
0000
0000
,
1100
0000
0000
0000
0100
0010
0000
0000
0010
0001
0000
0000
0010
0000
0110
0000
,
0000
0010
0000
0001
0011
0000
0200
0000
,
0310
0001
0000
0000
0010
0100
0000
0000
1000
0010
0000
0000
0100
0000
0010
0000
,
0000
0010
0000
1000
0001
0000
1001
0000
;

//---------------dance-single - ----------------
#NOTES:
     dance-single:
     :
     Medium:
     5:
     0.333,0.294,0.139,0.066,0.000:
1000
0000
0010
0000
0100
0000
0000
1001
,
0000
0010
0100
0010
,
0001
0000
0001
0000
0010
0000
0100
0010
,
0000
0010
0000
0000
1000
0000
0100
0000
,
0010
0000
0100
0000
0001
1000
0001
0000
,
0010
0000
0100
0000
1000
0100
1000
0000
,
0100
0000
0010
0000
0001
0010
0001
0000
,
0010
0010
0010
0000
0100
0000
1100
0000
,
0100
1000
0010
0100
,
0010
1000
0010
0000
0100
0000
0001
0000
,
1000
0010
0001
0000
0001
0000
0010
0000
,
0100
0010
1000
0001
,
0011
0000
0010
0100
0000
0100
0000
0010
,
1000
0000
1000
0100
0000
0000
0010
0000
,
0110
0000
0100
0000
0100
0000
0010
1000
,
0000
1000
0010
0000
0100
0000
0001
0000
,
0010
0000
0100
0010
0000
0010
0000
1000
,
0100
0000
0010
0001
0000
0000
0001
0010
,
0100
0000
0010
0000
1000
0000
0010
0100
,
0000
0100
0001
0000
0010
0000
0100
0000
,
0010
0000
1000
0000
0010
0100
0010
0100
,
0000
1000
0000
0000
0100
0000
0010
0000
,
0001
0010
0100
1000
,
0020
0000
0000
0030
0200
0000
0010
0300
,
0010
0001
0010
0100
,
1000
0100
0010
0100
,
0010
0010
0010
0000
1000
1000
1000
0000
,
0100
0010
0001
0010
,
0110
0000
0100
0000
0010
0000
1000
0001
,
0000
0010
0000
0100
0000
1000
0010
0000
,
0110
0000
0001
0000
0010
0000
0100
0010
,
0000
0001
0000
2000
0000
3020
0000
0030
,
0100
0100
0110
1000
,
0001
0100
0001
0000
0010
0000
0001
0000
,
0010
0000
0100
0000
0010
0000
1000
0010
,
0000
0010
0000
0000
0100
0000
0010
0000
,
0210
0000
0300
0010
,
0002
0000
0000
0003
0010
0000
0100
0000
,
2000
0000
3000
0100
,
0200
0000
0000
0300
0010
0000
0100
0000
,
0010
0010
1000
1000
,
0100
0000
0001
0010
0000
0100
0000
0010
,
0100
0000
1000
0000
0010
0100
0010
0000
,
1000
0000
0100
0000
0010
0000
0001
0001
,
0010
0000
0001
0000
0010
0000
0100
1000
,
0000
1000
0100
1000
0000
0010
0100
0000
,
0010
0000
1000
0000
0001
0100
0010
0100
,
0000
0010
0000
1000
0000
1001
0000
0000
,
0010
0100
0010
0000
1000
0000
0001
0010
,
0001
0110
1000
0100
,
0010
0000
1000
0000
0001
0000
0100
0010
,
0000
0010
0000
1000
0001
0000
0010
0000
,
0100
0000
0100
0000
1100
0000
0000
0010
,
0000
1000
0000
0001
0100
0000
0110
0000
,
0010
0000
0010
0000
0011
0000
0010
0100
,
0000
0100
0000
1000
0001
0000
0110
0000
,
0100
0000
0100
0000
0101
0000
0000
0010
,
0000
0100
0000
0010
1000
0000
1001
0000
,
0100
0000
0010
0000
0100
0000
0001
1000
,
0000
0010
0000
0001
1000
0000
1001
0000
;

//---------------dance-single - ----------------
#NOTES:
     dance-single:
     :
     Easy:
     3:
     0.280,0.269,0.082,0.082,0.000: // measure 1
0010
0000
0010
0100
,  // measure 2
0110
0000
0010
0010
,  // measure 3
1000
0000
0100
0010
,  // measure 4
0001
0001
0000
0010
,  // measure 5
0110
0001
0010
0010
,  // measure 6
1000
0100
1000
1000
,  // measure 7
0100
0010
0001
0001
,  // measure 8
0010
0100
1000
1000
,  // measure 9
0010
0100
0010
0010
,  // measure 10
1000
0001
0100
1000
,  // measure 11
0010
0010
1000
1000
,  // measure 12
0100
0010
0100
0100
,  // measure 13
1000
0001
0010
0001
,  // measure 14
0010
0100
1000
1000
,  // measure 15
0100
0010
0002
0013
,  // measure 16
0010
0100
0020
0130
,  // measure 17
0001
0010
1000
0010
,  // measure 18
0001
0001
0100
0100
,  // measure 19
0010
1000
0001
0100
,  // measure 20
0010
0010
0100
0100
,  // measure 21
1000
0000
0100
0010
,  // measure 22
0001
0000
0010
0100
,  // measure 23
0010
0001
1000
0010
,  // measure 24
0002
0003
0020
0130
,  // measure 25
1000
0100
0001
0100
,  // measure 26
1000
1000
0100
0100
,  // measure 27
0010
1000
0001
0100
,  // measure 28
0010
0010
0100
0100
,  // measure 29
1001
0010
0001
0010
,  // measure 30
0100
0100
0010
0010
,  // measure 31
1000
0100
0001
0100
,  // measure 32
0010
0010
1000
1000
,  // measure 33
0100
0010
0110
0010
,  // measure 34
0001
0020
1030
0100
,  // measure 35
0010
1000
0001
0100
,  // measure 36
0010
0000
0010
0100
,  // measure 37
0002
0000
0003
0010
,  // measure 38
0200
0000
0310
1000
,  // measure 39
0002
0000
0003
0100
,  // measure 40
2000
0000
3010
0100
,  // measure 41
0010
1000
1000
0100
,  // measure 42
0010
0001
0001
0010
,  // measure 43
0000
0010
0100
0001
,  // measure 44
2000
0000
3100
0010
,  // measure 45
0110
0100
0001
0001
,  // measure 46
0010
0100
0010
1000
,  // measure 47
0100
0010
1000
1000
,  // measure 48
0100
0010
0100
0010
,  // measure 49
1000
0001
0110
1000
,  // measure 50
0001
0010
0001
1000
,  // measure 51
0010
0010
0100
0100
,  // measure 52
0001
0000
0001
0010
,  // measure 53
0100
0100
1001
0000
,  // measure 54
0010
0100
1000
0100
,  // measure 55
0001
0100
0110
0000
,  // measure 56
0010
1000
0010
0010
,  // measure 57
0100
0001
0100
0000
,  // measure 58
0100
0010
1000
1001
,  // measure 59
0010
0100
0001
0000
,  // measure 60
0010
1000
0001
1001
;
