#TITLE:SHOOT!;
#SUBTITLE:;
#ARTIST:ITZY;
#TITLETRANSLIT:;
#SUBTITLETRANSLIT:;
#ARTISTTRANSLIT:;
#CREDIT:;
#BANNER:SHOOT banner.png;
#BACKGROUND:SHOOT bg.png;
#LYRICSPATH:;
#CDTITLE:;
#MUSIC:SHOOT!.mp3;
#OFFSET:-7.600;
#SAMPLESTART:36.580;
#SAMPLELENGTH:15.000;
#SELECTABLE:YES;
#BPMS:0.000=132.000;
#STOPS:80.000=0.440
,207.000=0.460
;
#BGCHANGES:;

//---------------dance-single - ----------------
#NOTES:
     dance-single:
     :
     Hard:
     7:
     0.509,0.462,0.151,0.057,0.043:
1001
0000
0000
0010
0100
0100
0010
0001
,
0000
0000
0010
1000
0100
0000
0100
1000
,
0010
0000
0000
0100
0100
0010
0001
0010
,
0100
0000
0010
1000
0001
0000
0001
1000
,
0100
0000
0000
0100
0100
1000
0100
1000
,
0000
0000
1000
0100
0010
0001
0010
0100
,
1000
0000
0100
0010
0100
0010
0100
0100
,
0010
0000
0001
0000
0010
0010
0100
0010
,
0002
0000
0010
0103
0010
1000
0010
0000
,
0100
0000
0010
0000
1000
0100
0001
0100
,
2000
0000
0100
3010
0100
0010
1000
0000
,
0100
0000
0010
0000
0100
1000
0001
0100
,
0020
0000
0001
0130
0001
0010
0001
0100
,
0010
0000
0010
0010
0100
0010
1000
0001
,
0100
0000
0100
0000
0010
1000
1000
1001
,
0100
0000
0010
0100
0001
1000
0010
0100
,
1001
0000
0000
0100
0110
0010
0100
0010
,
0001
0000
0001
0010
0100
0010
1000
0010
,
0100
0000
0000
0000
0010
0000
1000
0000
1000
0000
0100
0000
0010
0100
0000
0000
,
0010
0000
0100
0010
1000
0001
0010
0100
,
0110
0100
0010
0000
1000
0100
0100
1000
,
0010
0100
0010
0001
0010
0100
0110
0000
,
0010
0000
0100
0001
1000
0010
0110
0000
,
0010
0100
1000
0000
1000
0100
0010
0000
,
0100
0000
1000
0000
0010
0000
0100
0000
0010
0001
0000
0000
0010
0000
0010
0000
,
0100
0100
0010
1000
0001
0100
0110
0000
,
0010
0000
0010
0000
0100
0000
0010
0000
0100
0010
0000
0000
1001
0000
0000
0000
,
0100
0010
1000
0001
0010
0001
0010
0000
,
0100
0100
0020
0100
0130
0100
0001
1000
,
0010
0001
0100
1000
0010
0100
1001
0000
,
1000
1000
0100
0010
0001
0010
0100
0000
,
0010
0001
0010
0000
0010
0100
0020
0000
,
0000
0000
0130
0100
0010
1000
0100
0001
,
0100
0010
0010
1000
0100
0001
0100
0000
,
0010
0010
0100
0010
0000
1001
0000
0010
,
0100
1000
0100
0010
0100
0010
0001
0000
,
0001
0000
0000
0000
0010
0000
0000
0000
1000
0100
0000
0000
0100
0000
0000
0000
,
0010
0100
0010
1000
0001
1000
0110
0000
,
0010
0100
0010
0001
0010
1000
0100
0010
,
0100
0001
0010
0100
0100
0100
0020
0000
,
0230
0000
0301
1000
0010
0100
0001
0000
,
1000
1000
0100
1000
1000
0100
0010
0010
,
0010
0100
0010
0001
0010
0100
0110
0000
,
0000
0000
0100
0010
1000
0001
0020
0000
,
0130
0001
0000
0000
0010
0000
1000
0000
0100
0000
0010
0000
1000
0000
0100
0000
,
0010
0001
0010
0010
0100
0010
0001
0000
,
0010
0000
0100
0010
1000
0001
0010
0000
,
0100
0000
0010
0000
0100
0010
0110
0000
,
0000
0000
1000
0000
0100
0000
0001
0000
0100
0010
0000
0000
0110
0000
0000
0000
,
0010
0000
0100
0000
0010
0000
1000
0001
1000
0000
0010
0000
0001
0000
0000
0000
,
0010
0100
0100
0010
1000
0100
1000
0000
,
1000
0100
0010
0001
0010
0100
0110
1000
,
0100
0001
0100
0010
1000
0000
0100
0100
,
0010
0100
0010
0001
1001
0000
0010
0100
,
0110
1000
0001
1000
1001
0000
0100
0100
,
0010
0100
1000
0100
0001
0000
0001
0010
,
0100
0000
1000
0000
0100
0001
0100
0000
0010
0000
0000
0000
0010
0000
0100
0000
,
0010
0000
1000
0100
1000
0000
0100
0000
0010
0000
0000
0000
0100
0000
0100
0000
,
0010
0000
1000
0000
0001
0100
0000
0000
0010
0000
0100
0000
0010
0000
0001
0000
,
1000
0010
0100
1000
0010
0000
0100
0100
,
0010
0000
1000
0000
0001
0010
0001
0000
0010
0000
0000
0000
0100
1000
0100
0000
,
0010
1000
0100
0010
0001
0000
0010
0100
,
0110
0010
0001
0010
0100
1000
1000
0100
,
0010
0000
0100
0010
0100
0000
0010
0001
,
0010
0100
0010
1000
0000
1000
0000
0100
,
0100
0000
0010
0000
1000
0000
0100
0010
,
0001
0010
0100
1000
0000
0100
0000
0010
,
0010
0100
0001
0000
0010
0000
0001
0000
,
0010
0000
0100
0010
0000
0000
0100
0000
,
0100
0010
1000
0000
,
1000
0100
0010
0000
,
0100
0010
0110
0000
;

//---------------dance-single - ----------------
#NOTES:
     dance-single:
     :
     Medium:
     4:
     0.367,0.436,0.100,0.072,0.000:
1000
0000
0100
0000
0010
0001
0000
0001
,
0000
0010
0100
0010
,
0110
0000
0010
0000
1000
0010
0000
0010
,
0000
0100
1000
0001
,
0010
0000
0001
0000
0001
0100
0010
0000
,
0010
0000
0100
0000
0010
0000
0100
1000
,
0100
0000
0010
0000
0100
0000
0010
0001
,
0010
0000
0100
0000
0010
0000
0001
0001
,
0002
0013
0100
1000
,
0100
0000
0010
0000
1000
1000
0100
0100
,
0020
0000
0130
0100
0100
0000
0010
0000
,
1000
0000
0010
0000
0100
0000
0010
1000
,
0001
0001
0010
0100
,
1000
0000
0100
0000
0010
1000
0001
1000
,
0010
0000
0100
0010
,
0110
0000
0001
1000
,
1001
0000
0010
0100
,
0100
0010
0001
0010
,
1100
0000
0000
0100
1000
0000
0100
0010
,
0100
0010
0100
0001
,
1001
0010
0100
0100
,
1000
0000
0010
0000
0100
0010
0001
0000
,
0010
0000
0001
0000
0010
0100
1000
0000
,
0010
0000
0100
0000
0010
1000
0010
0000
,
0100
0000
0010
0000
0100
0100
0100
0000
,
0010
0010
0010
0000
0001
0000
0010
0000
,
0100
0010
0100
0100
,
1000
0000
0100
1000
0100
0010
0100
0000
,
0000
0100
0110
0000
0010
0000
0100
0000
,
0010
0001
0010
0100
,
0010
1000
0010
0100
,
1000
0000
0100
0000
0010
0010
0020
0000
,
0000
0030
0000
0000
0100
0000
0100
0000
,
0001
0000
0010
0000
0100
0010
1000
0000
,
0100
0100
0010
0010
,
0100
0000
1000
0000
0010
1000
0001
0000
,
0100
0100
0001
0010
,
0001
0010
1000
0000
1000
0010
0001
0000
,
0010
0000
0100
0000
1000
1000
1000
0000
,
0100
0000
1000
0000
0010
0100
0020
0000
,
0032
0000
0013
0200
0310
0200
1300
0000
,
0100
0000
0010
1000
0001
0000
0210
0000
,
0310
0000
1000
0020
0031
0020
1030
0000
,
0100
0000
0010
1000
0100
0000
0100
1000
,
0010
0100
0010
0001
,
0100
0010
0100
0000
0010
0000
0100
0000
,
0000
0000
0010
0100
0010
0100
0010
0000
,
0000
0001
0010
0110
,
0000
0100
0010
0000
1000
0001
0010
0000
,
0010
0001
1000
0000
0010
0100
1000
0000
,
0000
0100
1000
0000
0100
0010
0100
0000
,
1000
0100
0010
0000
0100
0010
0001
0000
,
0110
0000
0010
0010
0100
0000
0100
0000
,
0010
0000
1000
0001
0010
0000
0000
0100
,
0100
0010
1000
0001
0010
0000
0100
0000
,
0010
1000
1001
0100
,
0010
0000
0001
0010
0001
0000
0010
0100
,
0010
0000
0100
1000
0100
0000
1000
0000
,
1100
0000
0010
1000
0100
0000
0100
0010
,
0001
0000
0100
0010
0100
0000
0010
0000
,
0110
0000
0001
0000
1000
0000
0010
0001
,
0010
0000
0010
0100
0010
0000
0100
0000
,
0110
0000
1000
0100
0100
0000
0001
0010
,
0010
0100
0010
0100
,
0001
0000
1000
0010
0000
0000
0000
0010
,
1000
0100
1000
0010
,
0100
0000
0010
0100
0000
0000
0000
0010
,
0100
0010
0001
0010
,
0001
0010
0100
0010
,
1000
0100
0010
0000
,
0100
1000
0010
0100
,
0001
0010
0110
0000
;

//---------------dance-single - ----------------
#NOTES:
     dance-single:
     :
     Easy:
     2:
     0.275,0.334,0.065,0.108,0.000: // measure 1
0010
0000
0010
0100
,  // measure 2
0010
1000
0100
0001
,  // measure 3
0010
0000
0100
0000
,  // measure 4
0010
0000
0100
1000
,  // measure 5
0100
0000
1000
0100
,  // measure 6
0010
0100
0010
0001
,  // measure 7
0010
0000
0100
1000
,  // measure 8
0100
0000
0010
0100
,  // measure 9
0020
0130
0001
1000
,  // measure 10
0020
0030
1001
1001
,  // measure 11
0010
0100
0010
1000
,  // measure 12
0200
0300
0010
0100
,  // measure 13
0010
0001
0010
0100
,  // measure 14
0020
0030
0100
0100
,  // measure 15
0010
0000
0010
0010
,  // measure 16
0100
0000
0001
0010
,  // measure 17
0100
0000
0010
0100
,  // measure 18
1000
0100
0010
0100
,  // measure 19
0010
0000
0100
0010
,  // measure 20
0001
1000
0010
0100
,  // measure 21
0110
0010
0100
0010
,  // measure 22
0010
0100
0100
1000
,  // measure 23
0000
0100
1000
0100
,  // measure 24
0000
0010
0100
0010
,  // measure 25
0000
0001
1000
0010
,  // measure 26
0001
0010
1000
0010
,  // measure 27
0000
0010
0100
0010
,  // measure 28
0001
0010
0100
0010
,  // measure 29
0000
0110
0100
1000
,  // measure 30
0100
0010
0100
0010
,  // measure 31
0000
1000
0100
0010
,  // measure 32
0100
0010
0001
0020
,  // measure 33
0000
0030
0000
0100
,  // measure 34
0100
1000
1000
0100
,  // measure 35
0010
0100
0010
0001
,  // measure 36
0001
0010
0100
0010
,  // measure 37
0000
0100
0010
0100
,  // measure 38
0010
0001
1000
0001
,  // measure 39
0000
1000
0100
0010
,  // measure 40
0010
0100
0001
0020
,  // measure 41
0230
2300
3200
0310
,  // measure 42
1000
1000
0100
0020
,  // measure 43
0230
0302
0023
0130
,  // measure 44
0010
0100
0010
0002
,  // measure 45
0013
0200
1300
0010
,  // measure 46
0100
0010
1000
0001
,  // measure 47
0000
0010
0100
0010
,  // measure 48
0000
0100
0010
1001
,  // measure 49
0010
0100
0010
0100
,  // measure 50
0010
0001
0010
0100
,  // measure 51
1000
0100
0010
1000
,  // measure 52
0010
0100
0010
1001
,  // measure 53
0100
0010
0100
0010
,  // measure 54
1000
0100
0010
0000
,  // measure 55
0010
0001
0010
0000
,  // measure 56
0010
0100
0010
1000
,  // measure 57
0010
0100
0100
0010
,  // measure 58
0001
0010
0100
0000
,  // measure 59
0010
0100
1000
0100
,  // measure 60
0010
0001
0010
0000
,  // measure 61
0010
0001
0100
0010
,  // measure 62
1000
0100
0010
0100
,  // measure 63
0010
1000
1001
0010
,  // measure 64
0001
0010
1001
0000
,  // measure 65
0100
0000
0010
0000
,  // measure 66
1000
0000
0100
0000
,  // measure 67
0010
0000
0100
0000
,  // measure 68
0001
0000
0010
0000
,  // measure 69
0100
0000
0010
0000
,  // measure 70
0010
1000
0010
0000
,  // measure 71
0100
0001
0100
0010
,  // measure 72
1000
0001
1001
0000
;
