#TITLE:On The Ground;
#SUBTITLE:;
#ARTIST:ROSE;
#TITLETRANSLIT:;
#SUBTITLETRANSLIT:;
#ARTISTTRANSLIT:;
#CREDIT:;
#BANNER:On The Ground banner.png;
#BACKGROUND:On The Ground bg.png;
#LYRICSPATH:;
#CDTITLE:;
#MUSIC:On The Ground.mp3;
#OFFSET:-0.500;
#SAMPLESTART:38.340;
#SAMPLELENGTH:15.000;
#SELECTABLE:YES;
#BPMS:0.000=95.060;
#STOPS:128.000=1.900
;
#BGCHANGES:;

//---------------dance-single - ----------------
#NOTES:
     dance-single:
     :
     Hard:
     8:
     0.511,0.495,0.161,0.085,0.473:
1000
0100
0010
0001
1000
1000
0100
0010
,
0001
0000
0001
0010
0100
0010
1000
0100
0010
0000
0001
0010
0001
0000
0010
0100
,
1000
0000
1000
0000
0010
0100
0010
0100
0001
0000
1000
0000
0010
0100
1000
0100
,
0010
0000
0001
0010
0100
0010
1000
0100
0010
0000
0100
0000
0001
0000
0001
0000
,
0010
0100
2000
0000
3010
0100
0002
0000
,
0013
0100
0010
1000
0100
0000
0010
0000
0100
0000
0010
0000
0110
0000
0000
0000
,
0010
0001
0200
0000
0310
1000
0020
0000
,
0230
0000
0000
0301
1000
0001
0010
0000
,
0110
0000
0000
0000
0100
0000
0000
0001
0000
0010
0100
0000
0010
0000
0000
0000
,
1000
0100
0010
0000
0200
0000
0310
0000
,
0010
0100
0001
1000
0010
0100
1001
1001
,
0110
0000
0000
0010
0100
0001
0010
0000
,
1000
0000
0000
0000
0100
0000
0000
0010
0000
0100
0001
0000
0010
0000
0100
0000
,
0010
0010
0100
0001
1000
0000
0100
0000
,
0001
0010
0100
1000
0100
0010
0001
0001
,
0110
0100
0110
0100
1100
0100
0001
0010
,
0110
0000
1001
0000
0001
0010
0100
1000
0000
1000
0000
0100
0010
0100
0010
0001
,
0010
0000
0100
0000
0001
1000
0010
0100
0000
0100
0000
0100
0010
0000
0010
0000
,
0110
0000
0000
0000
1000
0001
0100
0010
0000
0010
0000
0100
0001
0000
0010
0100
,
1000
0100
0010
0001
0010
0100
1000
1000
,
0110
0000
0001
0000
0010
0000
0100
0000
1000
0100
1000
0000
0010
0000
0100
0001
,
0000
0010
0000
0100
0000
0000
0010
0100
0000
1000
0000
0100
0000
0010
0100
0000
,
0110
0000
1001
0000
0010
0000
0100
0001
0010
1000
0010
0000
0100
0000
0010
1000
,
0000
0001
0000
1000
0000
0010
0000
0100
0000
0000
0020
0000
0000
0000
0000
0000
,
0130
0000
0000
0000
0001
0010
0100
0010
,
1000
0000
0000
0000
0100
0010
0001
0010
,
0100
0000
0000
0000
0000
0000
0001
0010
0100
1000
0100
0020
0000
0000
0000
0000
,
0130
1000
0100
0001
0010
0100
0010
1000
,
0001
0000
0001
0000
0010
0000
0010
0000
0100
1000
0000
1000
0000
0010
0100
0000
,
1000
0000
1000
0000
0100
0000
0100
0000
0010
0001
0000
0001
0000
0010
0100
0000
,
0010
0000
0010
0000
0100
0000
0001
1000
0010
0100
0010
0200
0000
0000
0000
0000
,
0310
0001
1000
0010
0100
0010
1000
0100
,
1001
0000
0000
0000
0010
0010
0100
0010
0001
0010
0100
1000
0000
0100
0000
0010
,
0100
0010
0001
0010
0100
0000
0010
1000
0100
0001
0100
0010
0000
0010
0000
0100
,
0010
0000
1000
0000
1000
0100
0001
0010
0100
0010
0001
0010
0000
0010
0000
1000
,
0100
0001
0100
0001
0010
0000
0100
0000
0001
0000
1000
0000
0001
0000
0100
0000
,
0010
0000
0001
0000
1001
0000
0010
0000
0100
0010
0001
0010
0000
0100
0010
1000
,
0100
0001
1000
0010
0100
0000
0010
0001
0010
1000
0100
0010
0000
0100
0000
0001
,
0010
0000
0100
0000
1000
0010
0001
0010
1000
0010
0001
0100
0000
0010
0000
0100
,
0010
0001
0010
1000
0010
0000
0100
0000
0001
0000
0010
0000
1000
0000
0010
0000
,
0100
0010
1001
0000
0000
0000
0000
0000
;

//---------------dance-single - ----------------
#NOTES:
     dance-single:
     :
     Medium:
     7:
     0.334,0.305,0.095,0.085,0.000:
1000
0000
0100
0000
0010
0000
0001
0010
,
0100
0000
0010
0000
0100
0000
0010
0010
,
0100
0000
0010
1000
0100
0000
0010
0001
,
0100
0000
0010
0000
0100
0100
0010
0000
,
0001
0010
2000
0000
3100
0010
0002
0000
,
0013
0000
0100
0000
0010
1000
1010
0000
,
0100
0010
2000
0000
3010
0100
0020
0000
,
0130
0000
0001
0010
,
0110
0000
0010
0000
0001
0010
0200
0000
,
0310
0100
1000
0000
0100
0000
0010
0000
,
0100
0100
0010
1000
0100
0010
0001
0100
,
0010
0000
0000
0001
0010
0100
0010
0000
,
1001
0000
0010
0100
0002
0000
0013
0000
,
0100
0010
1000
0000
0001
0000
0100
0000
,
0010
0010
0100
0000
0010
1000
0010
0000
,
0100
0000
0100
0000
0100
0000
0010
0010
,
0110
0001
0010
0000
0010
0000
0100
0010
,
1000
0000
0100
0000
0010
0000
1000
0010
,
0010
0000
0110
0000
1000
0001
1000
0000
,
0001
0100
0010
1000
0010
0100
0010
0010
,
0001
0000
0100
0010
1000
0010
0000
0100
,
0100
0000
0110
0000
0010
1000
0001
0000
,
0010
0000
1000
0100
0100
0001
0000
0010
,
0100
0000
0010
0100
0010
0000
0010
0000
,
0200
0000
0000
0300
0010
0000
1000
0000
,
0002
0000
0000
0003
0010
0000
0100
0000
,
2000
0000
0000
3000
0010
0010
0100
0000
,
0010
1000
0001
0100
,
0010
0010
0001
0001
0010
0000
0100
0000
,
0010
0010
1000
1000
0100
0000
0010
0000
,
0100
0010
0100
0010
0001
1000
0010
0000
,
0100
0010
1000
0100
0001
0100
0010
0100
,
0010
0000
1001
0000
0010
0000
0100
0100
,
0010
1000
0001
0000
0010
0100
0010
0010
,
0100
0001
1000
0000
1010
0000
0100
0100
,
1000
0010
0001
0100
0010
1000
0100
0001
,
0010
0100
1000
0100
0000
0010
0100
0010
,
0001
0001
0010
0000
0100
0000
0010
1000
,
0100
0010
0100
0000
0110
0010
0010
0001
,
0000
0010
0100
0010
1000
0100
0001
0100
,
0010
0100
1001
0000
0000
0000
0000
0000
;

//---------------dance-single - ----------------
#NOTES:
     dance-single:
     :
     Easy:
     4:
     0.224,0.209,0.076,0.047,0.000: // measure 1
0010
0000
0010
0100
,  // measure 2
0001
0000
0001
0010
,  // measure 3
1000
0000
0100
0000
,  // measure 4
0010
0100
0010
0010
,  // measure 5
0100
0001
0010
1000
,  // measure 6
0010
0010
0100
0100
,  // measure 7
0010
1000
0100
0001
,  // measure 8
0020
0000
0130
0100
,  // measure 9
0110
0010
1000
0010
,  // measure 10
0100
0001
0200
0300
,  // measure 11
0010
0010
0100
0001
,  // measure 12
1001
0000
0010
1000
,  // measure 13
1000
0100
0001
0100
,  // measure 14
0010
0001
0020
0030
,  // measure 15
1000
1000
0100
0100
,  // measure 16
0010
0010
0010
0010
,  // measure 17
0110
1001
0010
0001
,  // measure 18
0010
0100
0010
1000
,  // measure 19
1000
0110
1000
0100
,  // measure 20
0001
0010
0100
0010
,  // measure 21
1000
0000
0001
0000
0100
0010
0000
0000
,  // measure 22
0010
0010
0100
0100
,  // measure 23
0001
0000
0010
0000
1000
0100
0000
0000
,  // measure 24
0010
0100
0001
1000
,  // measure 25
0020
0000
0130
0100
,  // measure 26
0002
0000
0013
0010
,  // measure 27
0100
0000
1000
0010
,  // measure 28
0100
0100
0001
0001
,  // measure 29
0010
1000
0001
0100
,  // measure 30
0010
1000
0100
0100
,  // measure 31
0010
0100
0001
0010
,  // measure 32
0100
0000
0010
0000
1000
0000
0010
0100
,  // measure 33
0000
1001
0010
0100
,  // measure 34
0010
0001
0100
0010
,  // measure 35
0100
0100
1001
0010
,  // measure 36
1000
0010
0010
0100
,  // measure 37
1000
0000
0010
0000
0100
0000
0001
0010
,  // measure 38
0000
0010
0100
0000
0010
0000
1000
0000
,  // measure 39
0010
0000
0100
0000
1000
0000
0010
0100
,  // measure 40
0000
0100
0010
0000
0001
0000
0010
0000
,  // measure 41
0100
1001
0000
0000
;
