#TITLE:O.O.O (Over&Over&Over);
#SUBTITLE:(99 Version);
#ARTIST:Girls Planet 999;
#TITLETRANSLIT:;
#SUBTITLETRANSLIT:;
#ARTISTTRANSLIT:;
#CREDIT:;
#BANNER:O.O.O banner.png;
#BACKGROUND:O.O.O bg.png;
#LYRICSPATH:;
#CDTITLE:;
#MUSIC:O.O.O (99 Version).mp3;
#OFFSET:-5.600;
#SAMPLESTART:63.680;
#SAMPLELENGTH:15.000;
#SELECTABLE:YES;
#BPMS:0.000=64.000,14.000=128.000;
#STOPS:;
#BGCHANGES:3.833=O.O.O (99 Version).avi=1.000=1=0=0,
99999=-nosongbg-=1.000=0=0=0 // don't automatically add -songbackground-
;

//---------------dance-single - ----------------
#NOTES:
     dance-single:
     :
     Hard:
     8:
     0.447,0.410,0.177,0.239,0.261:
0000
0000
0000
0000
,
2000
0000
3000
0100
0010
0000
0001
0000
0020
0000
0030
0000
1000
0000
0001
0000
,
1000
0000
0000
0001
1000
0000
0001
0000
2002
0000
0000
0000
0000
0000
0000
0000
,
3003
0000
0000
0000
0000
0000
0000
0000
1001
0000
0010
0100
0010
0000
1000
0000
,
0002
0000
0000
0000
0003
0000
0000
0000
0010
0000
0100
1000
0100
0000
0010
0000
,
2000
0000
3000
0000
0100
0010
0001
0000
,
0010
0000
1000
0000
1000
0000
0000
0000
0010
0000
0100
0002
0000
0000
0010
0003
,
0010
0000
0100
0000
0000
0000
0000
0000
0010
0000
1000
0001
0000
0001
1000
0000
,
0010
0000
0200
0000
0000
0000
0300
0000
0010
0000
0001
1000
0000
1000
0001
0000
,
0100
0000
0020
0000
0000
0000
0030
0000
0001
0000
0010
0100
0000
0100
1000
0000
,
0100
0000
0020
0000
0000
0000
0030
0000
1000
0001
0000
0000
0010
0000
0000
0000
,
1001
0000
0000
0000
0000
0000
0000
0000
0010
0000
1000
0001
1000
0000
0100
0000
,
0010
0000
0002
0000
0000
0000
0013
0000
0100
0000
0010
1000
0010
0000
0100
0000
,
1000
0200
0000
1300
0010
0100
0001
0000
,
1000
0000
0010
0000
0110
0000
0000
0000
1000
0001
1000
0001
0000
0000
0010
0000
,
0100
0000
0020
0000
0000
0000
0130
0000
0001
0000
1000
0010
0000
0000
0001
0000
,
0010
0000
0100
0000
0000
0000
0010
0000
0100
0000
1000
0001
0000
0000
0010
0000
,
0100
0000
0001
0000
0000
0000
0001
0010
1000
0000
0010
1000
0000
0000
0100
0000
,
0010
0000
0000
0001
0000
0000
0000
0000
0000
0010
0000
0000
0100
0000
0010
0000
1000
0000
0001
0000
0100
0000
0010
0000
,
2000
3100
0011
0010
,
0110
0100
1100
0100
,
0010
0100
1000
0010
0001
0000
0001
0010
,
0200
0000
0000
0300
0000
0000
0010
0100
1000
0100
0000
0010
,
0100
0110
1000
1200
,
0310
0012
0103
0120
,
1030
0001
0100
0010
0110
0000
1000
0001
,
1000
0000
0010
0100
0000
0000
0000
0000
,
0001
0000
1000
0000
0010
0100
0010
0000
0001
0010
0000
0000
0010
0100
0000
0000
,
1000
0000
0100
0010
0100
0000
0002
0000
0000
0000
0013
0000
0100
0000
0010
0000
,
1000
0000
0000
0000
0100
0000
0010
0100
0010
0000
0000
0000
1000
0000
0100
0001
,
0100
0010
1000
0010
0100
0001
0010
0000
,
0010
0100
0110
0000
1000
0000
0010
1000
,
0010
0000
0001
1000
0000
0000
0010
0000
0001
0000
0100
0000
1000
0000
0001
0000
,
0100
0000
0010
0001
0000
0000
0100
0000
0010
0000
0000
0000
0001
0000
0010
0000
,
0100
1000
0000
1100
0000
0011
0000
0100
,
0010
0000
1000
0001
1000
0000
0000
0000
0010
0000
0000
0100
0000
0000
0010
1000
,
0001
0000
0010
0000
0100
0000
0000
0000
1000
0100
0000
0000
0100
0010
0000
0000
,
0001
0000
0002
0000
0000
0000
0000
0000
0013
0000
0000
0001
0000
0000
0010
0100
,
1000
0000
0010
0000
0100
0000
0000
0000
0001
0010
0000
0000
0010
0100
0000
0000
,
1000
0000
2000
0000
0000
0000
0000
0000
3100
0000
0000
0010
0000
0000
0100
0010
,
0100
0000
0001
0000
1000
0000
0010
0000
1000
0100
0000
0000
0001
0010
0000
0000
,
0200
0000
0000
0000
0310
0000
0000
0000
1000
0000
0000
0100
0000
0000
0010
0000
,
0001
0000
0000
0010
0000
0000
0100
0000
1000
0001
0000
0000
0100
0010
0000
0000
,
0001
0000
0000
0100
0000
0000
1000
0000
0010
0000
0000
0000
0000
0000
0000
0000
,
0100
0000
0000
0010
0000
0000
1000
0000
0020
0000
0000
0000
0000
0000
0030
0000
,
0100
0000
0000
0001
0000
0000
0010
0000
0002
0000
0000
0000
0000
0000
0003
0000
,
0010
0000
0100
0010
0000
0010
0100
0000
,
0000
0000
0000
0000
0000
0000
0000
0000
1100
0000
0000
0100
0000
0000
1000
0000
,
1010
0000
0000
0100
0000
0000
0010
0000
1001
0000
0000
0010
0000
0000
0001
0000
,
0110
0000
0000
0100
0000
0000
1000
0000
0020
0000
0000
0000
0000
0000
0030
0000
,
0100
0001
1000
0010
0100
0001
2002
0000
,
0000
0000
3003
0000
;

//---------------dance-single - ----------------
#NOTES:
     dance-single:
     :
     Medium:
     5:
     0.342,0.319,0.115,0.124,0.000:
0000
0000
0000
0000
,
2000
0000
3100
0010
0002
0000
0013
0000
,
0200
0000
0310
1000
2002
0000
0000
0000
,
3003
0000
0000
0000
0010
0000
0100
0010
,
1000
0000
0000
0000
0001
0000
0100
0010
,
0001
0000
0000
0000
0010
0010
0100
0000
,
0100
0100
0010
0000
1000
0000
0001
0010
,
0200
0000
0300
0000
0010
0000
1000
0100
,
0001
0100
0000
0000
0010
0000
0001
0010
,
0100
1000
0000
0000
0100
0000
0010
1000
,
0001
0100
0000
0000
0001
0000
1000
0000
,
1001
0000
0100
0010
,
1000
0100
0001
0000
0001
0000
0100
0000
,
0010
1000
0001
0000
0010
0010
0100
0000
,
0001
0001
0010
0000
0010
0000
0100
1000
,
0100
0020
0000
0030
0100
0000
0010
1000
,
0010
0100
0000
0100
0001
0000
0001
0010
,
0100
1000
0000
1000
0010
0000
1000
0001
,
1000
0001
0000
0010
0100
0000
0010
0000
,
2000
3001
0110
0100
,
1100
0100
0101
0010
,
0001
0010
0100
1000
0100
0000
0010
0100
,
0020
0000
0030
0000
1000
1000
0001
0001
,
0100
0010
0001
0011
,
0010
0110
0100
1100
,
0010
1000
0001
0100
0010
0000
0010
0000
,
0100
0000
1000
0001
0000
0000
0000
0000
,
0010
0000
0100
0000
0010
1000
0001
0000
,
0010
0100
0001
1000
0000
1000
0010
0000
,
0110
0000
1000
0001
0000
0001
1000
0000
,
0010
0000
0100
1000
0000
1000
0100
0000
,
0010
0000
0100
0001
0100
0000
0010
1000
,
0010
0000
0100
0010
0001
0000
0001
0010
,
0100
0000
1000
0010
0100
0000
0010
1000
,
0010
1000
0000
0100
0000
0001
0000
1000
,
0010
0000
1001
0000
0010
0000
0100
0100
,
0100
0000
0001
0000
1000
0000
0010
0100
,
0010
0002
0000
0003
0010
0000
0100
0010
,
0100
0000
0010
0000
1000
0000
0001
0010
,
0100
2000
0000
3000
0100
0000
0010
1000
,
0010
0000
0100
0001
0100
0000
0010
1000
,
0001
0100
0010
0000
0010
0000
0110
0000
,
0100
1100
0001
0010
,
0100
0000
1000
0010
1000
0000
0000
0000
,
0100
0000
0010
0001
0010
0000
0000
0000
,
0001
0000
0010
0100
0010
0000
0000
0000
,
1000
0000
0010
0100
0000
0100
0010
0000
,
0000
0000
0000
0000
1000
0000
0100
0010
,
0001
0000
0001
1000
0001
0000
0001
0010
,
0100
0000
1000
0010
0200
0000
0000
0300
,
0010
0001
1000
0100
0001
1000
2002
0000
,
0000
0000
3003
0000
;

//---------------dance-single - ----------------
#NOTES:
     dance-single:
     :
     Easy:
     2:
     0.256,0.273,0.168,0.150,0.000: // measure 1
0000
0000
0000
0000
,  // measure 2
2000
3100
0020
0031
,  // measure 3
0200
0310
2002
0000
,  // measure 4
3003
0000
0010
0100
,  // measure 5
0010
0000
0001
1000
,  // measure 6
0001
0000
0010
0010
,  // measure 7
0100
0100
0010
1000
,  // measure 8
0020
0030
0100
1000
,  // measure 9
0100
0000
0001
0010
,  // measure 10
0001
0000
0100
0010
,  // measure 11
0100
0000
1000
0001
,  // measure 12
1001
0000
0010
0100
,  // measure 13
0010
0000
0001
0010
,  // measure 14
0100
0000
0010
0100
,  // measure 15
1000
0100
0010
0100
,  // measure 16
0002
0003
0010
1000
,  // measure 17
0010
0000
0100
0001
,  // measure 18
0100
0000
0010
1000
,  // measure 19
0001
0000
0001
0001
,  // measure 20
0020
0130
0110
0000
,  // measure 21
1001
0000
0110
0000
,  // measure 22
0010
1000
0001
0100
,  // measure 23
0010
0000
0010
0100
,  // measure 24
1000
1000
0110
0010
,  // measure 25
1001
0010
1001
0100
,  // measure 26
0010
1000
0002
0003
,  // measure 27
0020
0030
0100
0000
,  // measure 28
1000
1000
0100
0010
,  // measure 29
0100
0010
0001
0010
,  // measure 30
0010
0100
0010
1000
,  // measure 31
0001
0100
0010
0010
,  // measure 32
0100
0100
0010
1000
,  // measure 33
0200
0310
0001
0010
,  // measure 34
0200
1300
0100
0100
,  // measure 35
0001
0001
1000
0010
,  // measure 36
0100
0010
1001
1001
,  // measure 37
1001
0000
0001
0010
,  // measure 38
0200
0300
0110
0110
,  // measure 39
0110
0000
1000
0100
,  // measure 40
0020
0030
1001
0110
,  // measure 41
1001
0110
0001
0010
,  // measure 42
0200
1300
0010
0010
,  // measure 43
0100
0100
0001
1000
,  // measure 44
0010
0100
0001
0000
,  // measure 45
0001
0010
0100
0000
,  // measure 46
0010
0100
1000
0000
,  // measure 47
0100
0010
0100
0010
,  // measure 48
0000
0000
0010
0100
,  // measure 49
0010
0001
0010
1000
,  // measure 50
0100
0010
1000
0000
,  // measure 51
1000
0100
0010
2002
,  // measure 52
0000
0000
3003
0000
;
