#TITLE:Love So Sweet;
#SUBTITLE:;
#ARTIST:Cherry Bullet;
#TITLETRANSLIT:;
#SUBTITLETRANSLIT:;
#ARTISTTRANSLIT:;
#CREDIT:;
#BANNER:Love So Sweet banner.png;
#BACKGROUND:Love So Sweet bg.png;
#LYRICSPATH:;
#CDTITLE:;
#MUSIC:Love So Sweet.mp3;
#OFFSET:-6.860;
#SAMPLESTART:46.860;
#SAMPLELENGTH:15.000;
#SELECTABLE:YES;
#BPMS:0.000=150.000;
#STOPS:;
#BGCHANGES:;

//---------------dance-single - ----------------
#NOTES:
     dance-single:
     :
     Hard:
     7:
     0.520,0.474,0.280,0.000,0.064:
1001
1000
1000
1000
,
0000
1000
0000
0100
0010
0100
0010
0001
,
0000
0001
0010
0000
0100
0000
0010
0100
,
0110
0000
1000
0001
0010
1000
0010
0001
,
1000
0000
0100
0010
0001
0010
0100
1000
,
0000
0100
0000
0010
1000
0001
0100
0010
,
0000
0010
0000
0100
0001
1000
0010
0001
,
0000
0001
0000
0010
0100
1000
1000
0100
,
0000
0010
0000
0100
0000
1000
1001
0001
,
0010
0100
0010
0100
0010
0100
0010
0001
,
0001
0010
0100
1000
0010
0001
1000
0010
,
0001
0000
0010
0100
0000
0000
0010
0000
0100
0000
1000
0100
0000
0000
0010
0000
,
0100
0000
0000
0010
0000
0000
0100
0000
0001
0000
1000
0000
1001
0000
0000
0000
,
1000
0001
1000
0001
1000
0001
0100
0010
,
0010
1000
0001
0100
0010
1000
0010
0001
,
0000
0001
0000
0010
0000
0010
1000
0100
,
1000
0000
0100
0000
0010
1000
0001
0000
,
0110
0100
0010
0100
0010
0001
0010
1000
,
0010
0000
0000
1000
0000
0000
0010
0000
0100
0000
0000
0000
0010
0000
0100
0000
,
0110
1000
0100
0010
0001
0010
0100
1000
,
0010
0000
0000
0010
0000
0000
0010
0000
0100
0000
0001
0000
0010
0000
1000
0000
,
0100
0100
0010
0010
1000
0001
0100
0010
,
0100
0000
0000
1000
0000
0000
0001
0000
0100
0000
0000
0000
0010
0000
0010
0000
,
1000
0001
1000
0001
0000
0000
0010
0100
0010
0100
0000
0000
,
0000
0010
0000
0000
,
1001
0000
1001
0000
0010
0100
0010
1000
,
0000
0100
0000
0010
0000
0000
0000
1000
,
1001
0000
0110
0000
0001
0010
0100
1000
,
0000
0010
0000
0001
0000
0000
0000
0010
,
0100
0000
0010
0000
1000
0100
0010
0001
,
0010
0100
0010
1000
0100
0001
0100
1000
,
0010
0000
0010
0000
0000
0010
0010
0010
,
0100
0100
0000
1001
,
0010
0001
0000
0001
0000
0010
1000
0010
,
0000
0100
0000
1100
0000
0100
0010
0100
,
0000
1000
0000
1001
0000
0010
0001
0010
,
0100
0000
0010
0000
0100
1000
0001
0000
,
0010
1100
0000
0110
0000
0010
0001
0010
,
0000
0110
0000
1001
0000
0010
0001
0010
,
0000
1100
0000
0011
0000
0100
1000
0001
,
0000
1010
0000
0110
0000
0010
1000
0010
,
0001
0010
0010
0100
1000
0100
0010
0001
,
0010
0100
0000
0100
0000
0010
1000
0100
,
0001
0100
1000
0010
0100
0001
1000
0110
;

//---------------dance-single - ----------------
#NOTES:
     dance-single:
     :
     Medium:
     6:
     0.425,0.418,0.102,0.216,0.000:
0010
0010
0010
0010
,
0000
0100
0000
0010
0000
0001
0010
0000
,
0100
0000
1000
0000
0010
0000
0100
0010
,
0100
0000
0010
0100
0010
0000
1000
0000
,
0100
0000
0010
0000
0001
0010
0000
0000
,
0010
0100
0000
0010
0000
1000
0000
0100
,
0000
0100
0000
0001
0000
0100
0000
0001
,
0000
0001
0000
1000
0000
0010
0000
0100
,
0000
0010
0000
1000
0000
0001
0010
0000
,
2000
0000
3002
0000
0023
0000
0130
0100
,
0010
0000
1000
0000
0001
0000
0100
0010
,
2000
3100
0020
0031
,
0100
0000
0010
1000
0001
0000
1001
0000
,
0020
0000
0032
0000
0203
0000
1300
0010
,
1000
0000
0100
0010
0100
0000
0010
0001
,
0000
0002
0000
0000
0000
0000
0010
0010
,
0013
0000
0100
0000
0010
1000
1001
0000
,
0010
0000
1000
0100
1000
0000
0100
0010
,
0100
0000
0010
0010
0010
0000
2000
0000
,
3100
0000
0001
0010
0001
0000
0010
0100
,
0010
0000
1000
0001
0010
0000
0010
0000
,
0110
0000
1000
0001
0100
0000
0100
0001
,
1000
0000
0010
0100
0020
0000
0130
0000
,
1000
1000
1000
0000
0001
0001
0001
0000
,
0000
0010
0000
0000
,
2000
0000
3200
0000
0310
1000
0001
0100
,
0000
0100
0000
0020
0000
0030
0000
0100
,
0010
0000
0001
0000
1000
0010
0100
0001
,
0000
0010
0000
0200
0000
0300
0000
1000
,
0100
0000
0001
0000
1000
0001
0010
0001
,
0000
1000
0000
0010
0000
0001
0000
0100
,
0010
0000
0100
0010
1000
0001
1000
0010
,
0100
0100
0000
1001
,
0010
0100
0000
0100
0000
0010
1000
0010
,
0000
0100
0000
0002
0000
0003
0010
0000
,
0100
0010
0000
1000
0000
0001
0010
0001
,
0010
0000
0100
0000
0010
1000
0010
0000
,
0100
0010
0000
1001
0000
0010
0100
0010
,
0000
1000
0000
1001
0000
0000
0010
0000
,
0100
0010
0000
0001
0000
1000
0010
1000
,
0000
0100
0000
0010
0000
1000
0001
1000
,
0000
0010
0000
0110
0000
1000
0100
0010
,
0000
0010
0000
0002
0000
0003
0010
0000
,
0100
0010
0000
0010
0000
1000
0001
1001
;

//---------------dance-single - ----------------
#NOTES:
     dance-single:
     :
     Easy:
     3:
     0.323,0.307,0.114,0.102,0.000: // measure 1
0100
0100
0100
0100
,  // measure 2
0000
1000
0100
0010
,  // measure 3
0001
0010
0100
0100
,  // measure 4
0010
0000
1000
0100
,  // measure 5
0010
0001
0020
0030
,  // measure 6
0100
0010
1000
0100
,  // measure 7
0001
0001
0010
0100
,  // measure 8
1000
1000
0100
0010
,  // measure 9
0100
1000
0001
0010
,  // measure 10
1000
2000
3100
0200
,  // measure 11
0310
0001
1000
0010
,  // measure 12
0100
0100
0010
0010
,  // measure 13
1000
0001
0100
0100
,  // measure 14
0001
0002
0013
0020
,  // measure 15
0130
0010
1000
0001
,  // measure 16
0100
0010
0000
0100
,  // measure 17
0110
0010
1000
1000
,  // measure 18
0001
0010
0100
1000
,  // measure 19
0100
0010
1001
0000
,  // measure 20
0010
0100
0010
1000
,  // measure 21
0100
0001
1001
0000
,  // measure 22
0010
0010
0100
0100
,  // measure 23
0001
0010
0100
1000
,  // measure 24
0100
0100
0010
0010
,  // measure 25
0000
1000
0000
0000
,  // measure 26
1001
1001
0010
0100
,  // measure 27
0010
0100
2000
3000
,  // measure 28
0100
0010
1000
0100
,  // measure 29
0010
0001
0020
0030
,  // measure 30
0100
0100
0010
0010
,  // measure 31
0001
1000
0001
0010
,  // measure 32
0200
0310
0000
0010
,  // measure 33
0100
0010
0000
1001
,  // measure 34
0000
0010
0000
0100
0000
0010
0000
1000
,  // measure 35
0000
0100
0000
0001
0000
0000
1001
0000
,  // measure 36
0000
0010
0000
0100
0000
1000
0000
0010
,  // measure 37
0000
0100
0000
0010
0000
0000
1000
1000
,  // measure 38
0000
0010
0000
0100
0000
0010
0000
1000
,  // measure 39
0000
0100
0000
0001
0000
0000
1001
0000
,  // measure 40
0000
0010
0000
0100
0000
0010
0000
1000
,  // measure 41
0000
0100
0000
0001
0000
0000
0010
0010
,  // measure 42
0000
0100
0000
0010
0000
1000
0000
0001
,  // measure 43
0000
0100
0000
0010
0000
0000
0110
0000
,  // measure 44
0000
1000
0000
0001
0000
0100
0010
0100
;
