#TITLE:LOVE & JOY;
#SUBTITLE:;
#ARTIST:木村由姫;
#TITLETRANSLIT:;
#SUBTITLETRANSLIT:;
#ARTISTTRANSLIT:Yuki Kimura;
#CREDIT:;
#BANNER:LOVE & JOY banner.png;
#BACKGROUND:LOVE & JOY bg.png;
#LYRICSPATH:;
#CDTITLE:;
#MUSIC:LOVE & JOY.mp3;
#OFFSET:-12.460;
#SAMPLESTART:23.500;
#SAMPLELENGTH:15.000;
#SELECTABLE:YES;
#BPMS:0.000=86.800,15.000=173.000;
#STOPS:15.000=0.340
;
#BGCHANGES:;

//---------------dance-single - ----------------
#NOTES:
     dance-single:
     :
     Hard:
     9:
     0.670,0.720,0.321,0.000,0.255:
1000
0000
0100
0010
0001
0000
0010
0100
1000
0000
0010
0100
0001
0000
0010
1000
,
0100
0000
0001
0010
0001
0000
0100
1000
0100
0000
0010
0100
0010
0000
1000
0001
,
1000
0000
0100
0010
0001
0000
0001
0010
0100
0000
1000
0100
0010
0000
0010
0100
,
1000
0000
0100
0010
0100
0000
0001
0010
0100
0000
0010
0000
0110
0000
0000
0000
,
1000
0010
0000
0000
0001
0010
0000
0000
1010
0000
0000
0000
0100
0000
0010
0000
,
0010
0000
0100
0000
0001
0000
1000
0000
0010
0100
0000
0000
1001
0000
0000
0000
,
0001
0010
0000
0000
0010
0100
0000
0000
1100
0000
0000
0000
0100
0000
1000
0000
,
0001
0000
0010
0000
0100
0000
1000
0000
0100
0010
0000
0000
1001
0000
0000
0000
,
1000
0100
0000
0000
0100
1000
0000
0000
0100
0010
0000
0000
0010
0100
0000
0000
,
0001
0010
0000
0000
0010
0001
0000
0000
0110
0000
0000
0000
0010
0000
0100
0000
,
0001
0010
1000
0010
0010
0100
0010
0000
,
1100
0000
0000
0000
0100
0000
0000
0010
0001
0000
0100
0000
0100
0000
0100
0000
,
1001
0000
0010
0000
0100
0000
0010
0000
1000
0010
0000
0000
0001
0000
0010
0000
,
0100
0010
1000
0010
0100
0000
1001
0000
,
0001
0000
0010
0000
0100
0000
0010
0000
1000
0001
0000
0000
0010
0000
0100
0000
,
0100
0010
1000
0001
1000
0000
0110
0000
,
1000
0100
0010
0001
0010
0100
1000
0100
,
0010
0100
0000
0000
0001
0010
0000
0000
1000
0100
0000
0000
0010
0000
0100
0000
,
0010
0000
1000
0001
0000
0001
1000
0000
,
0110
0000
0000
0000
0100
0000
0000
0000
0010
0000
0000
1000
0010
0000
0100
0000
,
0010
1000
0100
1001
0000
0010
0100
0010
,
0001
0010
1000
1100
0000
0010
0100
0110
,
0000
1100
0000
0001
0000
0010
0100
0010
,
0000
0101
0000
1010
0000
0100
0001
1000
,
0010
0100
0000
1001
0000
0010
0001
0100
,
0010
1000
0000
0110
0000
1000
0010
0011
,
0000
0110
0000
0100
0000
1000
0100
0010
,
0100
0000
0000
0000
0010
0000
0000
1000
0010
0000
0100
0000
0001
0000
1000
0000
,
0010
0100
0010
0001
0010
0000
0010
0100
,
0000
1000
0100
0000
0010
1000
0100
0010
,
0000
0010
0100
0010
0001
0010
1000
0010
,
0000
0001
0000
1000
0000
0010
0100
0100
,
0010
0100
1000
0001
1001
0000
0010
0100
,
0000
0100
0010
0000
1000
0100
0001
0100
,
0000
0100
1000
0010
0001
0010
1000
0100
,
0000
0010
0000
1000
0001
0000
0001
0010
,
0100
0000
1000
0000
0100
0000
0010
0000
0100
0001
0000
0000
0010
0000
0100
0000
,
0010
0000
1000
0000
0001
0000
0100
0000
1000
0010
0000
0000
0010
0000
0100
0000
,
1000
0100
0010
0001
0001
1000
0010
0100
,
0010
0000
0001
0010
0000
0010
0100
0000
0010
0000
1000
0100
0000
0100
0010
0000
,
1001
0000
0100
0000
1001
0000
0000
0010
0100
0000
0010
0000
0010
0000
0010
0000
,
1001
0000
0010
0000
0100
0000
0010
0000
1000
0000
0100
0000
0001
0000
0010
0100
,
0000
0010
0000
1000
0101
1000
1001
0000
,
0010
0000
0001
0000
0100
0000
0010
0000
1000
0000
0100
0000
0010
0000
0100
0010
,
0000
0100
0001
1000
0010
0000
0110
0000
,
1000
0000
0100
0000
0010
0000
0001
0000
0010
0000
0100
0000
1000
0000
0100
0010
,
0100
0000
0010
0000
0001
0000
0010
0000
0100
0000
1000
0000
0100
0000
0010
0001
,
0010
0000
0100
0010
0000
0010
1000
0001
,
0100
0000
0000
0000
0010
0000
0000
1000
0100
0000
0001
0000
0001
0000
0001
0000
,
0110
0000
0001
0000
1000
0000
0100
0000
0110
0000
0000
0000
1000
0000
0100
0010
,
0000
0010
0100
0001
1000
0010
0101
0000
,
0010
1000
0000
0000
0100
0000
1000
0000
1000
0000
0010
0000
0100
0000
0010
0000
,
0000
1000
0100
0010
0001
0000
1001
0000
,
0010
0100
1000
0100
0010
0100
0100
0010
,
0001
0010
1000
0010
0010
0001
0100
0010
,
0100
0000
0010
0100
0110
0000
1001
0000
,
0011
0000
0000
0000
0110
0000
0000
0100
1000
0000
0100
0000
0001
0000
0010
0000
,
0100
0000
0010
0000
0001
0000
0010
0000
1000
0000
0100
0010
0100
0000
1000
0000
,
0001
0000
0100
0000
1000
0000
0100
0000
0010
0000
1000
0001
1000
0000
0010
0000
,
0001
0000
0010
0000
0100
0000
0010
0000
0001
0000
1000
0100
1000
0000
0010
0000
,
1000
0000
0100
0000
0010
0000
0100
0000
1000
0000
0001
0010
0001
0000
0100
0000
,
0010
0000
1000
0000
0001
0000
0100
0000
0010
0000
1000
0001
0000
0001
0010
0000
,
0100
0000
0010
0000
1000
0000
0100
0000
0001
0000
1000
0010
0000
0010
0100
0000
,
0010
0000
0001
0000
1000
0000
0001
0000
0010
0000
0100
0010
0000
0010
0100
0000
,
0110
1000
0110
0001
1000
1000
1000
1000
,
0100
0010
0100
0010
0001
1000
0001
1000
,
0100
0010
0100
0010
0001
0000
0110
0000
,
0010
0000
1000
0000
0100
0000
0010
0000
0100
0000
0010
1000
0000
1000
0010
0000
,
0100
0000
0010
0000
0001
0000
1000
0000
0010
0000
0100
0001
0100
0000
0010
0000
,
0100
0000
0001
0000
1000
0000
0010
0000
0100
0000
0010
1000
0010
0000
0100
0000
,
0001
0000
0010
0000
1000
0000
0100
0000
0010
0000
0001
0010
0000
0010
0001
0000
,
1100
0100
0010
0100
0011
0010
0100
1000
,
0110
0001
1001
0100
0010
0100
0100
0100
,
0010
1000
0001
0100
0010
1000
0100
0010
,
0100
0001
0010
1000
0010
0000
0110
0000
,
1000
0000
0100
0000
0010
0000
0100
0000
0010
0000
0001
0010
0001
0000
0010
0100
,
0010
0000
1000
0000
0100
0000
0001
0000
0100
0000
0010
0100
0000
0100
0010
0000
,
1000
0100
0010
0001
0010
0100
1000
0010
,
0100
0000
0001
0000
1000
0000
0010
0000
0100
0000
0010
0000
1000
0000
0001
1000
,
0001
0000
0000
0000
;

//---------------dance-single - ----------------
#NOTES:
     dance-single:
     :
     Medium:
     6:
     0.480,0.519,0.168,0.051,0.000:
1000
0100
0010
0000
0100
0010
0001
0000
,
0001
0010
0100
0000
0010
0100
1000
0000
,
0010
0010
0010
0100
0001
0001
0001
1000
,
0100
0100
0100
0010
1000
0001
0110
0000
,
1001
0000
0100
0000
0010
0000
1000
0001
,
0000
0001
0000
0010
0100
0000
1000
0000
,
0100
0000
0010
0000
1000
0000
0001
0010
,
0000
0100
0000
0010
0001
0000
0010
0000
,
0002
0013
0020
0130
,
1000
0000
0100
0000
0010
0000
1000
0001
,
1000
0000
0010
0100
0000
0100
0010
0000
,
1100
0000
0110
0000
0001
0010
0010
0010
,
0100
0000
0010
0000
1000
0000
0001
0100
,
0000
1000
0000
0010
1000
0000
1001
0000
,
0100
0000
0010
0000
1000
0000
0100
0001
,
0000
0010
0000
0100
1000
0000
1001
0000
,
0020
0130
2000
3001
,
0010
0000
0010
0000
0100
0000
0001
0010
,
0001
0000
0010
0100
0000
0100
1000
0000
,
0010
0000
0100
0000
0010
0010
0100
0000
,
0001
0010
0000
1000
0000
0010
0100
1000
,
0100
0010
0000
1000
0000
0100
0001
0100
,
0000
0110
0000
1010
0000
0100
0001
0010
,
0000
0010
0000
1000
0000
0001
0010
0100
,
1000
0100
0000
0010
0000
0100
1000
0100
,
0001
0010
0000
0100
0000
0010
1000
0010
,
0000
0101
0000
0110
0000
0010
1000
0001
,
0100
0001
1000
0010
,
0100
0100
0100
0000
1000
0000
0001
0100
,
0000
0010
1000
0000
0100
0000
0001
1000
,
0000
0010
0100
0000
0010
1000
0010
1000
,
0000
0100
0000
0010
0000
0001
0000
0010
,
0100
0000
0100
0010
0100
0000
0000
1001
,
0000
0010
0100
0000
0010
0000
0001
0010
,
0000
0100
0000
0010
1000
0000
0010
1000
,
0000
1000
0000
0001
1000
0000
1000
0100
,
0010
0001
0010
0100
1000
0000
0000
0001
,
0010
0100
1000
0100
0010
0000
0000
1000
,
0100
0010
0100
0010
0001
1000
0010
0100
,
0010
1000
0001
0100
,
1100
0000
0110
0000
0001
1000
1000
1000
,
0010
1000
0010
0000
0100
0001
0100
0000
,
0010
0000
1000
0001
1000
0000
1001
0000
,
0010
0100
0010
0000
0001
0010
0001
0000
,
0010
0000
1000
0010
0001
0000
1001
0000
,
0020
0130
0020
1030
,
0200
0000
0310
0000
0010
0000
1000
0001
,
1000
0000
0010
0100
0000
0100
0010
0000
,
0011
0000
0110
0000
1000
0001
0001
0001
,
0100
0000
0010
0000
1000
0000
0100
0010
,
0001
0010
0100
1000
0100
0000
1001
0000
,
0010
1000
0010
0000
0100
0000
0010
1000
,
0000
1000
0100
0010
0001
0000
1001
0000
,
0010
0010
0100
0000
0010
0010
0001
0000
,
0100
0100
1000
0000
0100
0000
0010
1000
,
0010
0000
0100
0001
0000
1000
0010
0000
,
0110
0000
1001
0000
0010
0000
0100
0010
,
0010
0000
1000
0001
0100
0000
0100
0010
,
0001
0000
0001
1000
0010
0000
0010
1000
,
0001
0000
0100
1000
0100
0000
0010
0100
,
0010
0000
0001
1000
0001
0000
0100
0010
,
0100
0000
0010
0001
0010
0000
1000
0010
,
0001
0000
0001
0010
1000
0000
0100
0010
,
0100
0000
1000
0100
0010
0000
0010
0100
,
1000
0000
0100
0000
0010
0001
0001
0001
,
0010
0000
0100
0010
0100
0000
0010
1000
,
0000
0100
0000
0001
0100
0000
0010
1000
,
0010
0000
0100
1000
0001
0000
0001
1000
,
0100
0000
0010
0100
0010
0000
1000
0100
,
1000
0000
0010
0100
0010
0000
0001
1000
,
0010
0000
0010
1000
0001
0000
0100
0010
,
1000
0000
0100
0010
0001
0000
0001
0010
,
0100
0000
0010
0000
1000
0010
0010
0010
,
0100
0000
0010
0100
0010
0000
1000
0001
,
0000
0010
0000
0100
1000
0000
0110
0000
,
1000
0000
0100
0010
0100
0000
1000
0100
,
0010
0000
0010
0100
0001
0000
0001
0010
,
0100
0000
0010
1000
0100
0000
0010
0100
,
1000
0000
0100
0010
0100
0000
0001
0000
,
1001
0000
0000
0000
;

//---------------dance-single - ----------------
#NOTES:
     dance-single:
     :
     Easy:
     3:
     0.341,0.375,0.139,0.088,0.000: // measure 1
1000
0100
0001
0100
,  // measure 2
0010
1000
0100
0001
,  // measure 3
0010
0100
0010
1000
,  // measure 4
0100
0010
1000
1001
,  // measure 5
0110
0010
0010
0001
,  // measure 6
0010
0100
2000
3010
,  // measure 7
0100
0010
1000
0100
,  // measure 8
0001
0010
0200
0310
,  // measure 9
0001
0001
0010
0100
,  // measure 10
1000
1000
1000
0010
,  // measure 11
0100
0010
0001
1000
,  // measure 12
0020
0000
0030
0100
,  // measure 13
0100
1000
0001
0100
,  // measure 14
0010
1000
0020
0130
,  // measure 15
0001
0010
0100
1000
,  // measure 16
0100
0010
2000
3100
,  // measure 17
0010
0010
0100
0001
,  // measure 18
0100
0100
0100
1000
,  // measure 19
0020
0000
0130
0001
,  // measure 20
2000
0000
0000
3000
,  // measure 21
0100
0010
1000
0110
,  // measure 22
0001
0010
0100
1001
,  // measure 23
0010
0010
0010
0100
,  // measure 24
1000
1000
1000
0100
,  // measure 25
0001
1000
0010
0110
,  // measure 26
1000
0100
0010
1001
,  // measure 27
0001
0001
0001
0010
,  // measure 28
0100
0001
1000
0010
,  // measure 29
1000
1000
0100
0010
,  // measure 30
0100
0010
0000
0100
,  // measure 31
0010
1000
0100
0001
,  // measure 32
0100
0010
1001
0000
,  // measure 33
0010
0010
0100
0000
,  // measure 34
0010
0001
0000
0001
,  // measure 35
0010
0100
0010
1000
,  // measure 36
0100
0100
0010
0000
,  // measure 37
1000
0100
0110
0000
,  // measure 38
0001
0010
0110
0000
,  // measure 39
0001
1000
0010
0100
,  // measure 40
0010
0010
1000
0100
,  // measure 41
0020
0000
0030
0100
,  // measure 42
1001
0010
0100
0010
,  // measure 43
0001
1000
0020
0031
,  // measure 44
0010
0100
0010
1000
,  // measure 45
0100
1000
0020
0130
,  // measure 46
1000
1000
0100
0010
,  // measure 47
0001
0010
0100
0010
,  // measure 48
1000
0000
0001
1000
,  // measure 49
1001
1001
0010
0010
,  // measure 50
0010
0100
0001
1000
,  // measure 51
0010
0001
0200
0310
,  // measure 52
0001
0010
0100
1000
,  // measure 53
0100
0010
2000
3001
,  // measure 54
0010
0010
0001
0001
,  // measure 55
0010
0100
1000
0100
,  // measure 56
0010
0000
1000
0001
,  // measure 57
1001
1001
0110
0110
,  // measure 58
0001
0010
0100
1000
,  // measure 59
0001
0010
0100
1000
,  // measure 60
1000
0100
0010
0001
,  // measure 61
1000
0100
0010
0001
,  // measure 62
0100
0010
1000
0001
,  // measure 63
0100
0010
1000
0001
,  // measure 64
0010
0100
0001
1000
,  // measure 65
0010
0100
0001
0001
,  // measure 66
0001
0010
0100
1000
,  // measure 67
0100
0010
1001
0000
,  // measure 68
1000
0100
0010
0001
,  // measure 69
0010
0100
1000
0100
,  // measure 70
0010
0010
0100
0100
,  // measure 71
0001
0001
1000
1000
,  // measure 72
0010
0000
0100
0000
,  // measure 73
0001
1000
0010
0010
,  // measure 74
0010
0100
0001
1000
,  // measure 75
0010
0100
1001
0000
,  // measure 76
0010
0010
0100
0100
,  // measure 77
0001
1000
0010
0100
,  // measure 78
0001
0010
0100
1000
,  // measure 79
0100
0010
0001
1000
,  // measure 80
1001
0000
0000
0000
;
