#TITLE:KISS KISS;
#SUBTITLE:;
#ARTIST:LABOUM;
#TITLETRANSLIT:;
#SUBTITLETRANSLIT:;
#ARTISTTRANSLIT:;
#CREDIT:;
#BANNER:KISS KISS banner.png;
#BACKGROUND:KISS KISS bg.png;
#LYRICSPATH:;
#CDTITLE:;
#MUSIC:KISS KISS.mp3;
#OFFSET:-10.280;
#SAMPLESTART:44.300;
#SAMPLELENGTH:15.000;
#SELECTABLE:YES;
#BPMS:0.000=110.000;
#STOPS:;
#BGCHANGES:;

//---------------dance-single - ----------------
#NOTES:
     dance-single:
     :
     Hard:
     7:
     0.409,0.388,0.284,0.184,0.092: // measure 1
1000
0000
0100
0010
0001
0010
0100
0010
,  // measure 2
0002
0000
0013
0100
0010
1000
0100
0010
,  // measure 3
0100
0100
0001
0001
0010
1000
0010
0100
,  // measure 4
0020
0000
0000
0000
0030
0100
0100
0100
,  // measure 5
1000
0000
0000
0000
0100
0000
0010
1000
0010
0000
0100
0001
0000
0100
0000
0000
,  // measure 6
1000
0000
0010
0100
0000
0100
0000
0000
1001
0000
0000
0000
1000
0000
0100
0000
,  // measure 7
0010
0001
0010
0100
1000
0010
0010
0100
,  // measure 8
0010
0000
0100
0000
0001
1000
0010
0100
,  // measure 9
0002
0000
2003
0000
0000
0010
3010
0100
,  // measure 10
0000
0000
0100
0000
0010
0000
1000
0001
1000
0000
0000
0000
0100
0000
0000
0000
,  // measure 11
0010
0000
0100
0000
0010
0000
0001
0000
1000
0000
0010
0100
0000
0100
0000
0000
,  // measure 12
0000
0000
1000
0000
0100
0010
0000
0010
0000
0000
0000
0000
0001
0000
0010
0000
,  // measure 13
0200
0000
0320
0000
0000
0100
0100
0130
,  // measure 14
0000
1000
0001
0100
0020
0000
0031
0000
,  // measure 15
0001
0000
0010
0000
0100
0000
1000
0000
0100
0000
0010
0000
0001
0000
0000
0001
,  // measure 16
0010
0100
0110
0100
0110
1000
0100
0010
,  // measure 17
0011
0000
1100
0000
0010
0100
0010
1000
,  // measure 18
1100
0000
0210
0000
0310
0001
0001
0010
,  // measure 19
0100
0010
0001
0010
1000
0100
0010
0100
,  // measure 20
0000
1010
0000
0000
0100
0010
0001
1000
,  // measure 21
0010
0000
0110
0000
0100
0010
0010
0001
,  // measure 22
0010
0000
1010
0000
1000
0100
0100
0010
,  // measure 23
0001
0010
0200
0000
0310
1000
0001
0100
,  // measure 24
0010
1000
0200
0000
0310
0000
0010
0001
,  // measure 25
0011
0000
0000
0000
0110
0000
0000
0000
1100
0000
0000
0000
1010
0000
0000
0210
,  // measure 26
0000
0000
0300
0000
0010
0000
0100
0010
,  // measure 27
0110
0000
0000
0000
1001
0000
0000
0000
0110
0000
0000
0000
1001
0000
0000
0220
,  // measure 28
0000
0000
0000
0330
0000
0000
0000
0000
;

//---------------dance-single - ----------------
#NOTES:
     dance-single:
     :
     Medium:
     4:
     0.272,0.291,0.170,0.085,0.000:
1000
0000
0100
0000
0010
0010
0100
0000
,
0010
0000
0001
0000
0010
0010
0100
0000
,
0010
1000
0001
0100
,
0020
0000
0000
0030
0000
0000
0100
0000
,
0100
0010
0001
1000
,
0010
0010
0100
0000
0110
0000
0100
0000
,
0001
0010
0100
1000
,
0001
0000
0100
0000
0010
0000
1000
0100
,
1000
0000
1100
0000
0000
0100
0010
0000
,
0010
0100
0002
0003
,
0010
0100
0010
0001
,
0010
1000
1000
0010
,
0100
0000
0110
0000
0000
0010
1000
0010
,
0000
0100
0010
0000
0010
0000
0100
0000
,
0001
0000
0000
0010
0100
0000
0100
0010
,
0000
1000
1000
1000
1000
0000
0010
0000
,
0110
0000
0110
0000
0001
1000
0001
0000
,
0011
0000
0011
0000
0100
0100
0100
0000
,
0010
1000
0001
0100
,
0010
0010
1000
0100
,
1100
0000
1100
0000
0010
0100
0010
0000
,
0110
0000
1001
0000
0010
0100
0010
0000
,
0001
0001
0002
0000
0003
0000
0010
0000
,
0100
0100
0200
0000
0300
0000
0010
0000
,
1000
0100
0010
0001
,
0020
0030
0100
0010
,
0001
0010
0100
1000
,
0210
0000
0000
0300
0000
0000
0000
0000
;

//---------------dance-single - ----------------
#NOTES:
     dance-single:
     :
     Easy:
     2:
     0.221,0.252,0.071,0.142,0.000:
1000
0000
0100
0010
,
0001
0000
0001
0010
,
0100
0010
0100
1000
,
0100
0000
0010
0100
,
0010
0000
0010
0001
,
0010
0010
0100
0010
,
1000
0100
0010
0001
,
0020
0030
0100
0010
,
0100
0200
0300
0001
,
0010
0100
1000
0000
,
1000
0100
0010
0100
,
0010
0001
0001
0010
,
0100
0002
0003
0010
,
0100
1000
0200
0300
,
0010
0100
0010
0001
,
2000
0000
0000
3010
,
0110
0110
0001
0010
,
1001
1001
0010
0100
,
0010
0001
1000
0010
,
0100
0000
0100
0010
,
1000
1000
0100
0010
,
0001
0001
0010
0100
,
0010
0020
0030
0100
,
0100
0200
0300
0010
,
0001
0010
0100
0010
,
0200
0300
0001
0010
,
1000
0100
0010
0100
,
0220
0000
0000
0330
0000
0000
0000
0000
;
