#TITLE:Into You;
#SUBTITLE:;
#ARTIST:HYO SEONG;
#TITLETRANSLIT:;
#SUBTITLETRANSLIT:;
#ARTISTTRANSLIT:;
#CREDIT:;
#BANNER:Into You banner.png;
#BACKGROUND:Into You bg.png;
#LYRICSPATH:;
#CDTITLE:;
#MUSIC:Into You.mp3;
#OFFSET:-12.340;
#SAMPLESTART:69.920;
#SAMPLELENGTH:15.000;
#SELECTABLE:YES;
#BPMS:0.000=100.000;
#STOPS:;
#BGCHANGES:;

//---------------dance-single - ----------------
#NOTES:
     dance-single:
     :
     Challenge:
     9:
     0.499,0.469,0.387,0.131,0.514:
1001
0000
0000
0000
0010
0000
0100
0000
0001
0000
0010
0000
0000
0100
0000
0000
,
1100
0000
0000
0100
0000
0000
0001
0000
0000
0100
0000
0000
0010
0000
0001
1000
0000
0001
0010
0000
1000
0100
0000
0000
,
0110
0000
0000
0000
0000
0000
1000
0000
0000
0100
0000
0000
0010
0000
0000
0001
0000
0000
0000
0000
0010
0100
0000
0000
,
0010
0000
1000
0001
0000
0001
1000
0000
0100
0010
0000
0010
0001
0000
0010
0100
0000
0100
1000
0000
0000
0100
0000
0000
,
1001
0000
0000
0000
0010
0000
1000
0000
0010
0000
1000
0000
0000
0001
0000
0000
,
1001
0000
0000
0000
0000
0000
0010
0000
0000
0100
0000
0000
0001
0000
1000
0010
0000
0100
0001
0000
0010
0100
0000
0000
,
0110
0000
0000
0000
0000
0000
0001
0000
0000
0100
0000
0000
0010
0000
0000
0001
0000
0000
0000
0000
1000
0010
0000
0000
,
0110
0000
1100
0000
0011
0010
0200
0300
,
0110
0000
1100
0000
1001
0000
0010
0100
,
0001
0000
0000
0010
0000
0200
0000
0000
0000
0000
0000
0000
0310
0000
0000
0000
0000
1000
0100
0000
0000
0010
0000
0000
,
0100
0000
0000
0001
0000
1000
0000
0000
0000
0010
0000
0100
0010
0000
0000
0001
0000
1000
0000
0000
0001
0000
0000
1000
,
0000
0000
0100
0020
0000
0000
0000
0000
0000
0031
0000
0000
0000
0000
0000
1000
0000
0000
1010
0000
0000
0100
0000
0000
,
1001
0000
0011
0000
0110
0000
1000
0001
,
0100
0000
0000
0010
0000
1000
0000
0000
0000
0000
0000
0000
0100
0000
0000
0100
0000
0001
0010
0000
0000
1000
0000
0000
,
0001
0000
1000
0001
0000
0010
0000
0000
0100
0000
0000
0000
0010
0000
1000
0001
0000
0010
0000
0000
1000
0000
0000
0000
,
0100
0000
0001
1000
0000
0000
0100
0000
0000
0010
0000
1000
0001
0000
0000
0010
0000
0100
0000
0000
0001
0000
0000
0200
,
0000
0000
0000
0000
0000
0000
0310
0000
1000
0001
0000
1000
0001
0000
0000
0010
0000
0100
0000
0000
0001
0000
0000
0000
,
1010
0000
0000
0100
0000
0001
0000
0000
0010
0000
0000
0200
0000
0000
0000
0000
0000
0000
1300
0000
0000
0010
0000
0001
,
0010
0000
0000
0100
0000
0000
0110
0000
0000
1000
0000
0000
1100
0000
0000
0000
0000
1000
0100
0000
0010
0001
0000
0001
,
0010
0000
0000
1000
0000
0000
0011
0000
0000
1000
0000
0000
0110
0000
0000
0000
0000
0001
0010
0000
0000
0020
0000
0000
,
0130
0000
0000
1000
0000
0001
1000
0000
0010
0100
0000
1000
0001
0000
0000
0010
0000
0100
0000
0000
0001
0000
0000
0000
,
0010
0000
0000
0100
0000
0001
0000
0000
1000
0000
0000
0010
0000
0000
0100
0002
0000
0000
0000
0000
0000
0013
0000
0000
,
0100
0000
0000
0010
0000
1000
0000
0000
0000
0100
0000
0010
0001
0000
0000
1000
0000
0010
0000
0000
0000
0100
0000
0001
,
0010
0000
0000
1010
0000
0000
0110
0000
0000
1100
0000
0000
0011
0000
0000
0000
0000
0110
0000
0000
0110
0000
0000
0000
,
1001
0000
0000
0000
0000
0000
0010
0000
0000
0000
0000
0000
0100
0000
0000
0000
0000
0000
0001
0000
0000
0000
0000
0000
2000
0000
0000
0000
0000
0000
0000
0000
0000
0002
0000
0000
0000
0000
0000
0000
3000
0000
0000
0000
0000
0003
0100
0000
,
0010
0000
1000
0000
0001
0000
0100
0000
0020
0000
0030
0200
0000
0000
0301
0000
,
0010
0000
1000
0000
0100
0010
0001
0010
0000
0100
0000
1000
0000
0100
0000
0000
,
0001
0000
0010
0100
0000
1000
0000
0000
1000
0100
0000
0010
0000
0000
0001
0010
0000
0100
1000
0000
0000
0100
0000
0000
,
0110
0000
0001
0000
0010
0000
0100
0000
0020
0000
0000
2030
0000
0000
3100
0000
,
0011
0000
0010
0000
0100
0000
0010
0000
2000
0000
0000
3002
0000
0000
0013
0000
,
0100
0010
0000
0010
0000
0000
0001
0010
0100
1000
0000
0100
0000
0010
0000
0001
,
0000
0000
0000
0010
0000
0000
0000
0000
0000
0000
0000
0000
0100
0000
0000
0000
0000
0000
0010
0000
0000
0000
0000
0000
0001
0000
0000
0000
0000
0000
1000
0000
0000
0000
0010
0000
0000
0000
0000
0000
0010
0000
0000
0000
0000
0000
0100
0000
,
0000
0000
0000
0000
0000
0000
0000
0000
0000
0000
0000
0000
0010
0000
0000
0000
0000
0000
0000
0000
0000
0020
0000
0000
0000
0000
0000
0000
0000
0000
0000
0000
0000
0000
0000
0000
0130
0000
0000
0000
0000
0000
0001
0000
0000
0000
0010
0000
,
0100
0000
0000
1000
0000
0100
0000
0000
0010
0000
0000
0001
0000
0000
0000
0000
0000
0010
0000
0000
0100
0000
0000
0010
,
0000
0000
0000
0000
0000
0000
0000
0000
0000
0000
0000
0000
1000
0000
0000
0000
0000
0000
0000
0000
0000
0200
0000
0000
0000
0000
0000
0000
0000
0000
0000
0000
0000
0000
0000
0000
0310
0000
0000
0000
0001
0000
0000
0000
0000
0000
0010
0000
,
0000
0000
0000
0000
0000
0000
1000
0000
0100
0000
0000
0010
0000
0000
0000
0000
0000
0000
0001
0000
0010
0000
0000
0100
,
0000
0000
0000
0010
0000
0000
0001
0000
0000
0010
0000
0000
0100
0000
0000
0000
0000
0110
0000
0000
0110
0000
0000
0000
,
1001
0000
0000
0000
0000
0000
0010
0000
0000
0000
0000
0000
0100
0000
0000
0000
0000
0000
0001
0000
0000
0000
0000
0000
0110
0000
0000
0000
0000
0000
0000
0000
0000
0110
0000
0000
0000
0000
0000
0000
0000
0000
0010
0000
0000
0000
0100
0000
,
1000
0000
0100
0000
0010
0000
0001
0000
1001
0000
0000
1001
0000
0000
0010
0000
,
0100
0000
0001
0000
1000
0010
0100
0001
0000
0010
0000
1000
0000
0010
0000
0000
,
0100
0000
0001
0010
0000
0100
0000
0000
1000
0100
0000
0010
0000
0000
0001
0010
0000
0100
0010
0000
0000
0010
0000
0000
,
1001
0000
0010
0000
0100
0000
0010
0000
0011
0000
0000
1001
0000
0000
0010
0000
,
0110
0000
0100
0000
1100
0000
0010
0000
0101
0000
0000
1010
0000
0000
0010
0000
,
0100
0001
0000
0001
0000
0000
0010
0000
1000
0100
0000
0010
0000
0001
0000
0010
,
0000
0000
0000
0100
0000
0000
0001
0000
0000
0010
0000
0000
1000
0000
0000
0001
0000
0010
0000
0000
0100
0000
0000
1000
,
0000
0000
0000
1010
1100
1001
0000
0010
,
0010
0100
0001
0101
0010
0101
0000
0010
,
1010
0100
0001
0100
0000
0010
1000
0010
,
0001
0000
1000
0100
0000
0010
0001
0000
0010
0100
0000
1000
0100
0000
0010
0100
0000
0001
0010
0000
0000
0010
0000
0000
,
0110
0000
0001
0110
0100
1001
0010
1000
,
0010
0100
0001
1010
0100
1010
0000
0100
,
0010
0001
0000
0001
0000
0000
0010
0100
1000
0100
0000
0001
0000
1000
0000
0001
,
0000
0000
0000
0010
0000
0000
0010
0000
0000
0100
0000
0000
0001
0000
0000
1000
0000
0010
0000
0000
0100
0000
0000
0010
,
1000
0000
0001
0000
0010
0000
0100
2002
,
0000
0000
0000
3003
0000
0000
0000
0000
;

//---------------dance-single - ----------------
#NOTES:
     dance-single:
     :
     Hard:
     7:
     0.374,0.375,0.159,0.048,0.021:
1001
0000
0010
0001
0010
0100
0010
0100
,
0001
0000
1000
0010
0010
0100
0010
0001
,
0010
0000
1000
0010
0001
0010
0100
0010
,
1000
0001
1000
0001
0010
0010
0110
0000
,
1001
0000
0100
1000
0010
0001
0100
1000
,
0010
0000
0100
0010
1000
0100
0001
0000
,
0110
0000
0001
0010
0100
0010
0100
0000
,
1000
0100
0010
0001
,
1001
0000
0110
0000
1001
0000
0010
0010
,
0100
0010
0002
0000
0013
0000
0100
0010
,
0100
1000
0100
0000
0010
0100
0010
0001
,
0010
0000
1000
0000
0100
0010
0010
0000
,
1100
0000
0011
0000
1100
0000
0010
0010
,
0100
1000
0200
0000
0310
0000
0010
0010
,
0001
0010
0100
0100
1000
0100
0010
0010
,
0001
0000
0010
0000
0100
0010
1000
0100
,
0020
0000
0130
0000
0001
0010
0100
0000
,
0010
0100
1000
0100
0010
0000
0010
0000
,
0100
0010
0100
0010
0100
0000
0010
0010
,
0001
1000
0001
1000
0001
0000
0010
0100
,
1100
0000
0010
0010
0100
1000
0100
0010
,
0001
0010
0001
0100
0020
0000
0130
0000
,
1000
1000
0100
0000
0001
0001
0010
0000
,
0100
0000
0010
0000
0001
0000
0010
0000
0100
0000
0000
0010
0000
0010
0000
0000
,
1001
0010
0100
0010
0001
0000
0001
0000
,
0010
0100
1000
0100
0010
0000
0010
0000
,
0100
1000
0100
0001
0100
0010
0100
0010
,
0011
1000
0011
0100
0010
0010
0100
0010
,
1001
0100
0010
0001
0100
0000
1000
0000
,
0100
0010
1000
0001
0100
0000
0010
0000
,
0100
0001
0001
0010
0100
1000
1000
0100
,
0010
0000
0001
0000
0100
0010
0100
0010
,
0002
0000
0000
0000
0010
0000
0000
0010
0000
0000
0000
0000
0013
0000
0000
0000
,
0100
0100
0010
1000
0100
0000
0010
0010
,
0100
0000
0000
0000
0001
0000
0000
0001
0000
0000
0000
0000
0010
0000
1000
0000
,
0010
0000
0100
0001
0100
0000
0010
0010
,
1000
0000
0100
0000
0010
0000
0001
0000
0010
0000
0000
0100
0000
0100
0000
0000
,
1001
0010
0100
0010
0001
0010
0100
0000
,
1000
0100
0010
0001
0010
0001
0100
0000
,
0010
0010
0100
0100
0010
1000
0100
0001
,
0010
0110
0100
0110
0010
0001
0100
0100
,
1001
0010
0001
0010
0100
0000
1000
0000
,
0100
0100
1000
0100
0010
0000
0001
0000
,
0010
0100
0100
0001
0010
0100
0100
0010
,
1000
0000
0100
0000
0010
0100
0010
0001
,
0010
0000
0010
0100
1000
0100
0010
0001
,
0110
0000
1000
0100
0010
0001
0000
0001
,
0010
0100
0010
0100
0000
0001
0100
0001
,
0000
0010
0010
0100
0100
0001
1000
0001
,
0110
0000
0001
0010
0010
0100
1000
0100
,
0010
0000
1000
0100
0100
0010
0000
0010
,
0100
0001
0001
0010
0100
0001
0001
0100
,
0010
0000
1000
0010
0100
0001
0100
0010
,
0100
0000
0001
0000
1000
0000
0110
0220
,
0000
0330
0000
0000
;

//---------------dance-single - ----------------
#NOTES:
     dance-single:
     :
     Medium:
     6:
     0.310,0.320,0.097,0.090,0.000:
1001
0000
0100
0000
0010
0000
1000
0100
,
0001
0000
0010
0000
0001
0010
0100
0010
,
1000
0000
0100
0000
0010
0000
1000
0001
,
0100
0000
0010
0000
0100
0010
0110
0000
,
1000
0000
0100
0000
0001
0000
0010
0100
,
1000
0000
0010
0000
0100
0001
1000
0010
,
0001
0000
0010
0000
0100
0100
1000
0000
,
0001
0000
0010
0000
0100
0000
1000
0010
,
0100
0000
0100
0000
0100
0000
0010
1000
,
0001
0020
0000
0130
,
1000
0000
1000
0000
0100
0010
0100
0000
,
0010
0010
0001
0000
0001
0001
0010
0000
,
1000
0000
1000
0000
1000
0000
0100
0100
,
1000
0200
0000
0310
,
1000
0001
0100
0000
0100
0001
1000
0000
,
0010
0000
0100
0000
0001
0010
0100
1000
,
0200
0310
0100
0010
,
0100
0000
0001
0010
0001
0000
0010
0000
,
1000
1000
0100
0100
1000
0000
0010
0000
,
0100
0100
0010
0010
0001
0000
0010
0200
,
0000
0000
0310
1000
0001
0000
0010
0000
,
0001
1000
0100
1000
0001
0000
0010
0000
,
0001
0001
0010
0000
0100
0100
1000
0000
,
1000
0001
1000
0001
1000
0000
1001
1001
,
0110
0100
0010
0010
,
0100
0001
1000
0010
0100
0000
0100
0000
,
1000
1000
0100
0000
0100
0100
0010
0000
,
1000
0001
1000
0001
0100
0010
0100
0100
,
0010
0000
0001
0010
0200
0000
0310
0000
,
1000
0001
0100
0000
0020
0000
0130
0000
,
0100
0100
0001
0000
0001
0001
1000
0000
,
0010
0000
0100
0000
0001
0010
1000
0001
,
0020
1000
2030
0000
,
3100
1000
0010
0001
,
0200
0001
0302
0013
,
0110
0100
0010
1000
,
0011
0110
1100
0110
,
1001
0000
0010
1000
0001
0000
0001
0000
,
0010
0100
0001
1000
0010
0000
0010
0000
,
0100
1000
0100
0000
0001
0010
0001
0000
,
0001
0001
0010
0010
0100
0100
1000
0010
,
0110
0000
1000
0001
0100
0000
0100
0000
,
0010
1000
0001
0010
0001
0000
0100
0000
,
0010
0010
1000
0000
1000
1000
0010
0000
,
0100
0000
0010
0000
1000
0001
0100
0010
,
0110
0000
0000
0010
1000
0001
0000
0010
,
0100
0000
0100
1000
0100
2000
0000
0000
,
3010
0100
0001
0010
0000
0100
0000
0010
,
0000
1000
0000
0100
0000
1000
0110
0001
,
0010
0000
0100
0010
0001
0010
0100
1000
,
1000
0000
0100
0010
0100
0020
0000
0000
,
0130
0100
0001
0000
0001
0001
0100
0000
,
0010
1000
0001
0100
,
0010
0000
0010
0000
0100
0000
0010
0200
,
0000
0000
0300
0000
;

//---------------dance-single - ----------------
#NOTES:
     dance-single:
     :
     Easy:
     3:
     0.224,0.263,0.117,0.083,0.000: // measure 1
0110
0010
0001
0010
,  // measure 2
1000
0010
0100
0010
,  // measure 3
0010
0100
1000
0100
,  // measure 4
0001
0010
0100
1000
,  // measure 5
0110
1000
0001
0010
,  // measure 6
0100
0001
0100
0100
,  // measure 7
0010
1000
0100
0010
,  // measure 8
0100
1000
0001
0010
,  // measure 9
0100
0100
0100
0010
,  // measure 10
0200
0000
0300
0010
,  // measure 11
0100
0001
1000
0010
,  // measure 12
0002
0000
0003
0000
,  // measure 13
0010
0010
0010
0100
,  // measure 14
0002
0000
0003
0010
,  // measure 15
0100
0100
0010
0010
,  // measure 16
0001
0010
0100
1000
,  // measure 17
0110
0000
1000
0100
,  // measure 18
0010
0010
0100
0000
,  // measure 19
0010
1000
1001
0000
,  // measure 20
0010
0001
1001
0010
,  // measure 21
0100
0001
0100
0010
,  // measure 22
1000
0010
0200
0300
,  // measure 23
0010
1000
0001
0100
,  // measure 24
0010
0010
0010
1001
,  // measure 25
0110
1000
0100
0100
,  // measure 26
0010
0001
0010
0010
,  // measure 27
0100
0001
0010
1000
,  // measure 28
1001
1001
1001
1001
,  // measure 29
0110
1000
0001
0001
,  // measure 30
0010
0001
1000
1000
,  // measure 31
0010
1000
0010
0001
,  // measure 32
0200
0300
1000
0010
,  // measure 33
0001
0010
0200
0000
,  // measure 34
0310
1000
0010
0001
,  // measure 35
0010
1000
0002
0013
,  // measure 36
0100
0000
0100
0000
,  // measure 37
0010
0100
0010
0110
,  // measure 38
1001
0010
0001
0100
,  // measure 39
0010
1000
0100
0100
,  // measure 40
0010
0100
0001
1000
,  // measure 41
0010
1000
0001
0100
,  // measure 42
1001
0010
1000
1000
,  // measure 43
0100
0010
0001
0001
,  // measure 44
0010
0100
0001
1000
,  // measure 45
0020
0030
0100
0001
,  // measure 46
1001
0000
0000
0010
0000
0010
0000
0100
,  // measure 47
0000
0010
0000
0001
0000
0020
0000
0030
,  // measure 48
1000
0001
0100
0010
,  // measure 49
1000
1000
0100
0100
,  // measure 50
0110
0000
0000
0010
0000
0100
0000
0010
,  // measure 51
0000
1000
0000
0001
0000
0001
0000
0000
,  // measure 52
0100
0010
1000
0001
,  // measure 53
0200
0300
0010
1000
,  // measure 54
0001
0010
0100
2000
,  // measure 55
0002
0000
3003
0000
;
