#TITLE:Get Naked (I Got A Plan);
#SUBTITLE:;
#ARTIST:Britney Spears;
#TITLETRANSLIT:;
#SUBTITLETRANSLIT:;
#ARTISTTRANSLIT:;
#CREDIT:;
#BANNER:Get Naked (I Got A Plan) banner.png;
#BACKGROUND:Get Naked (I Got A Plan) bg.png;
#LYRICSPATH:;
#CDTITLE:;
#MUSIC:Get Naked (I Got A Plan).mp3;
#OFFSET:-10.240;
#SAMPLESTART:68.640;
#SAMPLELENGTH:15.000;
#SELECTABLE:YES;
#BPMS:0.000=115.020,144.000=115.040;
#STOPS:;
#BGCHANGES:;

//---------------dance-single - ----------------
#NOTES:
     dance-single:
     :
     Hard:
     8:
     0.514,0.568,0.222,0.126,0.189:
1001
0000
0000
0000
0010
0000
0100
0000
0100
0000
0000
0001
0000
0000
0100
0000
,
0110
0000
0000
0000
1000
0000
0001
0000
0001
0000
0000
0100
0000
0000
1000
0000
,
1100
0000
0010
0000
0100
0000
0010
0000
1000
0000
0000
0001
0000
0000
1000
0000
,
0011
0010
0100
0001
0010
0000
0010
0000
,
0200
0000
0310
1000
0100
0010
0002
0000
,
0013
0010
0100
0100
0010
1000
0001
0200
,
0000
0000
0010
0000
2300
0000
0000
0000
0100
0000
0000
0010
0000
0000
3100
0000
,
0001
0000
0000
0010
0000
0000
0100
0000
0010
0000
1000
0000
0001
0000
0100
0000
,
0010
0000
0001
0010
0100
1000
0200
0000
,
0310
0010
0001
1000
0010
0001
0100
0020
,
0000
0000
0100
0000
0032
0000
0000
0000
0010
0000
0000
0100
0000
0000
0010
0000
,
0103
0000
0010
0100
0001
1000
0010
0000
,
0110
0000
1000
0100
0001
0001
1000
0010
,
0100
0010
1000
0100
0011
0000
1100
0000
,
0010
0100
1000
0100
0010
0010
0100
0000
,
0010
1000
0100
0001
0010
0100
0000
0100
,
0010
0100
0001
0010
1000
0010
0100
0010
,
1000
0100
0010
0001
0110
0000
0010
0100
,
0100
1000
0001
0100
2000
0000
3100
0000
,
0010
0100
1000
0001
0020
0000
0130
0010
,
0110
0000
0001
1000
1001
0000
0100
0010
,
0001
0010
0100
1000
0100
0000
0001
0010
,
1100
0000
0110
0000
0011
0000
0100
0010
,
0010
0100
0001
0010
1000
0000
0100
0000
,
0010
0100
0001
0100
0010
0000
0010
0100
0000
1000
0000
0100
0010
0000
0100
0001
,
0000
0001
0000
0000
0000
0000
0010
0000
0010
0000
0000
0100
0000
0000
0010
0000
,
1000
0001
1000
0000
0100
0000
0010
0001
0000
0010
0000
0100
0010
0000
0100
1000
,
0000
0100
0000
0000
0010
0000
0001
0000
0010
0000
0100
0000
0010
0000
0100
0000
,
1001
0010
0100
0010
1000
0100
0001
0000
,
0010
0100
0010
1000
0100
0001
0100
0010
,
1000
0000
0000
0100
0010
0000
0010
0000
0001
0000
0000
0001
0010
0000
0100
0000
,
0010
0000
0000
1000
0001
0000
0100
0000
0010
0000
0000
1000
0000
0000
0001
0000
,
0110
0010
1000
0001
0010
0100
0010
0000
,
1000
0100
1000
0010
0100
0010
0001
0100
,
0010
0000
0000
1000
0100
0000
0010
0000
0100
0000
0000
0001
0010
0000
0100
0000
,
0010
0000
0000
1000
0001
0000
0100
0000
0010
0000
0000
0001
0000
0000
0010
0000
,
0100
1000
1100
1100
0010
0001
0011
0011
,
0010
0100
0110
0110
0001
1000
1001
1001
,
0110
0000
0010
0000
1000
0000
0100
0000
0001
0000
0000
0100
0000
0000
0010
0000
,
1000
0000
0100
0000
0001
0000
0100
0000
0010
0000
0000
1000
0000
0000
0010
0000
,
0100
0000
0001
0010
0002
0000
0000
0003
0010
0000
0100
0010
0200
0000
0000
0300
,
0010
0000
1000
0100
2000
0000
0000
3000
0010
0000
0100
0001
0200
0000
0000
0300
,
0010
0001
1010
1100
0010
0100
0101
0110
,
0010
1000
0001
0100
0010
0010
0100
0010
,
1000
0100
0010
0000
0001
0000
0010
0000
0100
0010
0001
0000
0010
0000
0010
0000
,
0100
0001
0010
1000
0100
0010
1000
0100
,
0010
0010
0200
0000
0310
0001
0000
0020
,
0000
0130
0002
0000
0010
0010
0103
0010
,
0001
0010
0100
0000
1000
0000
0010
0000
0100
0001
0010
0000
1000
0000
0010
0000
,
0100
0001
0010
1000
0010
0100
0010
1000
,
1000
0000
0100
0000
0010
0000
0001
0000
1000
0000
0000
0001
0000
0000
0100
0000
,
0010
0010
0200
0000
0001
0001
0301
0010
,
0100
0010
0001
0010
0100
0000
0010
0000
1000
0100
0010
0001
0010
0000
0010
0000
,
0100
0010
1000
0100
0001
0000
0010
0000
0100
1000
0010
0100
0001
0000
0010
0000
,
0100
0000
0010
0000
1000
0000
0100
0000
0011
0000
0000
0010
0000
0000
0100
0000
,
0010
0000
0100
0000
0010
0000
1000
0000
1100
0000
0000
0100
0000
0000
0010
0000
,
0001
0000
0010
0000
0100
0000
1000
0000
0010
0100
1000
0000
0010
0000
0010
0000
,
1000
0000
0100
0000
0010
0000
0001
0000
0100
0010
0001
0000
0010
0000
0010
0000
,
0100
0010
0100
0010
1000
0001
1000
0001
,
0100
0000
0000
0000
;

//---------------dance-single - ----------------
#NOTES:
     dance-single:
     :
     Medium:
     6:
     0.352,0.327,0.074,0.141,0.000:
1000
0000
0100
0010
0001
0000
0011
0000
,
0001
0000
0010
0100
1000
0000
1100
0000
,
0010
0000
0100
0000
0010
0010
0100
0000
,
0001
0000
1000
0000
0100
0100
0010
0000
,
1000
0000
0010
0000
0100
0001
0020
0000
,
0130
0001
0010
0100
,
1000
0100
0020
0000
0000
0000
0130
0000
,
0002
0023
0000
0130
,
1000
0000
0001
0000
0100
0010
2000
0000
,
3100
0010
0100
0001
,
1000
0001
0020
0000
0000
0000
0130
0000
,
0002
0023
0000
0031
,
0010
0000
0100
0000
0010
0000
1000
0010
,
0000
0010
0100
0000
0010
0000
0110
0000
,
1000
0000
0100
0000
0001
0010
0100
0000
,
0010
0000
0100
0000
0001
2000
0000
3000
,
0010
0100
0001
1000
0010
0100
0001
1000
,
0010
0010
0100
0100
0010
0000
0100
0000
,
0010
0001
0010
0000
2000
0000
3010
0000
,
0100
0010
1000
0001
0010
0000
0010
0100
,
1000
0000
1000
0100
0010
0000
0100
0000
,
0010
0000
0001
0010
0100
0000
0010
0100
,
0010
0100
0110
0010
,
0100
0001
0010
0000
0100
0000
0000
0000
,
0010
1000
0001
0100
0010
0000
0100
0000
,
1000
1000
0000
0100
0100
0000
0010
0000
,
1000
0001
0010
0001
1000
0000
0010
0000
,
0001
0001
0000
0000
0010
0100
0010
0000
,
1001
0000
0010
0000
0100
0010
0002
0000
,
0013
0100
0010
1000
0010
0000
0100
0000
,
0010
0010
0010
0000
1000
1000
1000
0000
,
0010
0100
0001
0000
0010
0100
0010
0001
,
0020
0000
0030
0100
0001
0010
1000
0000
,
0010
0010
0100
0000
0001
0010
0010
0000
,
0100
0000
0010
0000
1000
0010
0000
0001
,
0000
0100
0020
0000
0000
0000
0130
0000
,
0001
0001
0010
0000
0010
0010
0100
0000
,
0100
0100
1000
0000
1000
1000
0100
0000
,
0110
0010
0001
0100
,
0110
0100
1000
0010
,
0100
1000
0020
0030
0000
0100
0002
0003
,
0000
0010
0200
0300
0000
0010
2000
3000
,
0100
0010
0100
0000
0010
0100
0010
0000
,
1000
0001
1000
0000
0010
0000
0001
0000
,
0110
0000
0001
0000
0010
0100
1000
0000
,
0010
0100
0100
1000
0010
0000
0010
0100
,
0000
0100
0001
0000
0010
0100
0000
0001
,
0000
1000
0020
0000
0130
0001
1000
0010
,
0100
0000
0001
0010
0010
0100
0010
0000
,
1000
0010
0100
0001
0010
0000
0010
0100
,
0000
0100
0010
0000
1000
0001
0000
0010
,
0000
0100
0020
0000
1030
0000
0001
0000
,
0110
0000
1000
0100
0010
0000
0100
0010
,
0001
0000
0010
0010
0010
0000
0100
0000
,
0001
0000
0010
0100
1000
0000
0001
0010
,
0100
0000
1000
1000
1000
0000
0100
0000
,
0010
0000
0100
0010
1000
0000
0001
0010
,
0100
0000
0010
0001
1000
0000
0010
0000
,
0100
0000
0100
0000
0010
0100
0010
0000
,
0110
0000
0000
0000
;

//---------------dance-single - ----------------
#NOTES:
     dance-single:
     :
     Easy:
     3:
     0.246,0.218,0.067,0.044,0.000: // measure 1
0010
0010
0100
0100
,  // measure 2
0001
0001
1000
1000
,  // measure 3
0100
1000
0100
0010
,  // measure 4
0001
0100
0010
0100
,  // measure 5
0010
0000
1000
1000
,  // measure 6
0100
0001
0010
1000
,  // measure 7
0010
0010
0001
0001
,  // measure 8
0100
0100
0010
1000
,  // measure 9
0100
0000
0010
0010
,  // measure 10
0100
0001
0010
1000
,  // measure 11
0010
0010
1000
1000
,  // measure 12
0100
0001
1000
0010
,  // measure 13
0110
0000
1000
0100
,  // measure 14
0001
0100
1000
1000
,  // measure 15
0010
0100
0010
0010
,  // measure 16
0100
0001
0100
0000
,  // measure 17
0010
0100
0001
1000
,  // measure 18
0010
0100
0020
0030
,  // measure 19
0100
0100
0110
0000
,  // measure 20
0001
0010
0100
0000
,  // measure 21
0010
0010
0100
0001
,  // measure 22
1000
1000
0100
0010
,  // measure 23
1000
0001
1001
0010
,  // measure 24
0100
0010
2000
3000
,  // measure 25
0010
0010
0100
0100
,  // measure 26
0010
0000
0001
0000
,  // measure 27
1000
1000
0001
0001
,  // measure 28
0100
0000
0010
1000
,  // measure 29
1001
0000
0100
0010
,  // measure 30
0001
0010
0100
0010
,  // measure 31
1000
1000
0100
0100
,  // measure 32
0010
0100
0001
0010
,  // measure 33
0100
0100
0010
0010
,  // measure 34
1000
0001
0100
0010
,  // measure 35
0001
0001
0010
0010
,  // measure 36
0100
0010
1000
0010
,  // measure 37
0100
0100
0001
0001
,  // measure 38
0010
0010
1000
1000
,  // measure 39
0010
0000
0100
0010
,  // measure 40
0110
0000
0001
0010
,  // measure 41
0100
2000
3000
0020
,  // measure 42
0030
0200
0300
0002
,  // measure 43
0013
0100
1000
1000
,  // measure 44
0010
0100
0001
0001
,  // measure 45
0110
1000
0100
0001
,  // measure 46
0100
1000
0010
0100
,  // measure 47
0001
0010
0100
0010
,  // measure 48
1000
0001
0010
0100
,  // measure 49
1001
0100
0010
0010
,  // measure 50
1000
0100
0001
0100
,  // measure 51
0010
0001
0010
0100
,  // measure 52
0010
1000
0010
0001
,  // measure 53
0100
0100
0010
0010
,  // measure 54
0100
0001
1000
0010
,  // measure 55
0100
0000
0001
0010
,  // measure 56
1001
0000
0010
0010
,  // measure 57
0100
0010
1000
0100
,  // measure 58
0001
0010
0100
0010
,  // measure 59
1000
1000
0100
0100
,  // measure 60
1001
0000
0000
0000
;
