#TITLE:DISTANCE (m-flo remix);
#SUBTITLE:;
#ARTIST:Hikaru Utada & m-flo;
#TITLETRANSLIT:;
#SUBTITLETRANSLIT:;
#ARTISTTRANSLIT:;
#CREDIT:;
#BANNER:DISTANCE (m-flo remix) banner.png;
#BACKGROUND:DISTANCE (m-flo remix) bg.png;
#LYRICSPATH:;
#CDTITLE:;
#MUSIC:DISTANCE (m-flo remix).mp3;
#OFFSET:-0.640;
#SAMPLESTART:84.780;
#SAMPLELENGTH:15.000;
#SELECTABLE:YES;
#BPMS:0.000=103.000,6.000=90.000,6.500=80.000,7.000=69.000,12.000=132.000;
#STOPS:12.000=2.420
;
#BGCHANGES:;

//---------------dance-single - ----------------
#NOTES:
     dance-single:
     :
     Hard:
     8:
     0.584,0.560,0.213,0.147,0.202:
0000
0000
0000
0000
,
0000
0000
0000
0000
,
0000
0000
0000
0000
,
0000
0000
0000
0000
1000
0000
0200
0000
0310
0001
0000
0001
0010
0000
0100
0000
,
0020
0000
0000
0000
0130
0000
0001
0000
1000
0000
0010
0000
0001
0010
0000
0000
,
0010
0100
0000
0000
0100
0000
1000
0000
0100
0000
0010
0000
0110
0000
0000
0000
,
0200
0000
0310
0000
0001
0000
1000
0001
1000
0000
0100
0000
0010
0000
0001
0000
,
0010
0000
0100
0000
0010
0000
2000
0000
3100
0010
0000
0010
0100
0000
0001
0000
,
0020
0000
0000
0000
0031
0000
0100
0000
0010
0000
1000
0000
0010
0100
0000
0000
,
0100
0010
1000
0001
1000
0000
0100
0000
0010
0000
0001
0000
0010
0000
0000
0000
,
0200
0000
0310
0000
1000
0000
0001
1000
0001
0000
0010
0000
0100
0000
1000
0000
,
0100
0000
0010
0000
1001
0000
0010
0000
0001
0010
0000
0010
0100
0000
0100
0000
,
2000
0000
3100
0010
0100
0010
0001
0000
,
0011
0000
0100
0010
1000
0100
0001
0000
,
0020
0000
0130
0000
0001
0000
0010
0100
0010
0000
0100
0000
1000
0000
0100
0000
,
0010
0000
0100
0000
1010
0000
0100
0000
0001
0010
0000
0010
0001
0000
0010
0000
,
0200
0000
0000
0000
0310
0000
1000
0000
0100
0000
0001
0000
0010
0100
0000
0000
,
0100
0010
1000
0001
0100
0000
0010
0000
0100
0000
0001
0000
1000
0000
0000
0000
,
0100
0000
0100
0000
0010
0000
0100
0000
0010
0000
0001
1000
0001
0000
0010
0000
,
0100
1000
0100
0000
0010
0100
0100
0010
,
0000
0001
0000
0010
0100
1000
0000
0100
,
1000
0100
0110
0000
0100
0010
1000
0001
,
0000
0010
0000
0100
0010
0200
0000
0000
,
1000
1000
0310
0000
1000
0010
0000
0100
,
0010
0100
0000
0010
0011
0010
0100
0010
,
1000
0200
0000
0310
0011
0010
0110
0100
,
1100
0100
0010
0100
0010
1000
0001
1000
,
0010
0000
0000
0000
0110
0000
0010
0000
0001
0000
0010
0100
0000
0100
0010
0000
,
0100
0000
1000
0000
0100
0000
0010
0000
0100
0000
0010
0001
0010
0000
0100
0000
,
0010
0000
1000
0100
2000
0000
0000
0000
3100
0000
0010
0000
0100
0000
0010
0001
,
0000
0001
0010
0000
0001
0000
0010
0000
0100
0000
1000
0000
1000
0000
0100
0000
,
0010
0100
0011
0010
0100
1000
0000
1000
,
0100
0010
0000
0100
0010
1000
0001
0001
,
0010
0000
0001
0000
0100
0000
0010
0000
1000
0000
0100
1000
0100
0000
0100
0010
,
0100
0000
0010
0001
1000
0000
0010
0000
0100
0000
0001
0000
1000
0000
0010
0000
,
0100
0001
1000
0000
1100
0000
0010
0100
,
0010
0001
0011
0000
0010
0000
0100
0010
,
1000
0000
0100
0000
0001
0010
0000
0000
0010
0100
0000
0000
0210
0000
0000
0000
,
0310
0000
1000
0000
0100
0001
0000
0000
0010
1000
0000
0000
0100
0000
1000
0000
,
0010
0100
1001
0000
0100
0000
0010
0100
,
0001
0010
1100
0000
0010
0000
0100
0100
,
0010
0000
1000
0001
1000
0000
0100
0000
0010
0000
0001
0000
1000
0000
0000
0000
,
0001
0000
0010
0000
0100
0000
0010
0000
0001
0000
1000
0000
1001
0000
0000
0100
,
0000
1001
0020
0000
0100
0000
0031
0010
,
0100
0000
0010
0000
1000
0000
0010
0000
0100
0000
0001
1000
0010
0000
0000
0000
,
0100
1000
1100
0000
0110
0010
0000
0100
,
0001
1000
0010
0100
0100
0001
1000
0010
,
0001
0100
0020
0000
0001
0000
0130
0001
,
1000
0000
0010
0000
0001
0000
1000
0000
0010
0000
0001
1000
0100
0000
0100
0000
,
1000
0100
0100
0010
1001
0000
0010
0100
,
0001
0100
0010
1000
0000
1001
0100
0010
,
0100
0000
0010
0000
1000
0000
0000
1000
0100
0000
0100
0000
0010
0000
1000
0000
,
0100
0000
0010
0000
0001
0000
0100
0010
0100
0000
0020
0000
0000
0000
0130
0000
,
0001
0010
0012
0000
0103
0010
1000
0100
,
0100
1000
0010
0100
0001
1000
0010
0000
,
0110
0000
0000
0000
0100
0000
0000
1000
0010
0000
0100
0000
1000
0000
0010
0000
,
0100
0000
1000
0000
0010
0000
0100
0001
0100
0000
0010
0000
1000
0000
0010
0000
,
0000
1000
0100
0010
0110
0000
0001
0010
,
0001
0100
0100
0010
1000
0100
0010
0010
,
0100
0000
0010
0000
0001
0000
0010
0100
0000
0100
0010
1000
0001
0000
0010
0000
,
0210
0000
0000
0300
0010
0000
1000
0000
0100
0000
0010
0001
0010
0000
0100
0000
,
0010
0000
1000
0100
0010
0000
0100
0000
0010
0000
0001
0000
0010
0000
0000
0000
,
0100
1000
0100
0000
0010
0000
0100
0010
0001
0000
0010
0000
0100
0000
0001
0000
,
1000
0000
0010
0000
0110
0000
1000
0100
0000
0100
0010
1000
0001
0000
0010
0000
,
0200
0000
0000
0000
0301
0000
0010
0100
0010
0000
0001
0000
1000
0000
0100
0000
,
0010
0000
1000
0100
0001
0000
0001
0000
0010
0000
0100
0000
0010
0000
1000
0000
,
0100
0010
0100
0000
0001
0000
0010
0100
1000
0000
0100
0000
0010
0000
1000
0000
,
0100
0010
1001
0000
0100
0010
0010
0100
,
0001
0020
0130
1000
0100
0010
0000
0100
,
1000
0001
1001
0000
0000
0000
0000
0000
;

//---------------dance-single - ----------------
#NOTES:
     dance-single:
     :
     Medium:
     6:
     0.368,0.382,0.140,0.029,0.004:
0000
0000
0000
0000
,
0000
0000
0000
0000
,
0000
0000
0000
0000
,
0000
0000
1001
0000
0010
0000
0100
0010
,
0002
0013
0100
0010
,
0010
0100
1000
0100
,
0010
1000
0010
0000
0100
0000
0010
0001
,
0010
0100
0010
0000
0100
0000
0010
0100
,
2000
3100
0010
1000
,
0010
0000
0010
0000
0100
0001
0100
0000
,
0010
0000
1000
0001
0100
0000
0010
1000
,
0100
1000
0010
0000
0100
0000
0010
0010
,
0100
0000
0100
0000
0010
0000
0001
0001
,
0010
0000
0010
0000
0100
0000
1000
1000
,
0100
0000
1000
0000
0010
0000
0100
0010
,
0001
0010
0100
0000
0001
0000
0010
1000
,
0100
0000
0010
0001
0001
0000
0011
0000
,
0010
0100
1000
0000
0100
0010
1000
0000
,
1001
0010
0100
0010
,
1000
0100
0000
0100
,
0100
0010
0100
0010
,
0001
0010
0002
0000
0003
0000
0100
0000
,
0010
0010
0100
1000
,
0100
0010
0010
0000
0100
0001
0000
0010
,
1000
0010
0000
0100
0000
0010
1000
0010
,
0000
0100
0000
1000
0100
0000
0010
0000
,
0001
0010
0100
1000
,
0100
0000
0110
0000
0010
0000
0100
0010
,
0000
0001
0000
0010
0000
0100
0000
0010
,
1000
0010
0100
0000
0100
0000
0010
1000
,
0000
0100
0000
0001
0000
0010
0000
0000
,
0010
0100
0110
0000
1000
0100
0000
0100
,
0010
0100
0000
0010
0000
0001
0010
0000
,
0010
0100
0000
0100
0010
0000
0100
0000
,
0010
0000
0001
0000
0010
0000
0001
0010
,
0100
1000
0100
0000
1100
0000
0100
0000
,
0010
0100
0010
0000
0110
0000
1000
0100
,
0010
0000
0011
0000
0110
0000
0010
1000
,
0010
0000
0100
0000
0010
0000
1000
0100
,
1000
0000
0100
0000
0010
0000
0100
0010
,
0001
0010
0001
0000
0001
0000
0010
0100
,
1000
0100
1000
0000
0100
0010
0010
0000
,
0110
0000
0000
0000
0100
0000
0010
0000
0100
0000
0000
0000
0001
0000
0000
0010
,
0000
0100
0010
0000
1000
0000
0010
0000
,
0100
0000
1000
0100
0010
0002
0000
0003
,
0010
0110
0100
0100
,
0010
0000
0100
0000
0001
1000
0010
0000
,
0100
0010
0010
0100
,
0100
0000
0010
1000
0010
0100
0000
0010
,
0000
0100
0110
0010
,
0011
0000
0001
0010
0100
0000
0010
0100
,
1000
1100
0100
1000
,
0010
0000
0100
0010
0001
0010
0000
0000
,
1000
0100
0010
0100
,
0100
0000
1000
0100
0010
0000
0100
0000
,
0110
0010
0100
0010
,
0001
0000
1000
0010
0100
0001
0000
0010
,
0000
0000
0010
0010
0110
0000
0010
0100
,
0000
0100
0000
0010
0000
1000
0001
0000
,
0010
0000
0100
0010
0100
0000
0001
0010
,
0001
0000
0010
0100
0010
0000
1000
0000
,
1100
0000
0100
0000
0010
0100
1000
0000
,
0100
0000
0100
0010
0001
0000
0010
0001
,
0010
0100
0010
0000
0100
0000
1000
0010
,
1000
0000
0100
0000
0010
0000
0001
0010
,
0001
0010
0010
0100
,
0010
0000
0001
0000
0010
0000
0100
0010
,
1000
0001
0100
0000
0010
0000
0100
0000
,
0001
1100
0010
0100
,
0001
1000
1001
0000
0000
0000
0000
0000
;

//---------------dance-single - ----------------
#NOTES:
     dance-single:
     :
     Easy:
     3:
     0.279,0.280,0.059,0.088,0.000: // measure 1
0000
0000
0000
0000
,  // measure 2
0000
0000
0000
0000
,  // measure 3
0000
0000
0000
0000
,  // measure 4
0000
1000
0100
0010
,  // measure 5
0002
0013
0100
0010
,  // measure 6
0010
0100
0010
0001
,  // measure 7
0010
0100
1000
0100
,  // measure 8
0100
0010
0100
0010
,  // measure 9
2000
3100
0010
0100
,  // measure 10
0100
0010
0001
0010
,  // measure 11
0001
0100
0010
1000
,  // measure 12
0100
1001
0010
0100
,  // measure 13
0020
0130
0001
0010
,  // measure 14
0010
0100
0010
1000
,  // measure 15
0100
0010
0100
0010
,  // measure 16
0001
0110
0100
0010
,  // measure 17
2000
3100
0010
0100
,  // measure 18
0100
1000
0100
0010
,  // measure 19
0001
0001
0010
0100
,  // measure 20
1000
0100
0000
0100
,  // measure 21
0010
0100
0000
0001
,  // measure 22
0010
0001
0000
0010
,  // measure 23
0100
1000
0000
1000
,  // measure 24
0100
0010
0100
0000
,  // measure 25
0010
0000
0001
0010
,  // measure 26
0100
0010
0010
1000
,  // measure 27
1000
1000
1000
0100
,  // measure 28
0010
0100
0011
0010
,  // measure 29
0100
0010
1010
0010
,  // measure 30
0100
1001
0000
0100
,  // measure 31
1000
0100
0010
0100
,  // measure 32
0010
0001
0010
0000
,  // measure 33
0100
0000
1000
0100
,  // measure 34
0010
0100
0100
0010
,  // measure 35
0010
0100
0001
1000
,  // measure 36
0010
0100
0001
0010
,  // measure 37
1000
0100
1000
0100
,  // measure 38
0010
0200
0320
0130
,  // measure 39
0001
2000
3002
0013
,  // measure 40
0100
0010
0001
0010
,  // measure 41
0100
0010
1000
0100
,  // measure 42
1000
0100
0010
0010
,  // measure 43
0000
0100
0010
0100
,  // measure 44
0001
2000
0000
3000
,  // measure 45
0100
0010
0010
0100
,  // measure 46
0100
0001
0010
0100
,  // measure 47
1000
0010
0010
0100
,  // measure 48
0100
0020
0000
0030
,  // measure 49
0100
1000
0100
0010
,  // measure 50
0001
0010
0010
0100
,  // measure 51
0100
0010
0001
0010
,  // measure 52
0100
0020
0000
0030
,  // measure 53
0100
0010
1000
0100
,  // measure 54
0001
0100
0100
1000
,  // measure 55
1000
0100
0010
0100
,  // measure 56
0010
0002
0000
0003
,  // measure 57
0010
0001
0010
0100
,  // measure 58
0000
0100
0010
0100
,  // measure 59
0100
1000
0100
0010
,  // measure 60
0001
0010
0100
0010
,  // measure 61
0010
0100
0010
1000
,  // measure 62
1000
0100
0010
0100
,  // measure 63
0010
0001
0010
0001
,  // measure 64
0100
0010
1000
0010
,  // measure 65
0100
0010
1000
0001
,  // measure 66
0001
0010
0100
0010
,  // measure 67
0001
0010
0010
0100
,  // measure 68
0100
0010
1100
0010
,  // measure 69
0100
0010
0011
0001
,  // measure 70
1000
1001
0000
0000
;
