#TITLE:Coconuts;
#SUBTITLE:;
#ARTIST:Kim Petras;
#TITLETRANSLIT:;
#SUBTITLETRANSLIT:;
#ARTISTTRANSLIT:;
#CREDIT:;
#BANNER:Coconuts banner.png;
#BACKGROUND:Coconuts bg.png;
#LYRICSPATH:;
#CDTITLE:;
#MUSIC:Coconuts.mp3;
#OFFSET:-4.740;
#SAMPLESTART:55.580;
#SAMPLELENGTH:15.000;
#SELECTABLE:YES;
#BPMS:0.000=112.000;
#STOPS:60.000=1.600
,185.000=1.600
;
#BGCHANGES:;

//---------------dance-single - ----------------
#NOTES:
     dance-single:
     :
     Hard:
     7:
     0.448,0.405,0.172,0.164,0.116:
1001
0000
0010
0100
0000
0010
0100
0000
,
0001
0010
0100
1000
0100
0000
0010
0100
,
0010
0000
0001
0010
0010
0100
0200
0000
,
0300
1000
1000
0010
0020
0000
0230
0000
,
0301
0000
0010
0100
0000
0100
0010
0000
,
1000
0001
1000
0000
0010
0000
0010
0100
,
0000
0000
1000
0001
0010
1000
0200
0000
,
0300
1000
0010
0001
0200
0000
0300
0000
,
0110
0000
0000
0001
0000
0000
0010
0000
0100
0000
0010
0000
1000
0000
1000
0000
,
0100
0000
0000
0010
0000
0000
0100
0000
0001
0000
0010
0000
1000
0000
0010
0000
,
0001
0000
0000
0010
0000
0000
0100
0000
0010
0000
1000
0000
0002
0000
0000
0000
,
0013
0000
0000
1000
0000
0000
0100
0000
1000
0000
0010
0000
0200
0000
0000
0000
,
0310
0000
0000
0001
0000
0000
0010
0000
0100
0000
0010
0000
1000
0000
0001
0000
,
0100
0000
0000
0010
0000
0000
0100
0000
0010
0000
1000
0000
0001
0000
0000
0000
,
0010
0000
1000
0010
0000
0000
0010
0000
0100
0000
0001
0000
1000
0000
0000
0000
,
1001
0000
0100
0010
0001
1000
0010
0100
,
0001
0000
0000
0000
0010
0000
1000
0100
0000
0100
0010
0000
0002
0000
0000
0000
,
0013
0000
0100
0001
0010
1000
0100
0100
,
0010
0000
0000
0000
1000
0000
0010
0100
0000
0000
0001
0000
0010
0000
0100
0000
,
1001
0000
0001
1000
0100
0010
0100
0001
,
0020
0000
0000
0000
0130
0000
0001
1000
0000
1000
0001
0000
0110
0000
0000
0000
,
0100
0000
0001
1000
1000
0100
0010
0100
,
0001
0000
0000
0000
0010
0000
0100
0010
0000
0000
1000
0000
1001
0000
0000
0000
,
0020
0000
0130
0001
1000
0110
0000
0001
,
0010
1000
0010
0010
0100
0100
0001
1000
,
0010
0110
0000
0001
0010
0100
1100
0010
,
0011
0000
0010
0100
0011
0100
1100
0000
,
0020
0000
1030
0100
0001
0100
1000
0010
,
0100
0100
0001
1000
0100
0001
0010
1000
,
0001
0100
0000
0000
0010
0001
0010
1000
,
0100
0000
0100
0001
0010
1000
0100
0010
,
0001
1000
0200
0000
0310
0001
0000
0001
,
0010
0000
0100
0000
0010
0000
0000
1000
0000
0000
0001
0000
0010
0000
1000
0000
,
0010
0001
0200
0000
0310
1000
0200
0000
,
0310
0000
0001
0000
0010
0000
0000
0001
0000
0000
0100
0000
0010
0000
1000
0000
,
0001
0010
0110
0000
1000
1001
0000
0100
,
0010
1000
0001
0001
0010
0100
1000
0100
,
0010
1001
0000
0010
0100
0010
0010
1000
,
1000
0000
0100
0001
1000
0010
0110
0000
,
1000
0000
0000
0000
0200
0000
0000
0010
0000
0000
0310
0000
0001
0000
0010
0000
,
0100
0000
0000
0000
0020
0000
0000
1000
0000
0000
1030
0000
0100
0000
0010
0000
,
0001
0000
0000
0000
2000
0000
0000
0100
0000
0000
0010
0000
3100
0000
0001
0000
,
1000
0000
0000
0000
0002
0000
0000
0010
0000
0000
0103
0000
0010
0000
0001
0000
,
1000
0000
0000
0000
0110
0000
0000
1000
0000
0000
0100
0000
0010
0000
0001
0000
,
0010
0000
0010
0000
0101
0000
0000
0010
0000
0010
0100
0000
1000
0000
0100
0000
,
0001
0000
0000
0000
0010
0000
0100
0010
0000
0000
0010
1000
0001
0000
0010
0000
,
0010
0000
1001
0000
1000
0100
0010
0100
,
1000
0000
0001
0000
0020
0000
0000
0000
0031
0000
0100
0010
0000
0010
0100
0000
,
0001
0000
0010
0000
1000
0100
1000
0000
0010
0000
0100
0000
0001
0000
1000
0000
,
0100
0001
1000
0000
1001
0000
0000
0000
;

//---------------dance-single - ----------------
#NOTES:
     dance-single:
     :
     Medium:
     6:
     0.348,0.320,0.043,0.129,0.000: // measure 1
1000
0000
0100
0010
0000
0010
0001
0000
,  // measure 2
0001
0010
0100
1000
0100
0000
0010
0200
,  // measure 3
0000
0300
0000
1000
0100
0010
0001
0000
,  // measure 4
0000
0001
0010
0100
1000
0000
0010
0000
,  // measure 5
0100
0000
0001
1000
0000
1000
0001
0000
,  // measure 6
0010
0100
0010
0000
1000
0000
0100
0001
,  // measure 7
0000
0000
0000
0010
0100
0010
0100
0000
,  // measure 8
0000
0001
1000
0001
1000
0000
0100
0000
,  // measure 9
0010
1000
0001
0000
0001
1000
0010
0000
,  // measure 10
0100
0100
1000
0000
0010
0010
0001
0000
,  // measure 11
0100
0000
0010
0000
0001
1000
0010
0000
,  // measure 12
0010
0000
0100
0000
0010
1000
0100
0000
,  // measure 13
0100
0001
1000
0000
1000
0100
0001
0000
,  // measure 14
0001
0010
0100
0000
0010
0100
1000
0000
,  // measure 15
0010
0100
0001
0000
0001
1000
0010
0000
,  // measure 16
1001
0000
0010
0000
0100
0000
0010
1000
,  // measure 17
0020
0130
0001
0020
,  // measure 18
0030
0000
1000
0000
0100
0000
0001
0010
,  // measure 19
0001
0000
0010
0100
1000
0000
1000
0100
,  // measure 20
0010
0000
0100
0000
0001
0000
1000
0010
,  // measure 21
1000
0000
0100
0000
0010
0001
0020
0000
,  // measure 22
0130
0002
0003
0020
,  // measure 23
0030
0000
0100
0100
0100
0001
1000
0000
,  // measure 24
0001
0000
1001
0000
0010
0100
0010
1000
,  // measure 25
0001
0000
0001
0010
0100
1000
0010
0000
,  // measure 26
0001
1000
0000
0000
0100
0010
1000
0001
,  // measure 27
0100
0000
0010
0001
1000
0010
0001
0000
,  // measure 28
1000
0000
1000
0001
0100
0010
0000
0010
,  // measure 29
0001
0000
0010
0100
0010
0000
1000
0000
,  // measure 30
0001
0010
0000
0000
0010
0100
0010
1000
,  // measure 31
0010
0000
0000
0010
0001
0100
0010
0000
,  // measure 32
0100
0000
1010
0000
0100
0002
0000
0003
,  // measure 33
0010
0100
0010
0000
0001
0010
0000
0010
,  // measure 34
0100
0020
0000
0000
0030
0100
0001
0000
,  // measure 35
1000
0001
0100
0000
0010
0100
0000
0100
,  // measure 36
0010
0000
1000
0000
0100
0010
0000
0010
,  // measure 37
0001
0000
1000
0010
1000
0010
0100
0000
,  // measure 38
0100
0010
0000
0000
0001
0000
0010
0100
,  // measure 39
0010
0000
0001
0000
1000
0010
1000
0000
,  // measure 40
0100
0000
0002
0000
0023
0000
0130
0100
,  // measure 41
0100
0000
2000
0000
3200
0000
0310
0010
,  // measure 42
0010
0000
2000
0000
3002
0000
0013
0010
,  // measure 43
0010
0000
0100
0000
0010
0000
1000
0001
,  // measure 44
0010
0000
0001
0000
0100
0010
1000
0100
,  // measure 45
0001
0000
0001
0000
0010
0100
0010
1000
,  // measure 46
0100
0000
0010
0010
0010
0000
0100
0100
,  // measure 47
0100
0000
1001
0000
0010
0100
0001
0000
,  // measure 48
0001
0010
1000
0000
1000
0010
0100
0010
,  // measure 49
0002
0013
0010
0100
,  // measure 50
0010
1000
0001
0000
1001
0000
0000
0000
;

//---------------dance-single - ----------------
#NOTES:
     dance-single:
     :
     Easy:
     3:
     0.246,0.234,0.060,0.103,0.000:
1000
0100
0010
0010
,
0001
0100
0010
1000
,
0002
0003
0010
0010
,
0000
1000
1000
0100
,
0001
0100
0010
1000
,
0100
0100
0010
0010
,
0100
0000
0010
0100
,
0000
0010
0100
0001
,
1000
1000
0100
0100
,
0010
0010
0001
0001
,
0010
0100
0010
0002
,
0013
0100
0010
2000
,
3100
0100
0010
0010
,
1000
0100
0010
0001
,
0010
0100
0001
1000
,
0110
0010
0001
0010
,
0100
0010
1000
2000
,
3000
0100
0010
0001
,
1000
0010
0100
0001
,
0001
0010
0100
0010
,
0010
0001
1000
0020
,
0030
0100
0100
0010
,
0010
1000
0001
1000
,
0200
0310
1000
1001
,
0000
0100
0010
1000
,
0100
0001
0000
0010
,
0010
0100
0001
0001
,
0010
0100
0010
0110
,
0000
0001
0010
1000
,
1000
0100
1000
0010
,
0100
0001
0010
0100
,
0001
0010
0100
1000
,
0100
0010
0010
0100
,
0100
0010
0001
1000
,
0010
0001
0001
0010
,
0010
0100
1000
0200
,
0300
0010
1000
0001
,
0001
0100
0000
0010
,
0110
0000
0100
0110
,
0000
2000
0000
3100
,
0100
0002
0000
0013
,
0010
0200
0000
0310
,
0010
0002
0000
1003
,
1000
0010
0010
0100
,
1000
0001
0001
0010
,
0001
1000
1000
0100
,
0010
1001
0100
0010
,
0100
0100
0001
1000
,
0020
0030
0100
0001
,
1000
0001
1001
0000
;
