#TITLE:CRY FOR ME;
#SUBTITLE:;
#ARTIST:TWICE;
#TITLETRANSLIT:;
#SUBTITLETRANSLIT:;
#ARTISTTRANSLIT:;
#CREDIT:;
#BANNER:CRY FOR ME banner.png;
#BACKGROUND:CRY FOR ME bg.png;
#LYRICSPATH:;
#CDTITLE:;
#MUSIC:CRY FOR ME.mp3;
#OFFSET:-10.080;
#SAMPLESTART:53.160;
#SAMPLELENGTH:15.000;
#SELECTABLE:YES;
#BPMS:0.000=72.300,4.000=145.000,164.000=72.400,196.000=145.000;
#STOPS:;
#BGCHANGES:;

//---------------dance-single - ----------------
#NOTES:
     dance-single:
     :
     Hard:
     8:
     0.511,0.579,0.201,0.119,0.149:
0000
0000
0000
0000
,
1001
0000
0010
0100
0002
0000
0000
0013
,
0100
0100
1000
0010
0100
0001
1000
0010
,
1000
0000
0100
0010
0110
0000
0010
0000
,
0001
0010
0100
1000
0100
0010
0100
0010
,
1000
0000
0100
0010
0100
0000
0010
0000
,
0100
0010
1000
0001
0100
0010
0001
0010
,
0100
0000
0010
1000
0001
0000
1001
0000
,
0010
0000
0000
0000
0010
1000
0000
0000
0100
0001
0000
0000
0010
1000
0000
0000
,
0010
0100
0010
0001
0020
0000
0130
0000
,
0001
0001
0010
0100
0100
1000
0010
0100
,
1000
0000
0100
0010
0020
0000
0130
0001
,
1000
0001
0010
0000
0100
0010
1000
0010
,
0110
0000
0100
1000
1100
0000
0010
0100
,
0110
0000
0010
0001
1000
0010
0001
0010
,
1000
0000
0010
0100
0001
1000
0010
0000
,
0020
0000
0100
0130
,
0001
0010
0001
0000
0010
0000
0000
0000
0100
0000
0010
0000
1000
0000
0000
0000
,
0100
1000
0100
0000
0010
0000
0000
0000
0200
0000
0000
0000
0310
0000
0000
0000
,
0010
0010
0100
0000
0001
0010
0100
0000
,
0010
1000
0010
0000
1000
0000
0000
0000
0100
0000
1000
0000
0200
0000
0310
0000
,
0001
0010
0110
0100
,
0110
0000
0000
0000
0001
0000
0010
0000
0100
0000
0010
0000
1000
0000
0010
0100
,
0010
0001
1000
0100
,
0020
0000
0000
0000
0230
0000
0000
0300
,
1001
0000
0110
0000
0010
0100
0001
1000
,
0010
0000
0000
0000
0001
0000
0000
0000
0010
1000
0000
0000
0100
1000
0000
0000
,
1100
0000
0010
0100
0010
0001
0010
0100
,
0010
0000
0000
0000
0100
0000
0010
0000
1000
0100
0000
0000
0100
0010
0000
0000
,
0110
0000
1000
0100
0100
0010
0100
0010
,
0001
0000
0000
0000
0010
0000
0001
0000
0010
0100
0000
0000
0010
1000
0000
0000
,
0100
0010
0100
1000
0001
0000
0020
0000
,
0130
0001
1000
0010
0010
0000
0100
0000
,
0010
1000
1000
0100
0010
0010
0100
0010
,
0001
0000
0001
0010
0000
0010
0100
0010
,
0100
1000
1000
0100
0010
0010
0100
0010
,
1000
0000
1000
0100
0000
0100
0010
0100
,
0110
0010
0010
0001
0010
0100
0010
1000
,
1000
0100
0010
0100
0000
0010
0010
0100
,
0001
0010
0100
1000
0001
0010
0100
1000
,
0011
0010
0110
0100
2000
0000
3000
0100
,
0110
0000
0000
1000
0100
0010
0100
0000
0110
0000
0000
0001
0010
0000
0100
0000
,
0110
0000
0000
1000
0100
0010
0001
0000
1001
0000
0000
0010
0100
0010
0001
0010
,
0200
0000
0000
0310
0001
0000
0010
0000
0100
0000
0000
1000
0100
0001
1000
0000
,
0010
0000
0100
0010
0000
0001
0010
0000
0100
0000
0010
0000
1000
0000
0010
0000
,
1001
0000
0000
0000
0010
0100
0010
0001
0010
0000
0000
0000
0100
0000
0100
0000
,
1000
0000
0000
0001
0100
0010
1000
0100
0001
0000
0010
0100
0010
0000
0100
0000
,
0001
0000
0000
0000
0010
0100
0010
0000
0200
0000
0000
0000
1300
0000
0010
0000
,
1000
0100
0010
0001
0010
0100
2000
0000
0100
0000
0010
0000
0100
0000
3010
0000
,
1001
0000
0010
0010
0100
0010
0001
0010
,
0100
0000
0000
0000
0100
0000
1000
0000
0100
0001
0000
0000
0100
0010
0000
0000
,
0110
0000
0001
0010
0100
0010
0100
1000
,
0100
0000
0000
0000
0010
0000
0100
0000
0001
0010
0000
0000
0010
0100
0000
0000
,
0110
0000
0001
0000
0010
0100
1000
1000
,
0100
0000
1000
0100
0010
0001
0001
0010
,
0100
0010
0100
0001
1000
0000
0110
0000
,
0001
0001
0010
0010
0100
0100
1000
1000
,
1001
0010
0001
1001
0010
0100
0010
2000
,
0000
0000
3100
0010
0000
0000
0100
0010
,
0001
0100
0010
1000
0010
0100
0010
0002
,
0000
0000
0013
0100
0000
0010
0100
0010
,
0001
0010
0010
0100
0100
1000
0010
0100
,
0100
1000
0010
0100
0000
0010
0010
0100
,
1000
0100
0010
0001
1000
0100
0010
0001
,
1000
0100
0010
0001
0020
0000
0030
0100
,
0110
0000
0000
0000
;

//---------------dance-single - ----------------
#NOTES:
     dance-single:
     :
     Medium:
     6:
     0.379,0.386,0.111,0.067,0.000:
0000
0000
0000
0000
,
1010
0100
0002
0003
,
0010
0000
0100
0000
0010
0000
0001
0010
,
0100
0010
0200
0300
,
1000
1000
0100
0010
,
0100
0000
0010
1000
0002
0000
0003
0000
,
0100
0000
0010
1000
0001
0000
0010
0001
,
1000
0000
1000
0100
0100
0000
0110
0000
,
0010
0001
1000
0100
,
0010
0000
0001
0001
0010
0000
0100
0000
,
0010
0000
0100
0000
0010
1000
0100
0001
,
0100
0010
1000
0100
,
0010
0000
1000
0000
0001
0010
0100
1000
,
0100
0000
0010
1000
0010
0000
0100
0001
,
0100
0000
0010
0000
0100
0010
1000
0001
,
0010
0000
0010
0000
0001
0000
0010
0100
,
1000
1000
0100
0010
,
1000
1000
1000
0000
0100
0100
0100
0000
,
0010
0010
0010
0000
0001
0001
0001
0000
,
0010
0100
0010
0000
0001
0010
0001
0000
,
0010
0100
0010
0000
0100
1000
0100
0000
,
0100
0011
0011
1100
,
1100
0000
0010
0000
0100
0000
0001
1000
,
0001
0001
0010
0010
,
0200
0000
0000
0300
0020
0000
0000
0030
,
1001
0000
0010
0000
0100
1000
0010
0100
,
0010
0000
0100
0000
0001
1000
0010
0001
,
0010
0000
0100
0000
0010
1000
0100
0100
,
1000
0000
0100
0010
1000
0000
0010
0000
,
0001
0000
0010
0000
0001
0010
0100
0000
,
0110
0000
0010
0000
1000
0100
0001
0000
,
0001
0010
0100
1000
0100
0000
0110
0000
,
0000
0000
0000
0010
0110
0000
0000
0000
,
1000
0000
0100
0010
0000
0010
0100
0010
,
0000
0001
0010
0001
0000
0010
0100
0000
,
0010
0000
0001
0000
0100
0000
0010
1000
,
0000
1000
0010
0100
0000
0100
1000
0000
,
1000
0100
0000
0001
1000
0000
0001
0010
,
0000
0010
0100
0010
0000
0100
0010
0000
,
0100
0100
0010
0010
,
0001
0000
1000
0000
0002
0000
0000
0013
,
0100
0000
0010
0010
0100
0000
0010
0001
,
0010
0000
0010
0100
1000
0000
1000
1000
,
0100
0000
1000
0010
0100
0000
0100
0010
,
0001
0000
0010
0100
0020
0000
1030
0001
,
0110
0000
0010
0100
0010
0001
0010
0010
,
0100
0000
0010
0001
0010
0100
0010
0100
,
1000
0000
1000
0100
0010
0000
0010
0100
,
0010
0001
1000
0020
0000
0000
0130
0100
,
0110
0000
0010
0000
0001
1000
0010
0100
,
0010
0000
0010
0100
0010
0000
0001
0000
,
0011
0000
0010
0000
0100
1000
0010
0100
,
0010
0000
0010
0100
0001
0000
0010
0000
,
0100
0000
1000
0000
0010
1000
0010
0000
,
1100
0000
0100
0000
1000
0010
0100
0000
,
0100
0010
1000
0001
0100
0000
0010
0000
,
0110
0000
0010
0010
0010
0000
0100
0000
,
0010
1000
0001
0100
0010
1000
0001
0010
,
0100
0000
0100
0010
0000
0000
1000
0000
,
1000
0100
0010
0001
0010
0100
1000
0100
,
0010
0000
0010
0001
0000
0000
0010
0000
,
0100
0010
0000
0010
0100
0000
0001
0010
,
0000
0010
0100
0010
0000
1000
0100
0000
,
0010
0010
0100
0100
,
0010
0000
0001
0000
2000
0000
0000
3100
,
0010
0000
0000
0000
;

//---------------dance-single - ----------------
#NOTES:
     dance-single:
     :
     Easy:
     4:
     0.275,0.266,0.045,0.082,0.000: // measure 1
0000
0000
0000
0000
,  // measure 2
0010
0010
0200
0300
,  // measure 3
0010
0001
0010
0100
,  // measure 4
1000
1000
0100
0000
,  // measure 5
1000
0100
0010
0100
,  // measure 6
0010
0001
0020
0030
,  // measure 7
0100
0010
0100
0100
,  // measure 8
0010
1000
0100
0101
,  // measure 9
0000
0010
0100
0100
,  // measure 10
1000
0010
0200
0000
,  // measure 11
0300
0010
1000
0001
,  // measure 12
0010
0001
0020
0000
,  // measure 13
0030
0100
0010
0010
,  // measure 14
0110
0001
0010
1000
,  // measure 15
0010
0001
0010
0100
,  // measure 16
0010
1000
0100
0010
,  // measure 17
0100
0000
0010
0110
,  // measure 18
0010
0010
0001
0001
,  // measure 19
0010
0010
0100
0100
,  // measure 20
0010
0010
1000
1000
,  // measure 21
0100
0100
1000
0010
,  // measure 22
0100
0010
0010
0001
,  // measure 23
0001
0100
0010
1000
,  // measure 24
0001
0100
0010
1000
,  // measure 25
0200
0000
0320
0030
,  // measure 26
0110
1000
0001
0010
,  // measure 27
0100
0000
0100
1000
,  // measure 28
0010
0100
0010
0001
,  // measure 29
0100
0100
0010
0010
,  // measure 30
0100
0000
0001
0010
,  // measure 31
0100
0000
0010
0001
,  // measure 32
1000
0010
0100
0002
,  // measure 33
0003
0010
0010
0100
,  // measure 34
0010
1000
0001
0100
,  // measure 35
0010
0001
0010
0100
,  // measure 36
0100
1000
0100
0010
,  // measure 37
0100
0010
2000
3000
,  // measure 38
0100
0100
0010
0010
,  // measure 39
0001
1000
0010
0000
,  // measure 40
0100
0100
0010
0010
,  // measure 41
1000
0001
2000
0000
,  // measure 42
3010
0000
0100
0100
0100
0000
0010
0010
,  // measure 43
0010
0000
0001
0001
0001
0000
1000
1000
,  // measure 44
1000
0010
0100
0001
,  // measure 45
1000
0010
0100
0001
,  // measure 46
0010
0000
0100
0000
0100
0000
0010
0010
,  // measure 47
0010
0000
1000
0000
0100
0000
1000
1000
,  // measure 48
1000
0001
0100
0010
,  // measure 49
1000
0000
0100
0020
0000
0000
0130
0000
,  // measure 50
1001
0010
0001
0010
,  // measure 51
0100
0010
1000
1000
,  // measure 52
0100
1000
0100
0010
,  // measure 53
0100
0010
0001
0001
,  // measure 54
0010
0100
0001
0001
,  // measure 55
0010
0000
0100
0010
,  // measure 56
1000
0001
0100
0010
,  // measure 57
0010
0100
0110
0000
,  // measure 58
0010
0100
0010
0100
,  // measure 59
0001
1000
0001
1000
,  // measure 60
0010
0100
0001
1000
,  // measure 61
0010
0100
0001
1000
,  // measure 62
0010
0010
0100
0100
,  // measure 63
0001
0010
1000
0100
,  // measure 64
1000
1000
0100
0100
,  // measure 65
0010
0010
0002
0000
,  // measure 66
1003
0000
0000
0000
;
