#TITLE:CHI MAT BA RAM;
#SUBTITLE:;
#ARTIST:BRAVE GIRLS;
#TITLETRANSLIT:;
#SUBTITLETRANSLIT:;
#ARTISTTRANSLIT:;
#CREDIT:;
#BANNER:CHI MAT BA RAM banner.png;
#BACKGROUND:CHI MAT BA RAM bg.png;
#LYRICSPATH:;
#CDTITLE:;
#MUSIC:CHI MAT BA RAM.mp3;
#OFFSET:-4.060;
#SAMPLESTART:76.540;
#SAMPLELENGTH:15.000;
#SELECTABLE:YES;
#BPMS:0.000=127.000;
#STOPS:;
#BGCHANGES:1.000=CHI MAT BA RAM.avi=1.000=1=0=0,
99999=-nosongbg-=1.000=0=0=0 // don't automatically add -songbackground-
;

//---------------dance-single - ----------------
#NOTES:
     dance-single:
     :
     Hard:
     8:
     0.553,0.505,0.313,0.107,0.178:
0000
0000
0000
0000
,
0000
0000
0000
0000
,
1000
1001
0010
0101
,
0010
1100
0001
1010
,
0100
0010
0100
0010
,
0001
0000
0010
0000
0100
0000
1000
0000
0100
0000
0000
0000
0010
0100
0010
0000
,
1000
0100
0010
0001
0010
0100
0010
1000
,
0100
0100
0010
0001
0000
0010
0110
0100
,
0010
0001
0010
1000
0100
0010
0100
0001
,
0000
0010
0000
0110
0000
1000
0110
0001
,
0100
0010
1000
0100
0010
0100
0010
0001
,
1000
0010
0001
0100
0000
0100
1001
0010
,
0100
0010
1000
0100
0001
0100
0010
1000
,
0000
0001
0000
0100
0000
0010
0010
0100
,
1000
0100
0020
0000
0130
1000
0100
0001
,
0100
0000
0000
0001
0000
0000
0100
0000
0000
0000
0010
0000
0100
0000
0010
0000
,
0001
1000
0002
0000
0013
0100
0100
0000
,
0010
0000
1000
0001
0000
0001
1000
0100
0010
0000
0100
0000
0010
0000
0001
0000
,
1000
0100
0100
0010
1000
0001
0001
0100
,
0011
0000
0000
0100
0000
0000
2100
0000
0000
0000
0100
0000
3000
0000
0100
0000
,
0010
0000
0000
0100
0000
0000
0010
0000
0001
0000
0000
1000
0000
0000
0010
0000
,
1000
0001
0100
0010
1000
0001
0100
0000
,
0001
0010
0000
0020
0000
0000
0130
0000
1000
0100
0000
0200
0000
0000
0310
0000
,
0001
1000
0000
0001
0000
0000
0010
0000
0110
0000
0000
0000
0010
0000
0001
0000
,
1000
0010
0000
0020
0000
0000
0130
0000
1000
0001
0000
0002
0000
0000
0013
0000
,
0100
0000
0000
0000
0110
0000
0010
0000
1000
0000
0000
0010
0000
0000
0001
0000
,
0011
0000
1100
0001
0010
0000
0100
0010
,
1000
0000
0000
0001
0000
0000
1000
0100
1000
0000
0001
0000
0100
0000
0010
0000
,
1000
0000
0100
0000
0001
0000
0100
0000
0010
0000
1000
0001
0000
0001
1000
0000
,
0010
0000
0100
0000
0010
0000
0100
0000
0010
0000
0001
0010
0100
0000
0010
0000
,
0110
0000
1000
0000
0100
0000
0002
0000
0000
0000
0103
0000
0010
0000
0100
0010
,
0100
0000
0010
1000
0100
0001
0100
0010
,
1000
0100
0010
0100
0100
0010
0100
0001
,
0010
0000
2000
0000
0000
0000
3100
0010
0200
0000
0000
0000
0010
0000
0310
0000
,
0100
0000
0010
0000
1000
0000
0100
0000
0001
0000
0010
0000
0100
0000
0010
0100
,
0020
0000
0031
0000
1001
0000
0110
0100
,
0010
0100
0010
0001
1000
0010
0100
0010
,
0000
1000
0000
0100
0010
0100
0001
1000
,
1001
0000
0000
0000
0100
0000
0010
0100
0010
0000
1000
0000
0100
0000
0001
0010
,
0000
0000
0100
0000
0010
0000
1000
0100
0000
0000
0010
0000
0100
0000
0010
0000
,
1001
0000
0000
0000
0010
0000
0100
0010
0100
0000
0010
0000
0100
0000
0010
1000
,
0000
0000
0100
0000
0010
0000
1000
0001
0000
0000
0100
0000
0010
0000
1000
0000
,
0110
0000
1000
0000
0100
0000
0001
0010
0001
0000
0100
0000
0010
0000
0100
1000
,
0000
0000
0010
0000
0100
0000
0010
0000
0100
0000
0000
0001
0000
0000
1000
0000
,
0110
0000
0010
0000
0100
0000
1000
0001
1000
0000
0010
0000
0100
0000
0100
0000
,
0011
1100
0110
1001
,
1000
0100
0020
0000
0130
0010
0100
0001
,
1000
0000
0000
0010
0000
0000
0100
0000
0010
0000
0000
1000
0000
0000
0001
0000
,
0010
0000
1000
0100
0001
0100
1000
0010
,
0011
0000
0000
0010
0000
0000
0100
0000
1100
0000
0000
0100
0000
0000
0010
0000
,
0100
0010
1001
0010
0100
0010
1001
0010
,
0001
0010
0100
1000
0100
0010
0010
0000
,
1000
0000
0010
0000
0100
0000
0001
0000
0010
0000
1000
0000
0100
0000
0010
0100
,
0020
0000
0130
0001
0002
0000
0013
1000
,
2000
0000
0000
0000
3100
0010
0110
0000
,
1000
0000
0010
0000
0100
0000
0001
0000
0010
0000
0100
0000
0001
0010
0001
0000
,
1000
0010
0001
0100
0000
0010
1010
0100
,
0010
0000
1000
0000
0100
0000
0001
0000
0100
0000
0010
0000
1000
0100
1000
0000
,
0000
0100
0000
0010
0000
0001
0101
0010
,
1000
0000
0010
0000
0100
0000
0001
0000
1000
0000
0001
0000
0100
0010
0100
0000
,
0010
1000
0001
0100
0000
0010
0100
0010
,
1000
0010
0100
0001
0010
0100
0010
0010
,
1100
1001
0110
0011
,
0100
0000
0000
0001
0010
0000
0100
0000
0110
0000
0000
0000
0010
0000
0010
0000
,
0100
0000
1000
0000
0100
0000
0000
0000
0110
0000
0000
0000
1000
0000
0100
0010
,
0001
0000
0010
0100
1100
0000
0010
0100
,
0100
0010
0001
0010
0110
0000
0001
1000
,
0010
0000
0000
1000
0010
0000
0100
0000
0110
0000
0000
0000
0001
0000
0010
0000
,
0010
0000
0001
0000
0010
0000
0000
0000
0110
0000
0000
0000
0010
0000
0001
0010
,
1000
0000
0010
0100
1001
0000
0010
0001
,
1000
0000
0100
0000
0010
0000
0100
0000
1001
0000
0000
0000
1000
0010
0001
0000
;

//---------------dance-single - ----------------
#NOTES:
     dance-single:
     :
     Medium:
     6:
     0.404,0.404,0.178,0.078,0.000:
0000
0000
0000
0000
,
0000
0000
0000
0000
,
1000
1001
0001
1001
,
0010
0110
0100
0110
,
0010
0001
0100
1000
,
0010
0000
0010
0000
0100
0010
0110
0000
,
1000
0000
0100
0000
0010
0000
0001
0010
,
0100
0000
0010
0100
1000
0000
0010
0000
,
0100
0000
0001
0000
0010
0000
1000
0010
,
0000
0100
0000
0010
0000
0100
0110
0000
,
0010
0000
0001
0000
1000
0000
0010
0100
,
0010
0000
0001
1000
0001
0000
0010
0000
,
0100
0000
0010
0000
1000
0000
0100
0010
,
0000
0100
0000
0010
0000
1000
0010
0000
,
0010
0100
0010
0000
0001
0000
0010
0100
,
1000
0000
0100
1000
0000
0100
0010
0000
,
0100
0010
0100
0000
0010
0001
0001
0000
,
0010
0000
0100
0010
0000
0010
0100
0100
,
1000
0100
0010
0001
,
0010
0000
0100
0010
0001
0000
1000
0000
,
0010
0000
0100
0010
0100
0000
0001
0010
,
1000
0000
0010
0000
0100
0010
0100
0000
,
1000
2000
3100
0200
,
0310
0000
0001
0010
0100
0000
0110
0000
,
0001
0002
0013
0020
,
0130
0000
0010
0000
1000
0001
0100
0010
,
0100
0110
0010
0110
,
0001
0000
0010
0100
1000
0000
0010
0000
,
0100
0000
0010
0000
1000
0100
0001
0010
,
0000
0110
0100
0100
,
0010
1000
0001
0100
0000
0010
1000
0001
,
0010
0010
0100
0100
,
0001
0010
0100
1000
0000
1000
0100
0010
,
0001
0000
0100
0010
0100
0000
0010
0000
,
1000
0100
0001
0100
0000
0001
0010
1000
,
0010
0100
0010
0010
,
0100
0010
0100
0000
0001
0000
1000
0020
,
0030
0002
0003
0200
0300
0010
1000
0010
,
0200
0000
0310
0000
0100
0100
0010
0010
,
0001
0000
0010
0000
0100
0010
1000
0000
,
0100
0000
0010
0000
0100
0100
1000
1000
,
0100
0000
0010
0001
0100
0000
0200
0000
,
0310
0000
1000
0000
0010
0100
0010
0001
,
0010
0000
0100
0000
0010
0100
0010
0000
,
1000
0000
0010
0000
0100
0001
0100
0000
,
0011
1100
0110
1001
,
0010
0100
0010
1000
,
0100
0000
0001
0000
0100
0000
0010
0001
,
0010
0100
0010
0010
,
0100
0000
1000
0000
0010
0000
0100
1000
,
0100
0010
0100
0010
,
0001
1000
0001
1000
0000
0010
0100
0000
,
0010
0000
0100
0010
0100
0000
0001
0010
,
0100
0000
0010
0200
0000
0300
0010
0100
,
0020
0000
0000
0000
0000
0030
0110
0000
,
1000
0100
0010
0001
0010
0100
1000
0000
,
0010
0100
0010
0000
0001
0010
0100
0000
,
0001
0010
0100
1000
0100
0010
0001
0000
,
0100
0010
0000
0100
0000
0010
0100
0000
,
0010
0100
0010
1000
0001
1000
0010
0000
,
0100
0010
1000
0100
0000
0010
0100
0000
,
0001
1000
0001
1000
0010
0100
0010
0000
,
1100
0110
0011
1001
,
0010
0010
0100
0100
0110
0000
0001
0010
,
0000
0010
0100
0000
1100
0000
0010
0100
,
1000
1000
0100
0100
0110
0000
0001
1000
,
0010
0100
0001
0000
1001
0000
0010
0000
,
0100
0100
0010
1000
0100
0000
0010
0100
,
0000
0100
0010
0000
1001
0000
0010
0010
,
0100
0001
1000
0010
0100
0000
0010
1000
,
0100
0010
0100
0000
1001
0000
1000
0010
;

//---------------dance-single - ----------------
#NOTES:
     dance-single:
     :
     Easy:
     4:
     0.317,0.379,0.199,0.157,0.000: // measure 1
0000
0000
0000
0000
,  // measure 2
0000
0000
0000
0000
,  // measure 3
1000
0110
0001
0110
,  // measure 4
1000
1001
0001
1001
,  // measure 5
0100
0010
0100
0010
,  // measure 6
2000
3000
0010
0110
,  // measure 7
0010
0001
1000
0010
,  // measure 8
0100
0001
0200
0300
,  // measure 9
0010
1000
0100
1000
,  // measure 10
0010
0100
0001
0001
,  // measure 11
1000
0100
0010
1000
,  // measure 12
0100
0001
0200
0300
,  // measure 13
0010
0100
0010
0001
,  // measure 14
1000
1000
0010
0100
,  // measure 15
0001
0020
0030
0100
,  // measure 16
0010
0010
0100
0010
,  // measure 17
1000
0200
0300
0001
,  // measure 18
0010
0010
0110
0010
,  // measure 19
1000
0100
0001
0100
,  // measure 20
1000
0010
0100
0100
,  // measure 21
0010
1000
0100
0001
,  // measure 22
0020
0030
0100
0110
,  // measure 23
0001
0010
0100
1000
,  // measure 24
0010
0010
0210
0000
,  // measure 25
1300
0100
0010
0001
,  // measure 26
0100
0010
1000
1000
,  // measure 27
0100
0110
0010
0110
,  // measure 28
0010
1000
0002
0003
,  // measure 29
0100
0010
1000
0100
,  // measure 30
0001
0010
0100
0100
,  // measure 31
1001
0010
0100
0010
,  // measure 32
0002
0003
0100
0010
,  // measure 33
1000
0100
0010
0010
,  // measure 34
0100
1000
0010
0100
,  // measure 35
1001
0010
0100
0010
,  // measure 36
2000
3000
0100
0010
,  // measure 37
0100
0001
1000
1000
,  // measure 38
0001
0010
0100
0010
,  // measure 39
0220
0330
1000
0100
,  // measure 40
0010
0010
0100
0001
,  // measure 41
0220
0330
0010
1000
,  // measure 42
0010
0100
0001
0001
,  // measure 43
0100
0100
1000
0010
,  // measure 44
0100
0100
0010
0001
,  // measure 45
2002
3003
0010
0100
,  // measure 46
0110
0110
0110
1001
,  // measure 47
0100
0010
1000
0001
,  // measure 48
0100
0100
0001
0001
,  // measure 49
0010
1000
0200
0310
,  // measure 50
0100
0100
0010
0010
,  // measure 51
0001
1000
0001
1000
,  // measure 52
0010
0100
0010
0100
,  // measure 53
1000
0001
0100
0010
,  // measure 54
0002
0000
0023
0230
,  // measure 55
2300
0000
0000
0000
0000
3000
0110
0000
,  // measure 56
1001
0010
0100
0010
,  // measure 57
0001
0100
0010
1000
,  // measure 58
1001
0010
0100
1000
,  // measure 59
0100
0010
0100
0001
,  // measure 60
0010
0010
0100
0100
,  // measure 61
1000
0010
0100
0100
,  // measure 62
0001
0001
1000
1000
,  // measure 63
0110
0110
0110
1001
,  // measure 64
0100
0010
0100
0010
,  // measure 65
0001
0001
0010
0200
,  // measure 66
0310
1000
0100
0100
,  // measure 67
0010
1000
0100
0001
,  // measure 68
0100
0010
0001
0001
,  // measure 69
0010
1000
0100
0010
,  // measure 70
1000
1000
0110
0010
,  // measure 71
0100
0000
0010
0000
1001
0000
0100
0010
;
