#TITLE:Black Swan;
#SUBTITLE:;
#ARTIST:RAINBOW;
#TITLETRANSLIT:;
#SUBTITLETRANSLIT:;
#ARTISTTRANSLIT:;
#CREDIT:;
#BANNER:Black Swan banner.png;
#BACKGROUND:Black Swan bg.png;
#LYRICSPATH:;
#CDTITLE:;
#MUSIC:Black Swan.mp3;
#OFFSET:-4.520;
#SAMPLESTART:39.480;
#SAMPLELENGTH:15.000;
#SELECTABLE:YES;
#BPMS:0.000=120.000;
#STOPS:64.000=0.260
,64.500=0.260
,65.000=0.260
,65.500=0.260
,66.000=0.460
;
#BGCHANGES:;

//---------------dance-single - ----------------
#NOTES:
     dance-single:
     :
     Hard:
     7:
     0.468,0.412,0.234,0.165,0.096:
1001
0000
0100
0010
0000
0010
0100
0001
,
0010
0000
1000
0010
0000
0010
0100
0001
,
0100
0000
0010
1000
0000
1000
0010
0100
,
0001
0000
1000
0010
0000
0001
0100
0010
,
0001
0000
0100
0010
0100
0000
1000
0000
,
0011
0110
1100
0100
,
1001
0000
0010
0100
1000
0000
0100
0000
,
1100
0110
0011
1001
,
0110
0000
0001
1000
0000
1000
0010
0100
,
0001
0000
0010
0100
0000
0001
0010
0100
,
1000
0100
0010
0001
0000
0010
0100
1000
,
0010
0000
0100
0001
0000
0001
0100
0010
,
1000
0000
0010
1000
0010
0000
0100
0000
,
0002
0003
0020
0030
0200
0300
2000
3000
,
0010
0100
0001
0100
0010
0000
0100
0000
,
2000
3000
0200
0300
0020
0030
0002
0003
,
1000
0001
0100
0010
1001
0000
0010
0100
,
0001
0000
1000
0000
1001
0000
0010
0100
0010
0000
0001
0000
1000
0000
0000
0010
,
0000
0000
1000
0000
0010
0000
0100
0001
0100
0000
0010
0000
0001
0000
0100
0000
,
0010
0000
1000
0000
0101
0000
0010
1000
0010
0000
0100
0000
0010
0000
0000
1000
,
0000
0000
0010
0000
0001
0000
0100
0010
0100
0000
0010
0000
1000
0000
0001
0000
,
1000
0010
0100
0000
0001
0000
0010
1000
,
0100
2000
3000
0020
0030
0200
0300
0001
,
0001
0000
1001
0000
0010
0000
0100
0010
,
0001
0020
0000
0130
0000
0001
0100
0010
,
1000
0000
0010
0000
1001
0000
0001
1000
0001
0000
0100
0000
1000
0000
0000
0001
,
0000
0000
1000
0000
0010
0000
0100
0001
0100
0000
0010
0000
1000
0000
0100
0000
,
1000
0000
0010
0000
0110
0000
0001
1000
0001
0000
0100
0000
0001
0000
0000
0010
,
0000
0000
0001
0000
0100
0000
0010
1000
0010
0000
0001
0000
0100
0000
0010
0000
,
1000
0010
0100
0000
0001
0000
0100
0010
,
1000
0000
0010
0000
0000
0000
0100
0000
0000
0000
0001
0000
0000
0000
1000
0010
,
1000
0000
0100
0000
0010
0000
0001
1000
,
0010
0000
0100
0000
0000
0000
0001
0000
1000
0000
0001
0000
0100
0000
0000
0100
,
0000
0010
1001
0000
0000
0000
0000
0000
;

//---------------dance-single - ----------------
#NOTES:
     dance-single:
     :
     Medium:
     4:
     0.316,0.343,0.138,0.000,0.000:
1000
0000
0000
0010
0000
0000
0000
0000
,
0100
0000
0000
0001
0000
0000
0010
0000
,
0100
0000
0000
0010
0000
0000
0000
0000
,
0100
0000
0000
1000
0000
0000
0100
0010
,
0100
0010
0001
0010
,
0100
0010
0100
0100
,
0010
1000
0100
1000
,
0010
0100
0001
0001
,
1001
0000
0010
0100
0000
0000
0100
0010
,
0100
0000
0010
0001
0000
0000
0010
0000
,
0001
0010
0100
1000
0000
0000
0100
0000
,
0110
0000
1000
0100
0000
0100
0010
0100
,
0010
0001
0010
0110
,
0010
1000
0100
0010
,
0100
0010
0100
0101
,
0010
1000
0100
1000
,
0100
0100
0100
0100
0110
0000
1000
0001
,
1000
0000
0110
0000
0001
0010
0100
0000
,
0010
0100
1000
0000
0010
0000
0100
0000
,
0010
0000
1000
0000
0100
0010
0001
0000
,
0100
0010
0001
0000
0010
0000
0100
0000
,
0001
0010
0001
0000
0010
0000
0100
0000
,
0010
1000
0000
0100
0000
0010
0000
0001
,
0010
0000
0010
0000
0110
0000
1000
0001
,
1000
0001
0000
0010
0000
0100
0010
0000
,
0100
0000
0110
0000
1000
0001
1000
0000
,
0010
0100
0010
0000
0001
0000
0010
0000
,
0100
0000
1000
0000
0100
0010
0100
0000
,
0001
0010
0001
0000
0100
0000
0010
0000
,
1000
0100
0010
0000
0100
0000
0010
0100
,
0010
0100
0000
0001
0000
1000
0000
0001
,
0100
0010
1000
0010
,
0100
0110
0010
0001
,
1000
1001
0000
0000
;

//---------------dance-single - ----------------
#NOTES:
     dance-single:
     :
     Easy:
     2:
     0.238,0.229,0.083,0.000,0.000: // measure 1
0001
0000
0010
0000
,  // measure 2
0100
0000
1000
0000
,  // measure 3
0010
0000
0100
0000
,  // measure 4
0001
0000
1000
0000
,  // measure 5
0010
0010
0100
0100
,  // measure 6
0010
0000
0001
0000
,  // measure 7
0010
0010
0100
0100
,  // measure 8
1000
0000
0100
0000
,  // measure 9
0010
0110
0000
0010
,  // measure 10
0100
0010
0001
0010
,  // measure 11
1000
1000
0000
0110
,  // measure 12
1000
0100
0001
0100
,  // measure 13
0100
0010
1000
0100
,  // measure 14
0001
0100
1000
1000
,  // measure 15
0010
0100
0001
0010
,  // measure 16
1000
0010
0100
0001
,  // measure 17
0000
0000
0000
0100
,  // measure 18
0100
0110
0001
0010
,  // measure 19
0100
0010
1000
0100
,  // measure 20
0001
0100
1000
0100
,  // measure 21
0010
0100
0100
0010
,  // measure 22
0010
0100
0001
0010
,  // measure 23
0001
0010
0010
0100
,  // measure 24
0100
1000
0100
0010
,  // measure 25
1000
0100
0000
0010
,  // measure 26
0100
0110
0001
0010
,  // measure 27
0001
0010
0100
0010
,  // measure 28
0100
1001
1000
0100
,  // measure 29
0010
0100
0010
0001
,  // measure 30
0001
0010
0010
0100
,  // measure 31
0100
0001
0010
0100
,  // measure 32
1000
0010
0010
0100
,  // measure 33
0100
0010
0000
1000
,  // measure 34
0001
1001
0000
0000
;
