#TITLE:Beep!;
#SUBTITLE:;
#ARTIST:The Pussycat Dolls;
#TITLETRANSLIT:;
#SUBTITLETRANSLIT:;
#ARTISTTRANSLIT:;
#CREDIT:;
#BANNER:Beep banner.png;
#BACKGROUND:Beep bg.png;
#LYRICSPATH:;
#CDTITLE:;
#MUSIC:Beep!.mp3;
#OFFSET:-4.780;
#SAMPLESTART:13.860;
#SAMPLELENGTH:15.000;
#SELECTABLE:YES;
#BPMS:0.000=103.640;
#STOPS:;
#BGCHANGES:;

//---------------dance-single - ----------------
#NOTES:
     dance-single:
     :
     Hard:
     7:
     0.454,0.410,0.204,0.234,0.025:
1001
0010
0001
0010
0100
0000
0010
0010
,
0110
0001
0010
1000
0100
0000
0010
0000
,
0100
1000
1000
0100
0010
0100
0010
0001
,
0000
0001
0010
0100
1000
0000
1001
0000
,
0010
0100
0010
0001
0010
0100
0020
0000
,
1030
1000
0100
0100
0010
0100
0001
0010
,
0100
0010
1000
0100
0001
0100
2000
0000
,
3100
0010
0010
0100
0010
1000
0000
1000
,
0100
0100
0020
0130
0001
0010
0200
0010
,
0310
0001
0010
0100
0010
0100
1000
0100
,
0010
1000
0100
0001
0100
1000
0020
0000
,
0130
0000
0001
0000
1000
0010
0000
0000
0100
0000
0010
1000
0000
0000
0000
0000
,
0210
0000
0000
0300
0021
0000
0000
0030
,
1100
0110
0011
1001
,
0010
0010
0100
0001
0010
0000
0010
0100
,
1000
0100
0010
0100
0010
0000
0100
0010
,
1000
1000
0100
0001
0100
0000
0010
0100
,
0010
0001
0020
0000
0130
1000
0200
0000
,
0310
0010
0100
0001
0010
0000
0100
0010
,
1000
0001
0010
0001
0100
0000
0100
0010
,
0110
0100
1000
0100
0010
0000
0100
0010
,
1000
0100
2000
0000
3100
0010
0002
0000
,
0013
0100
0010
0010
0001
0000
0010
0100
,
0010
0100
0001
0010
1000
0000
1000
0100
,
0010
0100
0010
0001
0010
0100
0010
0010
,
0100
0010
0100
1000
0020
0000
0130
0010
,
0001
0010
0011
0000
0010
0100
0110
0100
,
1000
0100
0020
0000
0130
0001
0020
0000
,
0130
1000
1100
0000
0100
0010
0110
0001
,
0010
0100
0020
0000
0130
0001
0200
0000
,
0310
1000
1000
0100
0001
0100
0020
0130
,
0001
0010
1000
0100
0010
0100
0010
0010
,
0001
0010
0010
0100
1000
0100
0020
1030
,
0100
1000
0100
0001
0100
1000
0000
0010
,
0100
0100
0020
0031
0010
0100
0020
0130
,
1000
0001
0010
0001
0100
1000
0200
1300
,
0010
0100
1000
0001
0010
0100
2000
3000
,
0100
0000
0010
0000
0100
0010
0000
0000
1000
0001
1000
0001
0000
0000
0000
0000
,
0110
0000
1001
0000
,
1100
0011
0110
1001
,
0020
0030
0000
0000
;

//---------------dance-single - ----------------
#NOTES:
     dance-single:
     :
     Challenge:
     9:
     0.556,0.574,0.387,0.020,0.377:
1100
0010
0001
0010
0100
0010
0001
0001
,
0000
0001
0010
0100
0010
1000
0010
0000
,
0100
1000
0010
0001
0010
0100
1000
1000
,
0000
0000
0100
0000
0010
0000
0100
0000
0001
0000
1000
0000
0001
0000
0000
0100
,
0010
0100
0010
0001
0010
0000
0010
0100
1000
0100
0010
0100
0010
0000
0100
0001
,
0100
0000
0010
0000
1010
0000
0100
0010
1000
0100
0010
0001
0010
0000
0100
0010
,
0001
0000
0010
0000
0110
0000
0100
1000
0100
0010
0001
0010
0100
0000
0010
0001
,
0010
0000
0100
0000
1100
0000
0010
0100
0010
0001
0010
1000
0000
0000
0000
0000
,
1000
0100
0010
0001
0010
0000
0110
0000
0010
1000
0001
0100
0010
0000
0100
0000
,
0010
0001
0010
0100
1000
0000
0100
1000
0010
0100
0010
0001
0010
0000
0100
0000
,
0010
0001
0010
1000
0100
0000
1000
0100
0010
0100
0010
0001
0010
0000
0000
0000
,
0100
0000
0010
0000
1000
0001
0000
0000
0010
0100
0010
0100
0000
0000
0000
0000
,
0011
0000
0110
0000
,
1100
0110
0011
1001
,
0010
0100
0010
1000
0100
0000
0110
0110
,
0010
0001
0010
0100
0010
0000
1100
1100
,
0010
0100
0010
0001
1000
0000
0010
0100
,
0001
0000
0010
0000
0100
0000
0000
0001
0010
0000
0100
0000
0010
0000
0000
0000
,
0100
0010
1000
0100
0001
0000
0001
0010
,
0100
0010
1000
0001
0100
0000
1001
1001
,
0010
0001
0010
0100
1000
0000
0100
0010
,
1000
0000
0100
0000
0001
0000
0000
0001
1000
0000
0100
0000
0010
0000
0000
0000
,
0010
0000
0100
0000
0001
1000
0001
0000
0010
0000
0000
0000
0100
0000
1000
0000
,
1000
0100
0010
0001
0010
0000
0100
0010
,
0010
0100
0010
1000
0001
0010
0001
0100
,
0110
0000
0010
0000
1000
0000
0100
0000
0001
0010
0001
0000
0010
0000
0100
0000
,
1000
0100
0110
0000
0001
0010
0110
0100
,
0010
1000
1001
0000
0010
0100
0110
0000
,
0001
0010
1100
0000
1000
0100
0011
0010
,
0100
0000
0001
0000
1001
0000
0000
0000
0100
0000
1000
0000
1001
0000
0000
0010
,
0100
1000
0100
0001
0100
0000
0010
0100
0010
0001
0010
1000
0100
0000
0100
0010
,
0100
0000
0100
0000
1001
0000
0010
0100
1000
0100
0010
0001
0010
0000
0100
0010
,
0001
0000
0010
0000
1100
0000
0010
0100
1000
0001
0010
0100
0010
0000
1000
0001
,
1000
0000
0100
0000
0011
0000
0010
0100
0010
1000
0100
0001
0010
0000
0000
0000
,
0100
0010
0100
0001
1000
0000
0010
0000
0100
0010
0001
1000
0010
0000
0110
0000
,
0100
1000
0100
0001
0010
0000
0100
0010
0001
0010
0100
1000
0100
0000
0010
0000
,
0100
1000
0100
0001
0100
0000
0010
0100
0010
0001
1000
0001
0010
0000
0000
0000
,
0110
0000
0100
0000
0001
1000
0000
0000
0010
0100
0010
0100
0000
0000
0000
0000
,
1100
0000
0110
0000
,
0011
0110
1100
1001
,
0220
0330
0000
0000
;

//---------------dance-single - ----------------
#NOTES:
     dance-single:
     :
     Medium:
     5:
     0.335,0.287,0.122,0.081,0.000:
1000
0010
0100
0010
0001
0000
0001
0000
,
0010
0100
0010
1000
0100
0000
0010
0000
,
0100
1000
0010
0100
0001
0000
0010
0000
,
0100
0010
0001
0010
0100
0000
0010
0000
,
0100
0100
0010
0000
0100
0000
0002
0000
,
0013
0000
0100
0000
0010
0010
1000
0000
,
0100
0000
0010
0000
1000
1000
0200
0000
,
0310
0000
1000
0000
0001
1000
0000
0000
,
1000
0100
0010
0000
0001
0010
0200
0000
,
0310
0000
0001
0000
0010
0010
0001
0000
,
0100
0100
0010
0000
1000
1000
0020
0000
,
0030
0100
0001
0000
0010
0100
0000
0000
,
0110
0000
1001
0000
,
0110
0011
1100
1001
,
0010
0000
0100
0010
0001
0000
0010
0000
,
0100
0000
0010
0100
1000
0000
0100
0000
,
0010
0000
1000
0001
1000
0000
0010
0000
,
1000
1000
1000
0000
0100
0100
0100
0000
,
0010
0000
0100
0010
0001
0000
0010
0100
,
0010
0000
0100
0100
0010
0000
1000
0100
,
0001
0000
0001
0100
1000
0000
0010
0000
,
0001
0001
0001
0000
0010
0010
0010
0000
,
0100
0010
0100
0010
0100
0000
0010
0000
,
1000
0001
1000
0001
1000
0000
0001
0000
,
0010
0100
1000
0010
,
1000
0100
0010
0001
0010
0000
0100
0000
,
0010
0010
0100
0000
0001
0001
0010
0000
,
0100
0010
0100
0000
1000
0001
1000
0000
,
0100
0100
1000
0000
0010
0010
0100
0000
,
0010
1000
0010
0000
0100
0001
0100
0000
,
0010
0000
0100
0000
0010
1000
0002
0000
,
0013
0000
0100
0000
0010
1000
0010
0000
,
0100
0100
0001
0000
0001
0001
0010
0000
,
0010
0000
0100
0000
0010
1000
0100
0000
,
0010
1000
0001
0000
0001
1000
0020
0000
,
0031
0000
0100
0000
0010
1000
0010
0000
,
1000
1000
0100
0000
0001
0001
0020
0000
,
0030
0100
0010
0000
0010
0100
0000
0010
,
0110
0000
0110
0000
,
1001
0110
0011
1100
,
0020
0030
0000
0000
;

//---------------dance-single - ----------------
#NOTES:
     dance-single:
     :
     Easy:
     4:
     0.259,0.266,0.163,0.102,0.000: // measure 1
1000
0100
0010
0010
,  // measure 2
0001
0010
0100
0100
,  // measure 3
0010
0001
1000
1000
,  // measure 4
0100
0010
0001
0001
,  // measure 5
0010
0100
0010
0002
,  // measure 6
0013
0100
0010
0010
,  // measure 7
0100
1000
0010
0200
,  // measure 8
1300
0100
0010
0000
,  // measure 9
0010
0100
0010
0002
,  // measure 10
0013
0001
0010
0100
,  // measure 11
0100
1000
0001
0020
,  // measure 12
0030
1000
1000
0000
,  // measure 13
1001
0000
1001
0000
,  // measure 14
0110
0110
0110
1001
,  // measure 15
0010
0100
0010
0001
,  // measure 16
0010
0010
0100
0000
,  // measure 17
0010
1000
0100
0010
,  // measure 18
0001
0001
0001
0000
1000
1000
1000
0000
,  // measure 19
0010
0100
0010
0001
,  // measure 20
0010
1000
0100
0000
,  // measure 21
0100
1000
0100
0010
,  // measure 22
0100
0100
0100
0000
0010
0010
0010
0000
,  // measure 23
0100
0010
1001
0000
,  // measure 24
0010
0001
0110
0000
,  // measure 25
0100
1000
0010
0100
,  // measure 26
0010
0010
0001
0010
,  // measure 27
0100
0100
0010
0010
,  // measure 28
1000
0100
0001
0010
,  // measure 29
0100
0100
0010
0010
,  // measure 30
0100
0010
0001
1000
,  // measure 31
0110
0010
0100
0020
,  // measure 32
0130
0001
0010
1000
,  // measure 33
0010
0001
0100
2000
,  // measure 34
3100
0010
0100
0010
,  // measure 35
1001
0200
0310
0020
,  // measure 36
0130
0010
0001
0010
,  // measure 37
1000
0100
0010
0002
,  // measure 38
0003
0010
0010
0000
,  // measure 39
1001
0000
1001
0000
,  // measure 40
0110
0110
0110
0001
,  // measure 41
2001
3000
0000
0000
;
