#TITLE:Bad Girl;
#SUBTITLE:;
#ARTIST:woo!ah!;
#TITLETRANSLIT:;
#SUBTITLETRANSLIT:;
#ARTISTTRANSLIT:;
#CREDIT:;
#BANNER:Bad Girl banner.png;
#BACKGROUND:Bad Girl bg.png;
#LYRICSPATH:;
#CDTITLE:;
#MUSIC:Bad Girl.mp3;
#OFFSET:-9.760;
#SAMPLESTART:47.220;
#SAMPLELENGTH:15.000;
#SELECTABLE:YES;
#BPMS:0.000=125.000;
#STOPS:;
#BGCHANGES:;

//---------------dance-single - ----------------
#NOTES:
     dance-single:
     :
     Hard:
     7:
     0.484,0.471,0.236,0.095,0.150:
1001
0000
0000
0000
0010
0000
0100
0000
0001
0000
0000
0010
0000
0000
0100
0000
,
0000
0000
0010
0000
1000
0000
0100
0000
0001
0000
0000
0000
0010
1000
0020
0000
,
0000
0000
0000
0000
0130
0000
0100
0000
0001
0000
0000
0010
0000
0000
1000
0000
,
0010
0100
0001
1000
0010
0000
0110
0000
,
1000
0100
0010
0100
,
0001
0000
0010
0000
0100
0010
0010
0000
,
0110
0000
0001
0010
0100
0010
1000
0100
,
1000
0010
0100
0002
0000
0000
0013
0000
,
0110
0011
0110
1100
,
0110
0000
1100
0000
0110
0010
0001
0000
,
0010
0000
0100
1000
0010
0100
0010
0001
,
0010
0100
0010
1000
0000
1000
0110
0000
,
1000
1000
0100
0010
0100
0010
0001
0010
,
0100
0010
0001
0010
0000
0010
0100
0010
,
0110
0001
0010
0100
,
0010
0010
0000
0000
1000
1000
0001
0001
,
0010
0001
0100
0010
1000
0100
0010
0100
,
0100
0010
1000
0010
0000
0100
0010
0001
,
0010
0110
0001
0010
,
0100
1000
1000
0000
0100
1000
0010
0100
,
0010
0000
1001
0000
0010
0001
0100
0020
,
0000
0130
0000
1000
1000
0100
0010
0100
,
0010
0000
0001
0010
0000
0010
0100
0000
,
0100
0010
0000
1000
0010
0100
0010
0001
,
0010
0000
0100
0000
0010
1000
0010
0002
,
0000
0013
0000
0001
0010
0100
0010
1000
,
0010
0000
0010
0100
0000
0100
0010
0000
,
1000
0100
0100
0010
0001
0000
1001
0000
,
0020
0000
0130
0000
0002
0000
1003
0100
,
0100
0010
0100
0010
0002
0000
0000
0000
,
0103
0110
1000
1001
,
0100
0100
0010
0010
0110
0000
1001
0000
,
2000
0000
3100
0000
0020
0000
0031
0100
,
0100
0010
1000
0010
0002
0000
0000
0000
,
0013
0100
0000
0000
0010
0001
0000
0000
0010
1000
0000
0000
1100
0000
0000
0000
,
1000
0100
0000
0000
0100
0010
0000
0000
0010
0001
0000
0000
0110
0000
0000
0000
,
1000
0000
0100
0010
0100
0000
0001
0000
0010
0000
0100
1000
0000
1000
0100
0000
,
0010
0000
0100
0001
0100
0000
0010
0000
1000
0000
0000
0100
0000
0000
1001
0000
,
0010
0000
0100
0010
0100
0000
0010
0000
0001
0000
0010
0100
0000
0100
0010
0000
,
0001
0010
0000
0000
0010
0100
0000
0000
0100
1000
0000
0000
1001
0000
0000
0000
,
1000
0000
0100
1000
0100
0000
0010
0000
0100
0000
0001
0010
0001
0000
0010
0000
,
0100
0000
0010
0100
0010
0000
0100
0000
0001
1000
0000
0000
1001
0000
0000
0000
,
1000
0000
0100
0010
0100
0000
0001
0000
1000
0000
0001
0010
0001
0000
0010
0000
,
0100
0001
1001
0000
0010
0100
0001
0010
,
0110
0010
1001
0010
0100
0010
1000
0100
,
0001
0100
0010
0001
0100
0010
0010
0100
,
0001
0010
0001
0010
0000
0010
0100
0000
,
0100
1000
0000
0100
1000
0010
0100
0001
,
0010
0000
0100
0000
0001
0010
0100
0010
,
0001
0100
0020
0000
0031
0010
0010
0100
,
0010
0000
1000
0100
0000
0100
1000
0000
,
0010
0010
0100
0100
0001
0000
1001
0000
,
0001
0010
0000
0000
0100
0010
0000
0000
1000
0100
0000
0000
0010
0100
0000
0000
,
0020
0000
0130
0001
1000
0010
1001
0000
,
1000
0100
0000
0000
0010
0100
0000
0000
1000
0100
0000
0000
0010
0100
0000
0000
,
0001
0010
0001
0010
0100
0010
0010
0000
,
0001
0010
0000
0000
0100
0010
0000
0000
1000
0001
0000
0000
0010
0100
0000
0000
,
0010
0100
0001
1000
0010
0100
0100
0100
,
0010
0000
1000
0010
0000
0100
0010
0000
,
0001
0010
0100
1000
0100
0000
1001
0000
;

//---------------dance-single - ----------------
#NOTES:
     dance-single:
     :
     Medium:
     6:
     0.355,0.353,0.189,0.016,0.000:
1000
1100
0010
0011
,
0010
0000
0100
0001
0100
0000
0020
0000
,
0000
0030
0100
0110
,
0010
0010
0010
0011
,
0010
0100
1000
0010
,
0100
0000
0010
0000
1000
1000
0100
0000
,
0010
0000
0000
0100
0001
0000
0010
0000
,
0001
0010
0100
1000
0000
0000
1001
0000
,
0100
0010
1000
0100
,
0010
0000
0010
0000
0001
0001
0010
0000
,
0010
0000
0000
0100
0001
0000
0010
0000
,
1000
0100
0010
0001
0000
0000
1001
0000
,
0010
0010
0000
0100
0100
0000
1000
0000
,
0100
0100
0000
0001
0001
0000
0010
0000
,
0001
0001
0000
1000
1000
0000
0010
0000
,
0100
0010
0000
0000
0010
0100
0010
0100
,
0001
0010
0100
0010
,
1000
0100
0010
0100
0000
0010
0100
0000
,
0110
0110
0010
0100
,
0001
1000
0001
0000
0010
0000
0100
0000
,
1100
0000
0010
0000
0100
0000
0001
1000
,
0000
0010
0000
0100
0000
0001
0010
0000
,
0100
0000
0010
1000
0000
1000
0010
0000
,
0100
0010
0000
0000
0100
0010
0100
0000
,
0011
0000
0010
0000
0100
0000
0010
1000
,
0000
0010
0000
0100
0000
0001
1000
0000
,
0100
0000
1000
0010
0000
0010
0100
0000
,
0100
0010
0000
0000
0110
0000
1001
0000
,
0001
0000
0010
0000
0100
0000
1000
0010
,
0100
0010
0001
0010
0100
0000
0000
0000
,
1000
0100
0010
0001
,
0010
0100
0010
1000
0001
0000
0010
0000
,
0001
0000
0010
0000
0100
0000
1000
0100
,
0010
0100
0010
1000
0001
0000
0000
0000
,
0010
0100
1000
1100
,
0100
0010
0001
0011
,
0010
0000
0100
0000
0001
1000
0010
0000
,
0010
0000
0100
0000
0010
0000
0010
0010
,
0100
0000
0010
0000
1000
0000
0001
0100
,
0010
1000
0001
0110
,
1000
0000
0100
0010
0100
0000
0010
0001
,
0010
0000
0010
1000
0010
0000
0110
0000
,
0010
0001
0010
0000
0100
1000
0100
0000
,
0001
0010
0100
0000
0010
0010
0100
0100
,
0110
0000
0010
0000
1000
0000
0001
0100
,
0000
0010
0000
1000
0000
0010
0100
0000
,
0010
0000
1000
0001
0000
0001
0010
0000
,
0100
0010
0000
0010
0100
0010
1000
0000
,
0100
0000
0110
0000
0001
0000
0010
0100
,
0000
0010
0000
1000
0000
0010
0001
0000
,
0011
0000
0010
0100
0000
0100
0010
0000
,
1000
0010
0100
0010
0001
0000
0010
0000
,
0100
0010
0110
1001
,
0010
0000
0100
1000
0100
0010
0200
0000
,
0310
1000
0001
0010
,
1000
1000
0100
0100
0010
0010
0001
0000
,
0010
0100
0001
0011
,
0100
0010
0100
1000
0001
0000
0010
0000
,
0110
0000
0100
0010
0000
0010
0100
0000
,
0010
0001
1000
1001
;

//---------------dance-single - ----------------
#NOTES:
     dance-single:
     :
     Easy:
     3:
     0.286,0.259,0.205,0.016,0.000: // measure 1
0010
0010
0010
0010
,  // measure 2
0100
0100
0100
0100
,  // measure 3
0001
0001
0001
0001
,  // measure 4
1000
1000
1000
1001
,  // measure 5
0010
0100
0010
0001
,  // measure 6
0010
0100
0010
1000
,  // measure 7
0010
0000
0100
0010
,  // measure 8
0100
0100
0010
1001
,  // measure 9
0010
1000
0100
1000
,  // measure 10
0010
0100
0010
0001
,  // measure 11
0010
0000
0001
0010
,  // measure 12
0100
0100
0010
0001
,  // measure 13
0010
0100
1000
0100
,  // measure 14
0010
0100
0100
0010
,  // measure 15
0100
0010
1000
0001
,  // measure 16
1001
0000
0010
0010
,  // measure 17
0100
0100
0001
0001
,  // measure 18
1000
0010
0100
0010
,  // measure 19
0001
0001
0010
0010
,  // measure 20
0100
0000
0110
0110
,  // measure 21
1001
0010
0001
0010
,  // measure 22
0100
0020
0030
1000
,  // measure 23
0100
0100
0010
0010
,  // measure 24
0001
0010
0100
1000
,  // measure 25
0110
1000
0100
0001
,  // measure 26
0100
0200
0300
0010
,  // measure 27
0110
0000
1001
0000
,  // measure 28
0010
0010
0010
0100
,  // measure 29
0010
0110
0010
0110
,  // measure 30
0010
0110
0010
0000
,  // measure 31
0100
0100
0100
0100
,  // measure 32
0001
1000
0001
0000
,  // measure 33
1000
1001
1000
1001
,  // measure 34
1000
1001
1000
0000
,  // measure 35
0100
0100
0010
0010
,  // measure 36
0001
1000
0001
0010
,  // measure 37
0100
0100
0010
1000
,  // measure 38
0100
0001
0100
0110
,  // measure 39
0010
0001
0010
0100
,  // measure 40
1000
1000
1000
1000
,  // measure 41
0010
0100
0010
1000
,  // measure 42
0100
0001
0100
1001
,  // measure 43
0010
0001
0100
0010
,  // measure 44
0100
0110
0000
1000
,  // measure 45
1001
0010
0001
0010
,  // measure 46
0100
0100
0010
0010
,  // measure 47
1000
0001
0100
0010
,  // measure 48
0001
0001
0010
0010
,  // measure 49
0100
1000
0100
0010
,  // measure 50
0100
0100
0010
0010
,  // measure 51
0100
0000
0001
0010
,  // measure 52
1000
0010
0001
0010
,  // measure 53
0100
0110
0010
0110
,  // measure 54
0001
1000
0010
0010
,  // measure 55
0100
0110
0010
0110
,  // measure 56
0001
1000
0010
0100
,  // measure 57
0001
1001
1000
1001
,  // measure 58
0010
0010
0010
0000
,  // measure 59
0100
0010
0001
0010
,  // measure 60
0100
0001
1000
1001
;
