#TITLE:Abittipsy;
#SUBTITLE:;
#ARTIST:YOUHA;
#TITLETRANSLIT:;
#SUBTITLETRANSLIT:;
#ARTISTTRANSLIT:;
#CREDIT:;
#BANNER:Abittipsy banner.png;
#BACKGROUND:Abittipsy bg.png;
#LYRICSPATH:;
#CDTITLE:;
#MUSIC:Abittipsy.mp3;
#OFFSET:-10.760;
#SAMPLESTART:53.600;
#SAMPLELENGTH:15.000;
#SELECTABLE:YES;
#BPMS:0.000=110.000;
#STOPS:;
#BGCHANGES:;

//---------------dance-single - ----------------
#NOTES:
     dance-single:
     :
     Hard:
     9:
     0.546,0.581,0.142,0.094,0.672:
1001
0000
0000
0010
0100
0000
0010
0000
0001
0000
0000
0010
1000
0000
0100
0000
,
1000
0000
0000
0010
0100
0000
0001
0000
0010
0000
0000
0100
0010
0000
1000
0000
,
0001
0000
0000
0020
0000
0000
0000
0000
0130
0000
0100
0000
1000
0000
0100
0000
,
1000
0000
0000
0200
0000
0000
0000
0000
0310
0000
0001
0000
0001
0000
0010
0000
,
0200
0000
0000
0000
0310
0000
0000
0000
0100
0000
0001
0000
1000
0000
0010
1000
,
0010
0001
0000
0010
0000
0100
0000
1000
0000
0010
0000
0100
0000
1000
0000
0000
,
2001
0000
3100
0000
0010
0100
0010
1000
,
0001
0000
0000
0010
0000
0000
0100
0000
0010
0000
1000
0000
0100
0010
0001
0000
,
0010
0000
0000
0000
0110
0000
0000
0000
0100
0000
0000
0000
0110
0000
0001
1000
,
0010
0100
0000
0001
0000
1000
0000
0001
0000
0100
0000
0010
0000
0100
0000
0000
,
0010
0001
1000
0100
0001
1000
0010
1000
,
0100
0000
0010
0000
0001
0000
0000
0000
0010
0000
0100
0010
0100
0000
0000
0000
,
0010
1000
0100
0001
0100
0000
0100
0000
0000
0000
0010
0100
0001
0000
0000
1000
,
0100
0000
0010
0001
0010
0000
0100
0000
0010
0000
1000
0001
1000
0000
0000
0010
,
0100
0000
0010
1000
0001
0000
0100
0000
0000
0000
0100
0001
0100
0000
0010
0000
,
0010
0000
1000
0100
0010
0001
0010
0000
1000
0000
0100
0001
0010
0000
1000
0100
,
0010
0000
1000
0001
0100
0010
1000
0000
0000
0000
0100
0010
0100
0000
0010
0000
,
0001
0000
1000
0010
0100
0001
0010
0000
0000
0000
0100
1000
0100
0000
0010
0000
,
0110
0000
0001
1000
0010
0001
0100
0000
0000
0000
0010
0100
0010
1000
0001
0000
,
0010
0100
0000
0000
0010
0100
0000
0000
1000
0100
0010
0001
0010
0000
0100
0010
,
0100
0000
0001
0010
1000
0000
0010
0100
1000
0000
0100
0010
0001
0000
0000
1000
,
0010
1000
0000
0100
0000
0001
0000
0100
0000
1000
0000
0010
0000
0100
0000
0000
,
1001
0000
0000
1000
0010
0000
0100
0000
0001
0000
0100
0000
0010
0000
0000
0000
,
1001
0000
0000
0100
0000
0000
0010
0000
0100
0010
0001
1000
0010
0000
0100
0010
,
0001
0000
0010
0100
1000
0000
0010
0100
1000
0000
0100
0010
0001
0000
1000
0010
,
0100
0010
0000
1000
0000
0100
0000
0010
0000
0001
0000
0010
0000
0100
0000
0000
,
1100
0000
0000
0010
0100
0000
0001
0000
1000
0000
0010
0000
0100
0000
0000
0000
,
1000
0000
0100
0000
0100
0000
0010
0000
0001
0000
0010
0100
0010
0100
0001
1000
,
0100
0000
0000
0010
0000
0000
0002
0000
0000
0000
0010
0000
0000
0010
0000
0000
,
0103
0000
0000
0020
0000
0000
1030
0000
0000
0000
0110
0000
0000
1000
0000
0000
,
0110
0000
0000
0001
0000
0000
0110
0000
0010
0000
0001
0000
0100
0000
0010
0000
,
2000
3100
0020
0031
,
0001
0000
0000
0010
0000
0000
0100
0000
0010
0000
1000
0000
0010
0000
0100
0000
,
0001
0000
0000
1000
0000
0000
0010
0000
0100
0000
0010
0000
1000
0000
0100
0000
,
0010
0000
0001
0010
0000
0010
0100
0000
1000
0000
0100
0010
1000
0001
0100
0010
,
0100
0000
0010
1000
0001
0000
0100
0010
1000
0001
0010
0100
0001
1000
0010
0100
,
1001
0000
0010
0100
0010
0000
1000
0001
0100
0000
0001
0010
1000
0000
0010
0001
,
0100
0010
0000
1000
0000
0010
0000
0100
0000
0001
0000
1000
0000
0010
0000
0000
,
0210
0000
0000
0310
0000
0000
0001
0000
0010
0000
1000
0100
1000
0000
0010
0000
,
0120
0000
0000
0100
0030
0000
0001
0000
1000
0000
0010
1000
0001
0100
0010
0001
,
0110
0000
0010
1000
0100
0000
0001
0010
0100
0000
0010
0001
1000
0000
0010
0100
,
1000
0010
0000
0100
0000
0010
0000
0001
0000
1000
0000
0001
0000
0100
0000
0000
,
0110
0000
0000
0001
0010
0000
0100
0000
0001
0000
1000
0000
0010
0000
0100
0000
,
0100
0000
0000
0010
1000
0000
0100
0000
0001
0000
0010
0100
0010
0000
0100
0000
,
0001
0000
0010
0000
0100
1000
0000
0100
0000
1000
0100
0000
0010
0000
0001
0000
,
0010
0000
0100
0000
0010
0001
0000
0010
0000
0001
0010
0000
0100
0000
0010
0000
,
1000
0000
0100
0000
0001
1000
0000
0001
0000
1000
0001
0000
0010
0000
0100
0000
,
0010
1000
0000
0100
0000
0001
0000
0100
0000
1000
0000
0010
0000
0100
0000
0010
,
0001
0000
0010
0100
0010
1000
0000
0010
0000
0100
0001
0000
0010
0000
0100
0010
,
1000
0000
0100
0010
0001
0010
0000
0100
0000
0010
1000
0000
0100
0000
0001
0010
,
0100
0000
0010
0001
1000
0010
0000
0100
0000
0001
1000
0000
0010
0000
0110
0000
,
0010
1000
0000
0001
0000
1000
0000
0010
0000
0100
0000
0010
0000
1000
0000
0000
,
2002
0000
0000
3003
;

//---------------dance-single - ----------------
#NOTES:
     dance-single:
     :
     Medium:
     6:
     0.365,0.373,0.181,0.102,0.000:
1000
0000
1010
0000
0100
0000
0110
0001
,
0001
0000
0011
0000
0010
0000
0100
0010
,
1000
0000
0002
0000
0013
0100
0010
0000
,
1000
0000
0200
0000
0310
0001
1000
0100
,
0001
0010
0010
0100
,
0100
1000
0100
0000
0010
0001
0010
0000
,
0110
0010
0001
1000
,
0110
0000
0010
0000
0001
0100
1000
0010
,
0100
0010
0001
0010
,
0001
0010
0100
0000
0010
0100
1000
0000
,
1010
0100
0010
0001
,
1001
0000
0010
0000
0100
0010
0010
0000
,
0100
0001
1000
0010
0000
0010
0100
0000
,
0010
1000
0100
0001
0000
0001
0100
0000
,
0010
0001
1000
0100
0000
0010
0100
0000
,
0010
1000
0100
0001
0000
0001
0100
0000
,
0010
1000
0010
0100
0001
0000
0010
0000
,
0100
0010
1000
0100
0001
0000
0001
0000
,
0100
0010
1000
0001
0100
0000
1000
0000
,
0010
0000
0010
0000
0110
0100
0001
1000
,
1001
0110
1001
0010
,
0100
0100
0010
0000
1000
1000
0010
0000
,
0101
0010
0001
0100
,
0010
0000
1000
0010
0000
0010
1000
0000
,
0110
1001
0110
0001
,
0010
0010
0001
0000
0010
0010
0100
0000
,
0020
0000
1030
0000
0100
0010
0001
0000
,
2000
0000
3100
0010
0001
0000
0100
0000
,
0010
0000
1000
0001
0000
0100
0000
0010
,
0100
0000
0010
1000
0000
0100
0000
0001
,
0100
0000
0010
0001
0000
1000
0010
1000
,
0200
0310
0002
0013
,
0100
0000
0010
0100
0000
0100
0010
1000
,
0001
0000
0010
0001
0000
0001
0010
0100
,
0010
0000
0010
0100
0000
0100
0010
1000
,
0001
0010
0100
1000
0100
0010
0001
0010
,
0110
0000
1001
0000
0010
1000
1000
0000
,
0100
0010
1000
0000
0100
0001
0010
0000
,
1100
0000
0110
0000
0010
0001
0100
0000
,
0010
1000
0100
0000
0001
1000
0010
0100
,
0110
1001
0110
0010
,
0001
0100
0010
0001
1000
0100
0010
0001
,
0010
0000
0100
0000
0010
1000
0010
0000
,
0100
0010
1000
0000
0100
0000
0010
0010
,
0100
0000
0002
0000
0013
0100
1000
0100
,
0010
0000
2000
0000
3100
0010
0001
0010
,
0100
0000
0010
0100
0000
0100
0010
0000
,
1000
0000
0001
0100
0000
0100
0001
0000
,
0010
0000
0200
0310
1000
0001
0100
0000
,
0010
0000
0002
0013
1000
0010
0001
0000
,
0100
0000
2000
3100
1000
0010
0100
0001
,
0010
0100
1000
0010
0100
0001
1000
0010
,
0220
0000
0000
0330
;

//---------------dance-single - ----------------
#NOTES:
     dance-single:
     :
     Easy:
     4:
     0.267,0.270,0.181,0.142,0.000: // measure 1
1000
0110
0010
1001
,  // measure 2
0010
0110
1000
1001
,  // measure 3
0010
0200
0310
0001
,  // measure 4
1000
0020
0130
0100
,  // measure 5
0010
0000
0100
0000
,  // measure 6
0010
0010
0001
1000
,  // measure 7
0010
0000
0100
0000
,  // measure 8
1000
0100
0010
0001
,  // measure 9
0010
0001
0001
0001
,  // measure 10
0010
0100
0010
1000
,  // measure 11
0100
0000
0010
0000
,  // measure 12
0100
0000
0010
0010
,  // measure 13
0001
0020
0130
1000
,  // measure 14
0100
0020
1030
0100
,  // measure 15
0001
0200
1300
0010
,  // measure 16
1000
0200
0310
0001
,  // measure 17
0010
0010
0001
0010
,  // measure 18
0100
0100
0010
1000
,  // measure 19
1000
0001
0100
0010
,  // measure 20
0100
0100
0100
0010
,  // measure 21
0110
0110
0000
1001
,  // measure 22
0010
0001
0100
0010
,  // measure 23
1000
0100
0100
0100
,  // measure 24
0010
1000
1000
1000
,  // measure 25
1001
1001
0000
0110
,  // measure 26
0100
1000
0010
0100
,  // measure 27
0001
0001
0001
0010
,  // measure 28
0100
0100
0100
0010
,  // measure 29
0200
0000
0010
0010
,  // measure 30
0302
0000
0010
0010
,  // measure 31
0203
0000
0010
0010
,  // measure 32
0310
1000
0001
0100
,  // measure 33
0010
0010
0010
0100
,  // measure 34
1000
1000
1000
0100
,  // measure 35
0001
0100
0001
1000
,  // measure 36
0020
2030
3002
0103
,  // measure 37
0110
0110
1001
1001
,  // measure 38
0010
0100
0001
1000
,  // measure 39
0010
0010
0100
0100
,  // measure 40
1000
1000
0001
0001
,  // measure 41
1001
0110
1001
0110
,  // measure 42
0010
0001
1000
0100
,  // measure 43
0010
0100
0001
0001
,  // measure 44
0010
1000
1000
0100
,  // measure 45
0210
1300
0100
0010
,  // measure 46
1002
0013
0100
0010
,  // measure 47
0001
1000
0010
0100
,  // measure 48
0001
0100
0100
0100
,  // measure 49
2001
3100
0010
1000
,  // measure 50
0120
0130
1000
0001
,  // measure 51
0010
0100
0001
0010
,  // measure 52
1000
1000
0100
0010
,  // measure 53
2002
0000
0000
3003
;
