#VERSION:0.83;
#TITLE:sukoshi;
#SUBTITLE:;
#ARTIST:nahviss;
#TITLETRANSLIT:;
#SUBTITLETRANSLIT:;
#ARTISTTRANSLIT:;
#GENRE:;
#ORIGIN:;
#CREDIT:;
#BANNER:sukoshi.png;
#BACKGROUND:sukoshi-bg.png;
#PREVIEWVID:;
#JACKET:;
#CDIMAGE:;
#DISCIMAGE:;
#LYRICSPATH:;
#CDTITLE:;
#MUSIC:sukoshi.ogg;
#OFFSET:-0.001002;
#SAMPLESTART:53.140995;
#SAMPLELENGTH:15.428570;
#SELECTABLE:YES;
#BPMS:0.000=140.000;
#STOPS:;
#DELAYS:;
#WARPS:;
#TIMESIGNATURES:0.000=4=4;
#TICKCOUNTS:0.000=4;
#COMBOS:0.000=1;
#SPEEDS:0.000=1.000=0.000=0;
#SCROLLS:0.000=1.000;
#FAKES:;
#LABELS:0.000=Song Start;
#BGCHANGES:;
#KEYSOUNDS:;
#ATTACKS:
;

//---------------dance-single - ----------------
#NOTEDATA:;
#CHARTNAME:Tablespoon;
#STEPSTYPE:dance-single;
#DESCRIPTION:;
#CHARTSTYLE:;
#DIFFICULTY:Easy;
#METER:3;
#RADARVALUES:0.234602,0.286041,0.107686,0.017948,0.058330,183.000000,171.000000,12.000000,2.000000,0.000000,0.000000,0.000000,0.000000,0.000000,0.234602,0.286041,0.107686,0.017948,0.058330,183.000000,171.000000,12.000000,2.000000,0.000000,0.000000,0.000000,0.000000,0.000000;
#CREDIT:Phil Lee;
#ATTACKS:TIME=6.878998:LEN=0.860000:MODS=:TIME=6.878998:LEN=0.860000:MODS=:TIME=6.878998:LEN=0.860000:MODS=:TIME=6.878998:LEN=0.860000:MODS=:TIME=6.878998:LEN=0.860000:MODS=:TIME=6.878998:LEN=0.860000:MODS=:TIME=6.878998:LEN=0.860000:MODS=:TIME=6.878998:LEN=0.860000:MODS=:TIME=6.878998:LEN=0.860000:MODS=:TIME=6.888998:LEN=0.860000:MODS=:TIME=6.938998:LEN=0.860000:MODS=:TIME=6.908998:LEN=0.860000:MODS=:TIME=6.908998:LEN=0.860000:MODS=:TIME=6.908998:LEN=0.860000:MODS=:TIME=6.908998:LEN=0.860000:MODS=:TIME=6.908998:LEN=0.860000:MODS=:TIME=6.908998:LEN=0.860000:MODS=:TIME=6.908998:LEN=0.860000:MODS=:TIME=6.908998:LEN=0.860000:MODS=:TIME=6.908998:LEN=0.860000:MODS=:TIME=6.908998:LEN=0.860000:MODS=:TIME=6.908998:LEN=0.860000:MODS=:TIME=6.908998:LEN=0.860000:MODS=:TIME=6.908998:LEN=0.860000:MODS=:TIME=6.908998:LEN=0.860000:MODS=:TIME=6.908998:LEN=0.860000:MODS=:TIME=6.908998:LEN=0.860000:MODS=;
#NOTES:
0000
0000
0000
0000
,
0000
0000
0000
0000
,
0000
0000
0000
0000
,
0000
0000
0000
0000
,
1000
1000
1000
0000
,
0010
0010
0010
0000
,
1000
1000
1000
0000
,
0001
0000
0000
0000
0001
0000
0000
0001
0000
0000
0000
0000
0000
0000
0000
0000
,
1000
0001
1000
0000
,
0010
0100
0010
0000
,
1000
0100
0010
0000
,
0001
0000
0000
0000
0010
0000
0000
0100
0000
0000
0000
0000
0000
0000
0000
0000
,
1000
1010
1000
0000
,
0001
0011
0001
0000
,
1000
1100
1000
0000
,
0001
0000
0000
0000
1001
0000
0000
0001
0000
0000
0000
0000
0000
0000
0000
0000
,
0100
0100
0100
0000
,
0010
0010
0010
0000
,
1000
1000
1000
0000
,
0100
0000
0000
0000
0100
0000
0000
0100
0000
0000
0000
0000
0000
0000
0000
0000
,
1000
1000
1000
0000
,
0010
0010
0010
0000
,
0100
0100
0100
0000
,
0001
0000
0000
0000
0001
0000
0000
0001
0000
0000
0000
0000
0000
0000
0000
0000
,
1000
1001
0001
0000
,
1000
1100
1000
0000
,
0001
0101
0001
0000
,
1000
0000
0000
0000
1001
0000
0000
1000
0000
0000
0000
0000
0000
0000
0000
0000
,
0010
0110
0010
0000
,
0100
0101
0100
0000
,
0001
0011
0001
0000
,
1000
0000
0000
0000
1000
0000
0000
1000
0000
0000
0000
0000
1000
0000
0000
0000
,
1001
0000
1000
0000
,
0100
0000
0100
0000
,
0010
0000
0010
0000
,
0001
0000
0000
0000
0001
0000
0000
0001
0000
0000
0000
0000
1000
0000
0000
0000
,
1000
0010
1000
0000
,
0100
0010
0100
0000
,
1000
0100
0010
0000
,
0001
0010
0200
0000
,
1300
0000
1000
0000
,
0010
0000
0010
0000
,
0100
0000
0100
0000
,
0001
0000
0000
0000
0001
0000
0000
0001
0000
0000
0000
0000
0000
0000
0000
0000
,
0010
0000
0010
0000
,
0100
0000
0100
0000
,
1000
0000
1000
0000
,
0100
0000
0000
0000
0100
0000
0000
0100
0000
0000
0000
0000
0000
0000
0000
0000
,
1000
0000
1000
0000
,
0010
0000
0010
0000
,
0100
0000
0100
0000
,
0010
0000
0000
0000
0010
0000
0000
0010
0000
0000
0000
0000
0000
0000
0000
0000
,
1000
0010
1000
0000
,
0001
0100
0010
0000
,
1000
0010
0100
0000
,
0001
0010
0200
0000
,
1300
1000
1000
0000
,
0001
0001
0001
0000
,
0100
0100
0100
0000
,
0001
0000
0000
0000
0001
0000
0000
0001
0000
0000
0000
0000
0000
0000
0000
0000
,
0010
0010
0010
0000
,
0100
0100
0100
0000
,
1000
1000
1000
0000
,
0010
0000
0000
0000
0010
0000
0000
0010
0000
0000
0000
0000
0100
0000
0000
0000
;

//---------------dance-single - ----------------
#NOTEDATA:;
#CHARTNAME:Teaspoon;
#STEPSTYPE:dance-single;
#DESCRIPTION:;
#CHARTSTYLE:;
#DIFFICULTY:Beginner;
#METER:1;
#RADARVALUES:0.089738,0.143021,0.008974,0.000000,0.000000,70.000000,69.000000,1.000000,0.000000,0.000000,0.000000,0.000000,0.000000,0.000000,0.089738,0.143021,0.008974,0.000000,0.000000,70.000000,69.000000,1.000000,0.000000,0.000000,0.000000,0.000000,0.000000,0.000000;
#CREDIT:Phil Lee;
#ATTACKS:TIME=6.878998:LEN=0.860000:MODS=:TIME=6.878998:LEN=0.860000:MODS=:TIME=6.878998:LEN=0.860000:MODS=:TIME=6.878998:LEN=0.860000:MODS=:TIME=6.878998:LEN=0.860000:MODS=:TIME=6.878998:LEN=0.860000:MODS=:TIME=6.878998:LEN=0.860000:MODS=:TIME=6.878998:LEN=0.860000:MODS=:TIME=6.878998:LEN=0.860000:MODS=:TIME=6.888998:LEN=0.860000:MODS=:TIME=6.938998:LEN=0.860000:MODS=:TIME=6.908998:LEN=0.860000:MODS=:TIME=6.908998:LEN=0.860000:MODS=:TIME=6.908998:LEN=0.860000:MODS=:TIME=6.908998:LEN=0.860000:MODS=:TIME=6.908998:LEN=0.860000:MODS=:TIME=6.908998:LEN=0.860000:MODS=:TIME=6.908998:LEN=0.860000:MODS=:TIME=6.908998:LEN=0.860000:MODS=:TIME=6.908998:LEN=0.860000:MODS=:TIME=6.908998:LEN=0.860000:MODS=:TIME=6.908998:LEN=0.860000:MODS=:TIME=6.908998:LEN=0.860000:MODS=:TIME=6.908998:LEN=0.860000:MODS=:TIME=6.908998:LEN=0.860000:MODS=:TIME=6.908998:LEN=0.860000:MODS=:TIME=6.908998:LEN=0.860000:MODS=;
#NOTES:
0000
0000
0000
0000
,
0000
0000
0000
0000
,
0000
0000
0000
0000
,
0000
0000
0000
0000
,
1000
0000
0000
0000
,
0100
0000
0000
0000
,
0010
0000
0000
0000
,
0001
0000
0000
0000
,
1000
0000
0000
0000
,
0001
0000
0000
0000
,
0010
0000
0000
0000
,
0001
0000
0000
0000
,
1000
0000
0000
0000
,
0001
0000
0000
0000
,
0100
0000
0000
0000
,
0010
0000
0000
0000
,
1000
0000
0000
0000
,
0100
0000
0000
0000
,
1000
0000
0000
0000
,
0001
0000
0000
0000
,
0100
0000
0000
0000
,
0010
0000
0000
0000
,
0100
0000
0000
0000
,
0001
0000
0000
0000
,
0010
0000
0000
0000
,
0001
0000
0000
0000
,
0010
0000
0000
0000
,
0100
0000
0000
0000
,
1000
0000
0000
0000
,
0001
0000
0000
0000
,
0100
0000
0000
0000
,
0001
0000
0000
0000
,
1001
0000
1000
0000
,
1000
0000
0000
0000
,
0100
0000
0100
0000
,
0100
0000
0000
0000
,
0010
0000
0010
0000
,
0010
0000
0000
0000
,
0001
0000
0001
0000
,
0001
0000
0000
0000
,
1000
0000
0100
0000
,
1000
0000
0000
0000
,
0001
0000
0010
0000
,
0001
0000
0000
0000
,
1000
0000
0010
0000
,
1000
0000
0000
0000
,
0001
0000
0100
0000
,
0001
0000
0000
0000
,
0100
0000
0000
0000
,
0010
0000
0000
0000
,
1000
0000
0000
0000
,
0100
0000
0000
0000
,
1000
0000
0000
0000
,
0001
0000
0000
0000
,
0010
0000
0000
0000
,
0100
0000
0000
0000
,
0010
0000
0000
0000
,
0001
0000
0000
0000
,
0100
0000
0000
0000
,
0010
0000
0000
0000
,
0100
0000
0000
0000
,
0001
0000
0000
0000
,
1000
0000
0000
0000
,
0100
0000
0000
0100
;

//---------------dance-single - ----------------
#NOTEDATA:;
#CHARTNAME:Cup;
#STEPSTYPE:dance-single;
#DESCRIPTION:;
#CHARTSTYLE:;
#DIFFICULTY:Medium;
#METER:5;
#RADARVALUES:0.424334,0.429903,0.394849,0.098712,0.098712,331.000000,287.000000,44.000000,11.000000,0.000000,0.000000,3.000000,0.000000,0.000000,0.424334,0.429903,0.394849,0.098712,0.098712,331.000000,287.000000,44.000000,11.000000,0.000000,0.000000,3.000000,0.000000,0.000000;
#CREDIT:Phil Lee;
#OFFSET:-0.001002;
#BPMS:0.000000=140.000000
;
#STOPS:;
#DELAYS:;
#WARPS:;
#TIMESIGNATURES:0.000000=4=4
;
#TICKCOUNTS:0.000000=4
;
#COMBOS:0.000000=1
;
#SPEEDS:0.000000=1.000000=0.000000=0
;
#SCROLLS:0.000000=1.000000
,66.000000=0.000000
,66.500000=2.000000
,67.000000=1.000000
,70.000000=0.000000
,70.500000=2.000000
,71.000000=1.000000
,74.000000=0.000000
,74.250000=2.000000
,74.500000=1.000000
,226.000000=0.000000
,226.500000=2.000000
,227.000000=1.000000
,230.000000=0.000000
,230.500000=2.000000
,231.000000=1.000000
,234.000000=0.000000
,234.500000=2.000000
,235.000000=1.000000
,237.750000=0.000000
,238.000000=2.000000
,238.250000=1.000000
,242.000000=0.000000
,242.500000=2.000000
,243.000000=1.000000
,246.000000=0.000000
,246.500000=2.000000
,247.000000=1.000000
,250.000000=0.000000
,250.500000=2.000000
,251.000000=1.000000
,253.750000=0.000000
,254.000000=2.000000
,254.250000=1.000000
;
#FAKES:;
#LABELS:0.000000=Song Start
;
#ATTACKS:TIME=6.878998:LEN=0.860000:MODS=:TIME=6.878998:LEN=0.860000:MODS=:TIME=6.878998:LEN=0.860000:MODS=:TIME=6.878998:LEN=0.860000:MODS=:TIME=6.878998:LEN=0.860000:MODS=:TIME=6.878998:LEN=0.860000:MODS=:TIME=6.878998:LEN=0.860000:MODS=:TIME=6.878998:LEN=0.860000:MODS=:TIME=6.878998:LEN=0.860000:MODS=:TIME=6.888998:LEN=0.860000:MODS=:TIME=6.938998:LEN=0.860000:MODS=:TIME=6.908998:LEN=0.860000:MODS=:TIME=6.908998:LEN=0.860000:MODS=:TIME=6.908998:LEN=0.860000:MODS=:TIME=6.908998:LEN=0.860000:MODS=:TIME=6.908998:LEN=0.860000:MODS=:TIME=6.908998:LEN=0.860000:MODS=:TIME=6.908998:LEN=0.860000:MODS=:TIME=6.908998:LEN=0.860000:MODS=:TIME=6.908998:LEN=0.860000:MODS=:TIME=6.908998:LEN=0.860000:MODS=:TIME=6.908998:LEN=0.860000:MODS=:TIME=6.908998:LEN=0.860000:MODS=:TIME=6.908998:LEN=0.860000:MODS=:TIME=6.908998:LEN=0.860000:MODS=:TIME=6.908998:LEN=0.860000:MODS=;
#NOTES:
// measure 0
0000
0000
0000
0000
,  // measure 1
0000
0000
0000
0000
,  // measure 2
0000
0000
0000
0000
,  // measure 3
0000
0000
0000
0000
,  // measure 4
1000
1000
1000
0000
,  // measure 5
0001
0001
0001
0000
,  // measure 6
0010
0010
0010
0000
,  // measure 7
0001
0000
0001
0000
0001
1000
0001
1000
,  // measure 8
0010
0000
0000
0000
1000
0000
0000
0000
0001
0000
0000
0001
0000
0000
0001
0000
,  // measure 9
1000
0000
0000
0000
0100
0000
0000
0000
0010
0000
0000
0010
0000
0010
0000
0000
,  // measure 10
0100
0000
0000
0000
1000
0000
0000
0000
0010
0000
0000
0010
0000
0000
0010
0000
,  // measure 11
0100
0001
1000
0010
,  // measure 12
1000
0000
0001
0000
1000
0100
1000
0100
,  // measure 13
1000
0000
0010
0000
1000
0001
1000
0001
,  // measure 14
1000
0100
1000
0000
0001
0100
0001
0000
,  // measure 15
1000
0002
1000
1003
,  // measure 16
0020
1000
1030
0000
,  // measure 17
0002
0100
0103
0000
,  // measure 18
0002
0000
0010
0000
0013
0000
0000
0100
,  // measure 19
2000
0000
0000
0000
0100
0000
0000
3100
0000
0000
0010
0000
0010
0000
0010
0000
,  // measure 20
0002
1000
1003
0040
,  // measure 21
2030
0000
0000
0000
0100
0000
0000
0000
3100
0000
2000
3000
0004
0000
0000
0000
,  // measure 22
0203
0010
0310
4000
,  // measure 23
3002
0000
0000
0000
0010
0000
0000
0013
0000
0000
0000
0000
0001
0000
0100
0000
,  // measure 24
0001
0000
0110
0000
1000
0000
0000
0010
,  // measure 25
0100
0000
0101
0000
1000
0000
0001
1000
,  // measure 26
0100
0000
0000
0000
1010
0000
0000
0000
0010
0000
1000
0000
0000
0100
0000
0000
,  // measure 27
1000
0000
0101
0000
0100
0010
0100
0010
,  // measure 28
0100
1001
0100
1010
,  // measure 29
1000
1001
0010
1001
,  // measure 30
2000
0010
3010
1001
,  // measure 31
0001
0000
0000
0000
1000
0000
0000
1000
0000
0000
1000
0000
0010
0000
0010
0000
,  // measure 32
1000
0100
1000
0000
0001
0100
0001
0000
,  // measure 33
1000
0010
1000
0000
0001
0010
0001
0000
,  // measure 34
1000
0100
1000
0000
0100
0010
0100
0000
,  // measure 35
0010
0001
0010
0000
0001
0100
0001
0001
,  // measure 36
1000
0000
0100
0000
1000
0000
0000
0000
0010
0000
0000
0100
0000
0000
0010
0000
,  // measure 37
1000
0000
0100
0000
0010
0000
0000
0000
0100
0000
0000
0010
0000
0000
0001
0000
,  // measure 38
1000
0000
0001
0000
0100
0000
0000
0000
0010
0000
0000
1000
0000
0000
0001
0000
,  // measure 39
1000
0100
0010
0000
0001
1000
0100
0000
,  // measure 40
1000
0000
0000
0000
0110
0000
0000
0000
1000
0000
0000
0001
0000
0000
0100
0000
,  // measure 41
0001
0000
0000
0000
0110
0000
0000
0000
1000
0000
0000
0100
0000
0000
1000
0000
,  // measure 42
0001
0000
0000
0000
0110
0000
0000
0000
0001
0000
0000
1000
0000
0000
0010
0000
,  // measure 43
1000
0000
0000
0000
0110
0000
0000
1000
0000
0000
0100
0000
1000
0000
0100
0000
,  // measure 44
1000
0000
0000
0000
0110
0000
0000
0000
1000
0000
0000
0010
0000
0000
1000
0000
,  // measure 45
0001
0000
0000
0000
0110
0000
0000
0000
0001
0000
0000
0010
0000
0000
0001
0000
,  // measure 46
0100
0000
0000
0000
0110
0000
0000
0000
1000
0000
0000
0100
0000
0000
1000
0000
,  // measure 47
0010
0000
0000
0000
0110
0000
0000
1000
0000
0000
0001
0000
0100
0000
0001
0000
,  // measure 48
0100
0101
0100
0110
,  // measure 49
0010
1010
1000
1001
,  // measure 50
1000
1100
0100
0110
,  // measure 51
0010
0000
0000
0000
0011
0000
0000
0001
0000
0000
0000
0000
0011
0000
0000
0000
,  // measure 52
0001
0000
1000
0000
0100
0010
0100
0010
,  // measure 53
0100
0000
1000
0000
0001
0100
0001
0100
,  // measure 54
0001
0010
0001
0000
0010
0100
0010
0000
,  // measure 55
0001
0100
0001
0000
1000
0100
1000
0000
,  // measure 56
1001
0110
1001
0000
,  // measure 57
1010
0101
1010
0000
,  // measure 58
1100
0011
1100
0000
,  // measure 59
1010
0000
0000
0000
0010
0000
0000
0010
0000
0000
0000
0000
0100
0000
0010
0000
,  // measure 60
0100
1010
0101
0000
,  // measure 61
0011
1100
0011
0000
,  // measure 62
0110
1001
0110
0000
,  // measure 63
1001
0000
0000
0000
0010
0000
0000
0010
0000
0000
0000
0000
0100
0000
0010
0000
;

//---------------dance-single - ----------------
#NOTEDATA:;
#CHARTNAME:Bowl;
#STEPSTYPE:dance-single;
#DESCRIPTION:;
#CHARTSTYLE:;
#DIFFICULTY:Hard;
#METER:9;
#RADARVALUES:0.562788,0.659830,0.098712,0.116660,0.394849,439.000000,428.000000,11.000000,13.000000,0.000000,0.000000,10.000000,0.000000,0.000000,0.562788,0.659830,0.098712,0.116660,0.394849,439.000000,428.000000,11.000000,13.000000,0.000000,0.000000,10.000000,0.000000,0.000000;
#CREDIT:Phil Lee;
#OFFSET:-0.001002;
#BPMS:0.000000=140.000000
;
#STOPS:;
#DELAYS:;
#WARPS:;
#TIMESIGNATURES:0.000000=4=4
;
#TICKCOUNTS:0.000000=4
;
#COMBOS:0.000000=1
;
#SPEEDS:0.000000=1.000000=0.000000=0
;
#SCROLLS:0.000000=1.000000
,66.500000=0.000000
,67.250000=1.000000
,70.500000=0.000000
,71.250000=1.000000
,74.500000=0.000000
,74.750000=2.000000
,75.000000=1.000000
,226.500000=0.000000
,227.250000=1.000000
,230.500000=0.000000
,231.250000=1.000000
,234.500000=0.000000
,235.250000=1.000000
,237.750000=0.000000
,238.000000=2.000000
,238.250000=1.000000
,242.500000=0.000000
,243.250000=1.000000
,246.500000=0.000000
,247.250000=1.000000
,250.500000=0.000000
,251.250000=1.000000
,253.750000=0.000000
,254.000000=2.000000
,254.250000=1.000000
;
#FAKES:;
#LABELS:0.000000=Song Start
;
#ATTACKS:TIME=6.878998:LEN=0.860000:MODS=:TIME=6.878998:LEN=0.860000:MODS=:TIME=6.878998:LEN=0.860000:MODS=:TIME=6.878998:LEN=0.860000:MODS=:TIME=6.878998:LEN=0.860000:MODS=:TIME=6.878998:LEN=0.860000:MODS=:TIME=6.878998:LEN=0.860000:MODS=:TIME=6.878998:LEN=0.860000:MODS=:TIME=6.878998:LEN=0.860000:MODS=:TIME=6.888998:LEN=0.860000:MODS=:TIME=6.938998:LEN=0.860000:MODS=:TIME=6.908998:LEN=0.860000:MODS=:TIME=6.908998:LEN=0.860000:MODS=:TIME=6.908998:LEN=0.860000:MODS=:TIME=6.908998:LEN=0.860000:MODS=:TIME=6.908998:LEN=0.860000:MODS=:TIME=6.908998:LEN=0.860000:MODS=:TIME=6.908998:LEN=0.860000:MODS=:TIME=6.908998:LEN=0.860000:MODS=:TIME=6.908998:LEN=0.860000:MODS=:TIME=6.908998:LEN=0.860000:MODS=:TIME=6.908998:LEN=0.860000:MODS=:TIME=6.908998:LEN=0.860000:MODS=:TIME=6.908998:LEN=0.860000:MODS=;
#NOTES:
// measure 0
0000
0000
0000
0000
,  // measure 1
0000
0000
0000
0000
,  // measure 2
0000
0000
0000
0000
,  // measure 3
0000
0000
0000
0000
,  // measure 4
1000
0000
0000
0000
1000
0000
0000
0000
1000
0000
0000
0010
0000
0000
0100
0000
,  // measure 5
0001
0000
0000
0000
0001
0000
0000
0000
0001
0000
0000
0010
0000
0000
0100
0000
,  // measure 6
1000
0000
0000
0000
1000
0000
0000
0000
1000
0000
0000
0010
0000
0000
0100
0000
,  // measure 7
0001
1000
0000
0000
1000
0000
0000
1000
0000
0000
0000
0000
0100
1000
0000
0000
,  // measure 8
0001
0000
0010
0000
0100
0000
1000
0000
0020
0000
0000
0100
0000
0000
0130
0000
,  // measure 9
0001
0000
0100
0000
0010
0000
1000
0000
0200
0000
0000
1000
0000
1300
0000
0000
,  // measure 10
0001
0000
0010
0000
0100
0000
0010
0000
0002
0000
0000
1000
0000
0000
1003
0000
,  // measure 11
0001
0010
0000
0000
0010
0000
0000
0010
0001
1000
0001
1000
0010
0100
0010
0100
,  // measure 12
0001
0000
0011
0000
0010
0001
0010
0100
,  // measure 13
1000
0000
1001
0000
0001
0010
0100
0010
,  // measure 14
0001
0000
1000
0000
0001
0000
0100
0000
0010
0000
0100
0001
0000
0001
0100
0000
,  // measure 15
0010
0000
1000
0000
0001
0000
0100
0000
0040
4000
0000
0000
0000
0000
0000
3030
,  // measure 16
0001
1000
0010
1000
0001
0100
0000
0000
,  // measure 17
0001
0010
0100
0010
0001
1000
0000
0000
,  // measure 18
0001
0010
0001
1000
0001
0100
0000
0001
,  // measure 19
1000
0000
0100
0000
0010
0000
0100
1000
0000
0000
0001
0000
0001
0000
0001
0000
,  // measure 20
1000
0000
0001
0000
0010
0000
0100
0000
1000
0000
0010
0000
4000
0004
0000
3003
,  // measure 21
0010
0000
0001
0000
0100
0000
0010
0000
1000
0000
0002
0003
4000
0000
0000
0000
,  // measure 22
3100
0000
0010
0000
0001
0000
0100
0000
0001
0000
1000
0000
0004
0040
0000
0033
,  // measure 23
0100
0000
1000
0000
0100
0000
0010
0001
0000
0000
2000
3000
0001
0200
0000
0000
,  // measure 24
0301
0010
0001
0000
1000
0001
1000
0000
0010
0100
0010
0000
0000
0000
0000
0000
,  // measure 25
1000
0001
1000
0000
0100
0010
0100
0000
1000
0010
0100
0000
0000
0000
0000
0000
,  // measure 26
0001
0100
0010
0000
0100
0010
1000
0000
0001
1000
0100
0000
0000
0100
0000
0000
,  // measure 27
1000
0010
1000
0010
1000
0010
1000
0010
0100
0000
0001
0000
0010
0000
0100
0000
,  // measure 28
1000
0010
1000
0000
0001
0010
0100
0000
0010
0100
1000
0000
0004
0000
0000
0000
,  // measure 29
1003
0010
1000
0000
0100
0010
0100
0000
1000
0000
0001
0100
0001
0000
0001
0000
,  // measure 30
0001
0010
0001
0000
1000
0100
1000
0000
0001
0000
0010
0000
0100
1000
0010
0000
,  // measure 31
2000
0000
0000
0000
0010
0000
0000
3010
0000
0000
0100
0000
0001
0000
0001
0000
,  // measure 32
1001
0000
1000
0000
0010
0000
1000
0000
0001
0000
0000
0100
0000
0000
0100
0000
,  // measure 33
0001
0000
1000
0000
0100
0000
1000
0000
0001
0000
0000
0010
0000
0000
0010
0000
,  // measure 34
0001
0000
0100
0000
0001
0000
0010
0000
0001
0000
0000
1000
0000
0000
1000
0000
,  // measure 35
0001
0100
0000
0000
0100
0000
0000
0100
0000
0000
0100
0000
0010
0000
0010
0000
,  // measure 36
1000
0000
0001
0000
0010
0000
0100
0000
0010
0000
0001
0100
0000
0100
0001
0000
,  // measure 37
1000
0001
0100
0010
0100
0001
1000
0100
,  // measure 38
0010
0000
0100
0000
1000
0000
0001
0000
0100
0000
0001
0010
0000
0010
0001
0000
,  // measure 39
1000
0010
1000
0100
0010
0001
1000
0010
,  // measure 40
1000
0000
0000
0000
1001
0000
0000
0000
0002
0000
0000
0100
0000
0000
0103
0000
,  // measure 41
0001
0000
0000
0000
1001
0000
0000
0000
2000
0000
0000
0100
0000
0000
3100
0000
,  // measure 42
1000
0000
0000
0000
1001
0000
0000
0000
0002
0000
0000
0010
0000
0000
0013
0000
,  // measure 43
0001
1000
0000
0000
1000
0000
0000
1000
0000
0000
1000
0000
0001
0000
0001
0000
,  // measure 44
0100
0000
0000
0000
0001
0000
0000
0000
0020
0000
0000
0100
0000
0000
0130
0000
,  // measure 45
0010
0000
0000
0000
0001
0000
0000
0000
2000
0000
0000
0100
0000
0000
3100
0000
,  // measure 46
1000
0000
0000
0000
0001
0000
0000
0000
0200
0000
0000
0010
0000
0000
0310
0000
,  // measure 47
0100
0001
0000
0000
0001
0000
0001
0010
0001
0000
1000
0010
1000
0000
0001
0000
,  // measure 48
1000
0000
0000
0000
1001
0000
0000
0000
1000
0000
0000
0010
0000
0000
1000
0000
,  // measure 49
0001
0000
0000
0000
1001
0000
0000
0000
1000
0000
0000
0001
0000
0000
0100
0000
,  // measure 50
0001
0000
0000
0000
0011
0000
0000
0000
0001
0000
0000
0100
0000
0000
0001
0000
,  // measure 51
1000
0001
0000
0000
0100
0000
0000
0010
1000
0000
0001
0000
1000
0100
0010
0001
,  // measure 52
1000
0000
1001
0000
0001
1000
0001
0010
,  // measure 53
0001
0000
1001
0000
1000
0100
0010
0001
,  // measure 54
1000
0000
0001
0100
0001
0000
1000
0010
1000
0000
0001
0010
0000
0010
0100
0000
,  // measure 55
4000
0040
0000
0000
0000
0000
0000
0000
0000
0000
0000
0000
0000
0000
3030
0000
,  // measure 56
0100
0001
1000
0100
0010
0001
0000
0000
,  // measure 57
1000
0100
1000
0010
1000
0001
0000
0000
,  // measure 58
0100
0010
0100
0001
1000
0010
0000
0000
,  // measure 59
0100
0001
0000
0000
0001
0000
0000
0001
0000
0000
0000
0000
0010
0100
0010
0100
,  // measure 60
1000
0001
1000
0010
0100
0001
0000
0000
,  // measure 61
0010
0100
0010
0001
0100
0010
0000
0000
,  // measure 62
0100
0001
1000
0010
1000
0100
0000
0000
,  // measure 63
1000
0010
0000
0000
0010
0000
0000
0010
0000
0000
0000
0000
1000
0001
1000
0001
;

//---------------dance-single - ----------------
#NOTEDATA:;
#CHARTNAME:Pot;
#STEPSTYPE:dance-single;
#DESCRIPTION:;
#CHARTSTYLE:;
#DIFFICULTY:Challenge;
#METER:10;
#RADARVALUES:0.820466,0.889336,0.332032,0.179477,1.045452,640.000000,603.000000,37.000000,20.000000,26.000000,0.000000,0.000000,0.000000,0.000000,0.820466,0.889336,0.332032,0.179477,1.045452,640.000000,603.000000,37.000000,20.000000,26.000000,0.000000,0.000000,0.000000,0.000000;
#CREDIT:Phil Lee;
#OFFSET:-0.001002;
#BPMS:0.000000=140.000000
;
#STOPS:;
#DELAYS:;
#WARPS:;
#TIMESIGNATURES:0.000000=4=4
;
#TICKCOUNTS:0.000000=4
;
#COMBOS:0.000000=1
;
#SPEEDS:0.000000=1.000000=0.000000=0
;
#SCROLLS:0.000000=1.000000
,60.000000=1.100000
,60.250000=1.200000
,60.500000=1.300000
,63.500000=1.200000
,63.750000=1.100000
,64.000000=1.000000
,66.500000=0.000000
,67.250000=1.000000
,70.500000=0.000000
,71.250000=1.000000
,74.500000=0.000000
,74.750000=2.000000
,75.000000=1.000000
,75.500000=0.000000
,75.750000=2.000000
,76.000000=1.000000
,124.000000=1.100000
,124.500000=1.200000
,125.000000=1.300000
,127.000000=1.200000
,127.500000=1.100000
,128.000000=1.000000
,220.000000=1.100000
,220.250000=1.200000
,220.500000=1.300000
,223.500000=1.200000
,223.750000=1.100000
,224.000000=1.000000
,226.500000=0.000000
,227.250000=1.000000
,230.500000=0.000000
,231.250000=1.000000
,234.500000=0.000000
,235.250000=1.000000
,237.750000=0.000000
,238.000000=2.000000
,238.250000=1.000000
,242.500000=0.000000
,243.250000=1.000000
,246.500000=0.000000
,247.250000=1.000000
,250.500000=0.000000
,251.250000=1.000000
,253.750000=0.000000
,254.250000=1.000000
;
#FAKES:;
#LABELS:0.000000=Song Start
;
#ATTACKS:TIME=6.878998:LEN=0.860000:MODS=:TIME=6.878998:LEN=0.860000:MODS=:TIME=6.878998:LEN=0.860000:MODS=:TIME=6.878998:LEN=0.860000:MODS=:TIME=6.878998:LEN=0.860000:MODS=:TIME=6.878998:LEN=0.860000:MODS=:TIME=6.878998:LEN=0.860000:MODS=:TIME=6.878998:LEN=0.860000:MODS=:TIME=6.878998:LEN=0.860000:MODS=:TIME=6.878998:LEN=0.860000:MODS=:TIME=6.928998:LEN=0.860000:MODS=:TIME=6.898998:LEN=0.860000:MODS=:TIME=6.898998:LEN=0.860000:MODS=:TIME=6.898998:LEN=0.860000:MODS=:TIME=6.898998:LEN=0.860000:MODS=:TIME=6.898998:LEN=0.860000:MODS=:TIME=6.898998:LEN=0.860000:MODS=:TIME=6.898998:LEN=0.860000:MODS=:TIME=6.898998:LEN=0.860000:MODS=:TIME=6.898998:LEN=0.860000:MODS=:TIME=6.898998:LEN=0.860000:MODS=:TIME=6.898998:LEN=0.860000:MODS=:TIME=6.898998:LEN=0.860000:MODS=:TIME=6.898998:LEN=0.860000:MODS=:TIME=6.898998:LEN=0.860000:MODS=:TIME=6.898998:LEN=0.860000:MODS=:TIME=6.901542:LEN=0.964286:MODS=*100 Beat:TIME=8.615829:LEN=0.964285:MODS=*100 Beat:TIME=10.330114:LEN=0.964285:MODS=*100 Beat:TIME=7.972971:LEN=0.428572:MODS=*100 0% Beat:TIME=9.580113:LEN=0.535715:MODS=*100 0% Beat:TIME=11.401544:LEN=0.428572:MODS=*100 0% Beat;
#NOTES:
// measure 0
0000
0000
0000
0000
,  // measure 1
0000
0000
0000
0000
,  // measure 2
0000
0000
0000
0000
,  // measure 3
0000
0000
0000
0000
,  // measure 4
1001
0000
0000
0000
1001
0000
0000
0000
1001
0000
0000
1000
0000
0000
0100
0000
,  // measure 5
0011
0000
0000
0000
0011
0000
0000
0000
0011
0000
0000
0001
0000
0000
0100
0000
,  // measure 6
1010
0000
0000
0000
1010
0000
0000
0000
1010
0000
0000
1000
0000
0000
0100
0000
,  // measure 7
1000
0001
0000
0000
0011
0000
0000
0011
0000
0000
0000
0000
0001
0200
0000
0300
,  // measure 8
0001
0000
1000
0000
0100
0010
0100
0000
1000
0000
0010
1000
0000
0000
0001
0000
,  // measure 9
1000
0000
0100
0000
0010
0001
0010
0000
0100
0000
1000
0010
0000
0010
1000
0000
,  // measure 10
0100
0000
1000
0000
0001
0100
0001
0000
1000
0000
0001
0010
0000
0000
0001
0000
,  // measure 11
1000
0100
0000
0000
0100
0000
0000
0100
1000
0010
0100
0010
1000
0100
0010
0001
,  // measure 12
1000
0000
0001
0000
0100
0000
0010
0000
1000
0000
0001
0100
0000
0100
0001
1000
,  // measure 13
0001
0000
0010
0000
0100
0000
0010
0000
0001
0100
0010
1000
0001
1000
0010
0100
,  // measure 14
0001
0000
1000
0100
1000
0000
0001
0100
0001
0000
1000
0100
0000
0100
0010
0000
,  // measure 15
0001
1000
0100
1000
0001
0100
0010
0100
0001
1000
0100
1000
0001
0010
0001
0100
,  // measure 16
0001
1000
0010
1000
0001
0010
0100
0010
0001
1000
0010
0000
0000
0000
0000
0000
,  // measure 17
1000
0100
0010
0100
1000
0010
0100
0001
1000
0001
0100
0000
0000
0000
0000
0000
,  // measure 18
0001
1000
0100
0010
0100
1000
0001
1000
0010
0100
0001
0000
0000
0000
0001
0000
,  // measure 19
0010
0010
0100
1000
0001
1000
0010
0100
0000
0000
0010
0000
0010
0000
0010
0000
,  // measure 20
1000
0100
0010
0100
1000
0001
0010
0001
1000
0010
1000
0000
0001
0010
0100
1000
,  // measure 21
0001
0010
0001
1000
0001
0100
0010
1000
0100
1000
0002
0003
1000
0010
0100
0010
,  // measure 22
1000
0001
0010
0001
1000
0001
0100
0010
1000
0100
0010
0000
0001
1000
0010
1000
,  // measure 23
0100
0100
0010
0100
1000
0001
0100
0010
1000
0000
0002
0003
1000
0100
0010
0001
,  // measure 24
1000
0001
0100
0001
1000
0010
0100
0010
1000
0001
1000
0020
0000
0M00
1030
0000
,  // measure 25
0001
0100
0001
0010
0100
1000
0010
0100
0001
0100
0010
1000
0001
0000
1001
0000
,  // measure 26
0001
0100
0010
0100
0001
1000
0001
0010
0100
1000
0010
0000
0000
1M01
0000
0000
,  // measure 27
0001
0001
1000
0001
0010
0001
1000
0100
1000
0010
0100
0001
1000
0000
10M1
0000
,  // measure 28
1000
0000
0001
0000
0100
0000
0010
0000
1000
0000
0001
0000
1000
0010
1000
0001
,  // measure 29
1000
0000
0100
0000
0010
0000
0001
0000
1000
0000
0001
0010
0001
0000
1001
0000
,  // measure 30
1000
0001
0100
0000
0010
1000
0001
0000
1000
0000
1001
0000
0001
0100
0010
0000
,  // measure 31
2000
0000
3002
0000
0023
0000
0230
0000
1300
0100
0010
0001
1000
0010
0100
0001
,  // measure 32
1000
0000
0001
0100
0000
0000
0001
1000
0000
0000
0010
0100
0000
0000
0010
1000
,  // measure 33
0000
0000
0001
0010
0000
0000
0010
0100
0000
0000
0100
1000
0000
0000
1000
0001
,  // measure 34
0000
0000
1000
0010
0000
0000
0100
0010
0000
0000
1000
0001
0000
0000
0010
0100
,  // measure 35
1000
0100
0000
0000
1001
0000
0000
1001
0000
0000
1000
0000
00M1
0000
0001
0000
,  // measure 36
1000
0000
0100
0000
0010
0000
0100
0000
1000
0000
0001
0010
0000
0010
0001
0100
,  // measure 37
0010
0000
1000
0000
0100
0000
0010
0000
0001
0100
0001
1000
0100
0010
0100
1000
,  // measure 38
0001
0000
0100
0001
1000
0000
0100
0010
0001
0000
1000
0001
0000
0001
0100
0000
,  // measure 39
0001
1000
0001
0010
0100
0010
0001
1000
0100
1000
0010
0100
0001
1000
0100
0010
,  // measure 40
0002
0000
0000
0000
20M3
0000
0000
0000
3100
0000
0000
1100
0000
0000
11M0
0000
,  // measure 41
0002
0000
0000
0000
0023
0000
0000
0000
0130
0000
0000
1001
0M00
0000
10M1
0000
,  // measure 42
2000
0000
0000
0000
32M0
0000
0000
0000
1300
0000
0000
0101
0000
0000
0101
0000
,  // measure 43
0001
0010
0000
0000
1M01
0000
0000
1001
0000
0000
1000
0000
010M
0000
0100
0000
,  // measure 44
2000
0000
0000
0000
30M2
0000
0000
0000
0103
0000
0000
0101
0000
0000
01M1
0000
,  // measure 45
2000
0000
0000
0000
3020
0000
0000
0000
0130
0000
0000
1001
0M00
0000
10M1
0000
,  // measure 46
0002
0000
0000
0000
02M3
0000
0000
0000
0301
0000
0000
1100
0000
0000
1100
0000
,  // measure 47
1000
0010
0000
0000
1M01
0000
1000
0100
1000
0000
0001
0100
0001
0000
0011
0000
,  // measure 48
M010
0000
0000
0000
1001
0000
00M0
0000
1000
0000
000M
0100
0000
0000
M010
0000
,  // measure 49
0001
0000
0000
0000
0101
0000
M000
0000
0001
0000
0M00
1000
0000
0000
0010
0000
,  // measure 50
100M
0000
0000
0000
0110
0000
0000
0000
1M00
0000
0000
0001
00M0
0000
0100
0000
,  // measure 51
0001
1000
0000
0000
1000
0000
0000
1000
0010
0100
0001
1000
0010
1000
0100
0010
,  // measure 52
0001
0000
0100
0000
0010
0000
1000
0000
0100
0000
0010
0001
0000
0001
0100
0010
,  // measure 53
1000
0000
0010
0000
0100
0000
0001
0000
1000
0100
1000
0001
0010
0001
1000
0001
,  // measure 54
0100
0000
0001
0010
0001
0000
1000
0010
1000
0000
0100
0010
0000
0010
0001
0000
,  // measure 55
1000
0010
0100
0010
1000
0001
0100
0001
1000
0100
0010
0001
1000
0001
0010
0100
,  // measure 56
1000
0001
0100
0001
1000
0010
1000
0001
0100
0010
1000
0000
0000
0000
0000
0000
,  // measure 57
0001
0010
0001
0100
0001
0010
0100
0010
0001
1000
0100
0000
0000
0000
0000
0000
,  // measure 58
1000
0001
0100
0010
1000
0010
0100
0001
1000
0001
0010
0000
0000
0000
0000
0000
,  // measure 59
0100
0100
1000
0010
1000
0001
0100
0010
0000
0000
0000
0000
1000
0001
0100
0001
,  // measure 60
1000
0100
0010
0100
1000
0001
1000
0010
0100
0001
1000
0000
0000
0000
0000
0000
,  // measure 61
0001
1000
0010
1000
0001
1000
0010
0100
0010
1000
0001
0000
0000
0000
0000
0000
,  // measure 62
1000
0010
0100
0001
1000
0001
1000
0100
0010
0001
0100
0000
0000
0000
0000
0000
,  // measure 63
0010
0010
1000
0100
1000
0001
0010
0001
0000
0000
0000
0000
1000
0100
1000
0010
;

//---------------dance-single - ----------------
#NOTEDATA:;
#CHARTNAME:Tub;
#STEPSTYPE:dance-single;
#DESCRIPTION:;
#CHARTSTYLE:;
#DIFFICULTY:Edit;
#METER:13;
#RADARVALUES:1.026864,1.194306,0.089738,0.143581,1.888994,801.000000,791.000000,10.000000,16.000000,18.000000,0.000000,8.000000,0.000000,114.000000,1.026864,1.194306,0.089738,0.143581,1.888994,801.000000,791.000000,10.000000,16.000000,18.000000,0.000000,8.000000,0.000000,114.000000;
#CREDIT:Phil Lee;
#OFFSET:-0.001002;
#BPMS:0.000000=140.000000
;
#STOPS:;
#DELAYS:;
#WARPS:26.750000=40.000000
;
#TIMESIGNATURES:0.000000=4=4
;
#TICKCOUNTS:0.000000=4
;
#COMBOS:0.000000=1
;
#SPEEDS:0.000000=1.000000=0.000000=0
,100.000000=1.200000=3.500000=0
,103.500000=1.000000=0.500000=0
,164.000000=1.200000=4.000000=0
,168.000000=1.000000=6.000000=0
,196.000000=1.200000=4.000000=0
,200.000000=1.000000=6.000000=0
,260.000000=1.200000=4.000000=0
,264.000000=1.000000=12.000000=0
;
#SCROLLS:0.000000=1.000000
,16.000000=2.000000
,16.250000=0.500000
,17.000000=2.000000
,17.250000=0.500000
,18.000000=2.000000
,18.250000=0.500000
,18.750000=1.000000
,20.000000=2.000000
,20.250000=0.500000
,21.000000=2.000000
,21.250000=0.500000
,22.000000=2.000000
,22.250000=0.500000
,22.750000=1.000000
,24.000000=2.000000
,24.250000=0.500000
,25.000000=2.000000
,25.250000=0.500000
,26.000000=2.000000
,26.250000=0.500000
,26.750000=1.000000
,106.500000=0.000000
,107.250000=1.000000
,110.500000=0.000000
,111.250000=1.000000
,114.500000=0.000000
,114.750000=2.000000
,115.000000=1.000000
,115.500000=0.000000
,115.750000=2.000000
,116.000000=1.000000
,164.000000=1.100000
,164.500000=1.200000
,165.000000=1.300000
,166.500000=1.200000
,167.000000=1.100000
,167.500000=1.000000
,266.500000=0.000000
,267.250000=1.000000
,270.500000=0.000000
,271.250000=1.000000
,274.500000=0.000000
,275.250000=1.000000
,277.750000=0.000000
,278.000000=2.000000
,278.250000=1.000000
,282.500000=0.000000
,283.250000=1.000000
,286.500000=0.000000
,287.250000=1.000000
,290.500000=0.000000
,291.250000=1.000000
,293.750000=0.000000
,294.250000=1.000000
;
#FAKES:;
#LABELS:0.000000=Song Start
;
#ATTACKS:TIME=6.880000:LEN=0.860000:MODS=:TIME=6.880000:LEN=0.860000:MODS=:TIME=6.878997:LEN=0.860000:MODS=:TIME=6.878997:LEN=0.860000:MODS=:TIME=6.878997:LEN=0.860000:MODS=:TIME=6.878997:LEN=0.860000:MODS=:TIME=6.878997:LEN=0.860000:MODS=:TIME=6.878997:LEN=0.860000:MODS=:TIME=6.878997:LEN=0.860000:MODS=:TIME=6.868997:LEN=0.860000:MODS=:TIME=6.873996:LEN=0.860000:MODS=:TIME=6.868997:LEN=0.860000:MODS=:TIME=6.868997:LEN=0.860000:MODS=:TIME=6.868997:LEN=0.860000:MODS=:TIME=6.868997:LEN=0.860000:MODS=:TIME=6.868997:LEN=0.860000:MODS=:TIME=6.868997:LEN=0.860000:MODS=:TIME=6.868997:LEN=0.860000:MODS=:TIME=6.868997:LEN=0.860000:MODS=:TIME=6.868997:LEN=0.860000:MODS=:TIME=6.868997:LEN=0.860000:MODS=:TIME=6.868997:LEN=0.860000:MODS=;
#NOTES:
// measure 0
0000
0000
0000
0000
,  // measure 1
0000
0000
0000
0000
,  // measure 2
0000
0000
0000
0000
,  // measure 3
0000
0000
0000
0000
,  // measure 4
1MM1
0000
0000
0000
1MM1
0000
0000
0000
1MM1
0000
0000
1000
0000
0000
0010
0000
,  // measure 5
1M1M
0000
0000
0000
1M1M
0000
0000
0000
1M1M
0000
0000
0010
0000
0000
0100
0000
,  // measure 6
M11M
0000
0000
0000
M11M
0000
0000
0000
M11M
0000
0000
1000
0000
0000
0001
0000
,  // measure 7
0M00
00M0
0000
0000
M00M
0000
0000
M000
000M
0000
000M
0000
M000
00M0
0M00
00M0
,  // measure 8
M000
000M
00M0
0M00
M000
00M0
M000
000M
M000
00M0
0M00
000M
M000
000M
0M00
000M
,  // measure 9
M000
0M00
00M0
000M
00M0
0M00
M000
00M0
M000
0M00
00M0
0M00
M000
00M0
0M00
00M0
,  // measure 10
M000
000M
M000
00M0
M000
000M
00M0
000M
M000
0M00
00M0
000M
M000
00M0
M000
0M00
,  // measure 11
M000
000M
0M00
00M0
0M00
000M
M000
00M0
M000
0M00
00M0
0M00
M000
0M00
00M0
000M
,  // measure 12
M000
0000
0000
0000
000M
0000
0000
0000
0M00
0000
0000
0000
00M0
0000
0000
0000
0M00
0000
0000
0000
000M
0000
00M0
0000
0000
0000
00M0
0000
000M
0000
M000
00M0
,  // measure 13
M000
0000
0000
0000
0M00
0000
0000
0000
00M0
0000
0000
0000
000M
0000
0000
0000
0M00
0000
00M0
M000
00M0
0000
0M00
0000
000M
M000
000M
0000
00M0
0000
000M
0M00
,  // measure 14
000M
0000
M000
000M
0M00
0000
0M00
000M
M000
0000
0M00
00M0
0000
00M0
0M00
0000
,  // measure 15
0000
0000
0000
0000
,  // measure 16
0000
0000
0000
0000
0000
0000
0000
0001
,  // measure 17
0100
0010
0000
0000
1001
0000
0000
1000
0001
0000
0001
0000
1000
0010
0100
0010
,  // measure 18
1000
0001
0010
0100
1000
0010
1000
0001
1000
0010
0100
0001
1000
0001
0100
0001
,  // measure 19
1000
0100
0010
0001
0010
0100
1000
0010
1000
0100
0010
0100
1000
0010
0100
0010
,  // measure 20
1000
0001
1000
0010
1000
0001
0010
0001
1000
0100
0010
0001
1000
0010
1000
0100
,  // measure 21
1000
0001
0100
0010
0100
0001
1000
0010
1000
0100
0010
0100
1000
0100
0010
0001
,  // measure 22
1000
0000
0000
0000
0001
0000
0000
0000
0100
0000
0000
0000
0010
0000
0000
0000
0100
0000
0000
0000
0001
0000
0010
0000
0000
0000
0010
0000
0001
0000
1000
0010
,  // measure 23
1000
0000
0000
0000
0100
0000
0000
0000
0010
0000
0000
0000
0001
0000
0000
0000
0100
0000
0010
1000
0010
0000
0100
0000
0001
1000
0001
0000
0010
0000
0001
0100
,  // measure 24
0001
0000
1000
0001
0100
0000
0100
0001
1000
0000
0100
0010
0000
0010
0100
0000
,  // measure 25
1000
0000
0100
0000
0010
0000
0001
0000
0100
0010
0100
0010
0100
0000
0001
0000
4000
0040
0000
0000
0000
0000
0000
0000
0000
0000
0000
0000
0000
0000
3000
0030
,  // measure 26
0100
0001
0010
0001
0100
0001
0010
0001
0100
0001
0010
0000
0000
0000
0000
0000
,  // measure 27
0001
0010
0100
1000
0001
0010
0100
1000
0001
0010
0100
0000
0000
0000
0000
0000
,  // measure 28
1000
0001
0100
0001
1000
0001
0100
0001
1000
0001
0100
0000
0000
0000
0010
0000
,  // measure 29
0100
0100
0001
0010
0100
1000
0010
1000
0000
0000
0001
0000
0001
0000
0001
0000
,  // measure 30
1000
0010
0100
0010
1000
0010
0100
0010
1000
0010
0100
0000
0001
0010
0100
1000
,  // measure 31
0001
0000
0010
0000
0100
0000
0010
0000
0001
0000
0010
0000
0100
0000
0010
0000
0001
0000
0010
0000
0200
0000
0300
0000
1000
0001
1000
0001
1000
0000
0010
0000
,  // measure 32
0100
0001
1000
0010
0100
0001
1000
0010
0100
0001
1000
0000
0001
1000
0100
1000
,  // measure 33
0010
0000
0000
0010
0000
0000
0100
0000
0000
0001
0000
0000
0010
0000
0000
0100
0000
0000
1000
0000
0000
0001
0000
0000
0000
0000
0000
0000
0000
0000
2000
0000
0000
3000
0000
0000
0001
0000
0100
0000
0001
0000
1000
0000
0100
0000
1000
0000
,  // measure 34
0001
0000
0100
0000
0010
0000
1000
0000
0100
0000
0010
0000
0001
0000
1000
0000
0010
0000
0100
0000
0001
0000
1000
0000
0001
0010
0001
0010
0002
0000
0000
0000
,  // measure 35
1003
0000
0100
0000
1000
0000
0001
0000
0010
0000
0100
0000
0010
0000
0001
0000
1000
0000
0001
0000
0010
0000
0001
0000
4000
0400
0000
0000
0000
0000
3000
0300
,  // measure 36
0010
0000
0001
0000
0100
0000
0001
0000
1000
0000
0100
0000
0010
0000
0100
0000
1000
0000
0001
0000
0100
0000
0001
0000
1000
0100
1000
0100
2000
0000
0000
0000
,  // measure 37
3001
0000
0001
0000
1000
0000
0001
0000
0100
0000
0001
0000
1000
0000
0100
0000
0010
0000
0001
0000
0100
0000
0001
0000
1000
0100
1000
0100
2000
0000
0000
0000
,  // measure 38
3001
0000
0100
0000
0010
0000
1000
0000
0100
0000
0010
0000
0001
0000
0100
0000
0010
0000
0100
0000
0001
0000
1000
0000
0001
0100
0001
0100
0002
0000
0000
0000
,  // measure 39
0013
0000
0001
0000
1000
0000
0010
0000
1000
0000
0100
0000
1000
0000
0001
0000
0100
0000
0010
0000
0100
0000
0001
0000
0010
0100
0010
0100
0020
0000
0000
0000
,  // measure 40
0031
0000
0100
0000
0010
0000
0000
0000
0010
0000
0100
0000
0001
0000
0000
0000
0010
0000
0000
0000
0100
0000
0000
0000
1000
0010
1000
0010
2000
0000
0000
0000
,  // measure 41
3002
0000
0203
0000
0320
0000
2030
0000
3200
0000
0320
0000
0032
0203
0000
0000
,  // measure 42
0301
1000
0100
1000
0001
0010
0100
1000
0001
0100
0010
0100
0001
1000
0010
1000
,  // measure 43
0001
0010
0100
0010
0001
1000
0100
1000
0010
0100
0010
1000
0001
0010
0100
1000
,  // measure 44
0001
1000
0100
0010
0001
1000
0100
1000
0010
1000
0001
1000
0100
0010
0100
1000
,  // measure 45
0001
0010
0100
0010
0001
1000
0010
0100
0000
0000
0100
0000
0001
0000
0001
0000
,  // measure 46
0010
0000
0000
0000
0001
0000
0000
0000
1000
0000
0000
0000
0001
0000
0000
0000
0100
0000
0000
0000
0001
0000
0010
0000
0000
0000
0010
0000
0001
0000
1000
0100
,  // measure 47
1000
0000
0000
0000
0010
0000
0000
0000
0100
0000
0000
0000
0001
0000
0000
0000
0100
0000
0001
1000
0001
0000
0010
0000
0001
0100
0001
0000
1000
0000
0010
0100
,  // measure 48
0010
0000
1000
0001
0100
0000
0100
0001
1000
0000
0001
0010
0000
0010
0001
0000
,  // measure 49
0100
0000
0001
0000
1000
0000
0001
0000
0100
0010
0100
0010
0100
0000
0001
0000
4000
0040
0000
0000
0000
0000
0000
0000
0000
0000
0000
0000
0000
0000
3000
0030
,  // measure 50
0100
0010
1000
0010
0100
0001
0010
0100
0010
0001
1000
0001
0100
0010
1000
0001
,  // measure 51
0010
0100
1000
0001
0100
0001
0010
0100
1000
0100
0010
0001
1000
0010
0100
0001
,  // measure 52
1000
0001
0010
0001
1000
0001
0100
0001
1000
0100
0010
0001
1000
0010
1000
0001
,  // measure 53
1000
0100
0010
0001
0100
0010
1000
0100
0000
0000
0100
0000
1000
0000
1000
0000
,  // measure 54
0001
0010
0001
1000
0100
1000
0001
0100
0010
1000
0010
0100
0001
0010
0100
0010
,  // measure 55
0001
1000
0010
0100
0001
1000
0100
1000
0001
1000
0010
0100
0010
1000
0010
0100
,  // measure 56
0001
1000
0100
0010
0001
1000
0001
0010
0001
1000
0010
1000
0001
0100
0010
1000
,  // measure 57
0100
0010
0001
1000
0100
0010
0001
0100
0001
0000
0001
0100
0010
0000
0010
0000
,  // measure 58
0100
0001
1000
0010
1000
0100
0010
0100
1000
0001
0100
0010
0100
0001
0010
0100
,  // measure 59
0010
0001
1000
0010
0100
0010
1000
0100
0010
0100
1000
0001
0100
0010
1000
0100
,  // measure 60
0010
0001
0010
0100
1000
0001
0100
0010
1000
0001
0010
0100
1000
0100
0010
0100
,  // measure 61
1000
0010
0000
0000
0010
0000
0000
0010
1000
0001
0010
0001
1000
0001
0100
0010
,  // measure 62
1000
0000
0000
0000
0001
0000
0000
0000
1000
0000
0000
0000
0100
0000
0000
0000
1000
0000
0000
0000
0001
0000
0010
0000
0000
0000
0010
0000
0001
0000
1000
0100
,  // measure 63
1000
0000
0000
0000
0010
0000
0000
0000
0100
0000
0000
0000
0001
0000
0000
0000
0010
0000
0001
1000
0001
0000
0010
0000
0100
1000
0100
0000
0010
0000
0001
0100
,  // measure 64
0001
0000
1000
0001
0010
0000
0010
0001
1000
0000
0100
0010
0000
0010
0100
0000
,  // measure 65
1000
0000
0001
0000
0100
0000
0010
0000
1000
0100
1000
0100
1000
0000
0001
0000
0400
0004
0000
0000
0000
0000
0000
0000
0000
0000
0000
0000
0000
0000
0300
0003
,  // measure 66
1000
0010
0100
0001
1000
0010
0100
0001
1000
0010
0100
0000
0000
0000
0000
0000
,  // measure 67
0001
1000
0100
1000
0001
1000
0100
1000
0001
1000
0100
0000
0000
0000
0000
0000
,  // measure 68
1000
0001
0100
0001
1000
0001
0100
0001
1000
0001
0100
0000
0000
0000
0000
0000
,  // measure 69
0001
0001
0010
0100
1000
0010
0100
0001
0000
0000
0000
0000
1000
0010
0100
0010
,  // measure 70
1000
0001
0100
0010
1000
0001
0100
0010
1000
0001
0100
0000
0000
0000
0000
0000
,  // measure 71
0001
0010
0100
1000
0001
0010
0100
1000
0001
0010
0100
0000
0000
0000
0000
0000
,  // measure 72
1000
0010
0100
0010
1000
0010
0100
0010
1000
0010
0100
0000
0000
0000
0000
0000
,  // measure 73
0010
0010
1000
0001
1000
0100
0010
0001
0000
0000
0000
0000
1000
0001
0100
0001
;
