#VERSION:0.83;
#TITLE:Yet another bonus;
#SUBTITLE:;
#ARTIST:4mat;
#TITLETRANSLIT:;
#SUBTITLETRANSLIT:;
#ARTISTTRANSLIT:;
#GENRE:;
#ORIGIN:;
#CREDIT:;
#BANNER:yetanotherbonus-banner.png;
#BACKGROUND:yetanotherbonus-bg.png;
#PREVIEWVID:;
#JACKET:;
#CDIMAGE:;
#DISCIMAGE:;
#LYRICSPATH:;
#CDTITLE:;
#MUSIC:yet another bonus.ogg;
#OFFSET:0.010000;
#SAMPLESTART:8.411800;
#SAMPLELENGTH:18.400999;
#SELECTABLE:YES;
#BPMS:0.000=107.125;
#STOPS:;
#DELAYS:;
#WARPS:;
#TIMESIGNATURES:0.000=4=4;
#TICKCOUNTS:0.000=4;
#COMBOS:0.000=1;
#SPEEDS:0.000=1.000=0.000=0;
#SCROLLS:0.000=1.000;
#FAKES:;
#LABELS:0.000=Song Start;
#BGCHANGES:;
#KEYSOUNDS:;
#ATTACKS:
;

//---------------dance-single - ----------------
#NOTEDATA:;
#CHARTNAME:No Bonus;
#STEPSTYPE:dance-single;
#DESCRIPTION:;
#CHARTSTYLE:;
#DIFFICULTY:Beginner;
#METER:1;
#RADARVALUES:0.112851,0.155319,0.009294,0.092936,0.000000,85.000000,84.000000,1.000000,10.000000,0.000000,0.000000,0.000000,0.000000,0.000000,0.112851,0.155319,0.009294,0.092936,0.000000,85.000000,84.000000,1.000000,10.000000,0.000000,0.000000,0.000000,0.000000,0.000000;
#CREDIT:Phil Lee;
#NOTES:
// measure 0
0000
0000
0000
0000
,  // measure 1
0000
0000
0000
0000
,  // measure 2
0000
1000
0000
1000
,  // measure 3
0000
1000
0000
0001
,  // measure 4
0001
0001
0000
1000
,  // measure 5
0000
0010
0000
0100
,  // measure 6
0000
0010
0000
1000
,  // measure 7
0000
0100
0000
0010
,  // measure 8
0000
0100
0000
1000
,  // measure 9
0000
0001
0000
0100
,  // measure 10
0000
0001
0000
0010
,  // measure 11
0000
0001
0000
0100
,  // measure 12
0000
0002
0000
0000
,  // measure 13
0000
0000
0000
0003
,  // measure 14
2000
0000
0000
0000
,  // measure 15
0000
0000
0000
3000
,  // measure 16
0000
0200
0000
0000
,  // measure 17
0000
0000
0000
0300
,  // measure 18
0020
0000
0000
0000
,  // measure 19
0000
0000
0000
0030
,  // measure 20
0001
0001
0001
0000
,  // measure 21
0000
0001
0000
0001
,  // measure 22
1000
1000
1000
0000
,  // measure 23
0000
1000
0000
1000
,  // measure 24
0000
1000
0000
0001
,  // measure 25
0000
0100
0000
0010
,  // measure 26
0000
0100
0000
0001
,  // measure 27
0000
0010
0000
0001
,  // measure 28
0000
1000
0000
0100
,  // measure 29
0000
1000
0000
0001
,  // measure 30
0000
1000
0000
0001
,  // measure 31
0000
0100
0000
0001
,  // measure 32
1000
0000
0000
0001
,  // measure 33
0100
0000
0000
1001
,  // measure 34
1000
0000
0000
0100
,  // measure 35
0010
0000
0000
0100
,  // measure 36
1000
1000
1000
0000
,  // measure 37
0000
0001
0000
0100
,  // measure 38
0001
0001
0001
0000
,  // measure 39
1000
0000
1000
1000
,  // measure 40
2000
0000
3200
0000
,  // measure 41
0320
0000
0000
0000
,  // measure 42
0032
0000
0203
0000
,  // measure 43
0320
0000
0000
0000
,  // measure 44
0030
1000
0000
0100
,  // measure 45
0000
1000
0000
0010
,  // measure 46
0000
0100
0000
0010
,  // measure 47
0000
1000
0000
0001
;

//---------------dance-single - ----------------
#NOTEDATA:;
#CHARTNAME:One Bonus;
#STEPSTYPE:dance-single;
#DESCRIPTION:;
#CHARTSTYLE:;
#DIFFICULTY:Easy;
#METER:3;
#RADARVALUES:0.229685,0.310638,0.092936,0.074349,0.074349,173.000000,163.000000,10.000000,8.000000,0.000000,0.000000,0.000000,0.000000,0.000000,0.229685,0.310638,0.092936,0.074349,0.074349,173.000000,163.000000,10.000000,8.000000,0.000000,0.000000,0.000000,0.000000,0.000000;
#CREDIT:Phil Lee;
#NOTES:
0000
0000
0000
0000
,
0000
0000
0000
0000
,
0000
1000
0000
1000
,
0000
0001
0000
0001
,
0001
0100
0001
1000
,
0010
1000
0100
0010
,
0100
1000
0010
0100
,
0001
1000
0100
1000
,
0001
0001
1000
1000
,
0010
0010
0100
0100
,
0001
0100
0010
0100
,
0001
0010
0100
0010
,
0001
0100
0010
1000
,
0100
0010
0100
1000
,
0010
1000
0100
0010
,
0001
0010
0100
0010
,
0001
1000
0010
1000
,
0100
0010
0001
0100
,
0001
1000
0100
0010
,
0001
0100
0010
0100
,
0001
0010
0100
2000
,
0000
0000
0000
3000
,
0001
0010
0100
0020
,
0000
0000
0000
0030
,
0000
0000
0000
0000
0000
0000
0000
0000
0001
0000
0000
0001
0000
0000
0000
0001
,
0000
0000
0000
0000
0000
0000
0000
0000
1000
0000
0000
1000
0000
0000
0000
1000
,
0000
0000
0000
0000
0000
0000
0000
0000
0001
0000
0000
0000
0001
0000
0000
0001
,
0000
0000
0000
0000
0000
0000
0000
0000
0010
0000
0000
0010
0000
0000
0000
0010
,
0000
0000
0000
0000
0000
0000
0000
0000
0001
0000
0000
0001
0000
0000
0000
0001
,
0000
0000
0000
0000
0000
0000
0000
0000
0100
0000
0000
0100
0000
0000
0000
0100
,
0000
0000
0000
0000
0000
0000
0000
0000
0010
0000
0000
0000
0010
0000
0000
0010
,
0000
0000
0000
0000
0000
0000
0000
0000
1000
0000
0000
1000
0000
0000
0000
1000
,
0000
0001
0010
0100
,
1000
0000
0000
0000
0010
0000
0000
0000
0000
0100
0000
0000
0100
0000
0000
0000
,
0001
1000
0100
0010
,
0001
0100
0010
0100
,
0001
1000
0100
0010
,
0100
1000
0010
0100
,
0001
0010
0100
0010
,
0001
0000
0000
0001
0000
0000
0000
0000
1001
0000
0000
0000
1001
0000
0000
0000
,
0002
0013
0200
1300
,
0002
1003
0010
1000
,
0200
1300
0002
0103
,
0002
0013
0100
1000
,
0001
0101
0001
0101
,
1000
1010
1000
1010
,
0001
0011
0001
0011
,
1000
1100
1000
1100
;

//---------------dance-single - ----------------
#NOTEDATA:;
#CHARTNAME:Multiple Bonuses;
#STEPSTYPE:dance-single;
#DESCRIPTION:;
#CHARTSTYLE:;
#DIFFICULTY:Medium;
#METER:5;
#RADARVALUES:0.330586,0.355945,0.148698,0.027881,0.167285,249.000000,233.000000,16.000000,3.000000,0.000000,0.000000,0.000000,0.000000,0.000000,0.330586,0.355945,0.148698,0.027881,0.167285,249.000000,233.000000,16.000000,3.000000,0.000000,0.000000,0.000000,0.000000,0.000000;
#CREDIT:Phil Lee;
#NOTES:
0000
0000
0000
0000
,
0000
0000
0000
0000
,
0000
1001
0000
1001
,
0000
0000
1001
0000
0000
0000
0001
0100
,
0001
0010
0100
1000
,
0010
0000
0100
0000
0010
0000
1000
0100
,
1000
0001
0100
0010
,
0100
0000
0001
0000
0010
0000
0100
1000
,
0100
0010
0001
1000
,
0010
0000
1000
0000
0001
0000
0100
0010
,
0100
0001
0010
0100
,
1000
0000
0100
0000
0010
0000
0001
0100
,
0001
1000
0010
0100
,
0010
0000
1000
0000
0100
0000
0010
0001
,
0010
0100
1000
0001
,
0100
0000
0010
0000
1000
0000
0001
0010
,
0001
0100
0010
0100
,
0001
0000
0010
0000
0100
0000
1000
0010
,
1000
0100
0010
0100
,
1000
0000
0010
0000
0100
0000
0001
0010
,
0001
0010
0001
0010
0001
0010
0001
0000
,
1001
0000
1000
0100
1000
0000
0010
0010
,
1000
0010
1000
0010
1000
0010
1000
0000
,
1001
0000
0001
0010
0001
0000
0100
0100
,
0100
0000
0000
0000
0101
0000
0001
0000
0001
0000
0000
1000
0000
1000
0000
1000
,
0000
0000
0000
0000
1010
0000
1000
0000
1000
0000
0000
0010
0000
0010
0000
0010
,
0000
0000
0000
0000
0110
0000
0000
0000
0100
0000
0100
0000
0001
0000
0000
0001
,
0000
0000
0000
0000
0011
0000
0010
0000
0010
0000
0000
0100
0000
1000
0000
1000
,
0000
0000
0000
0000
1100
0000
1000
0000
1000
0000
0000
0001
0000
0001
0000
0001
,
0000
0000
0000
0000
0101
0000
0001
0000
0001
0000
0000
0100
0000
0100
0000
0100
,
0000
0000
0000
0000
1001
0000
0000
0000
0001
0000
0001
0000
1000
0000
0000
1000
,
0000
0000
0000
0000
1010
0000
0010
0000
0010
0000
0000
0100
0000
0001
0000
0001
,
0000
0000
1000
0000
0000
1000
0000
1000
0000
0000
0100
0000
0010
0000
0000
0000
,
0100
0000
0010
0000
0100
0000
0000
0100
0000
1000
0000
0000
1000
0000
0001
0000
,
0010
0000
0001
0000
0010
0000
0000
0100
0000
0100
0000
0000
1000
0000
0010
0000
,
1000
0000
0010
0000
1000
0000
0000
0001
0000
0000
1000
0000
0100
0000
1000
0000
,
0100
0000
0000
0010
0000
0000
0100
0000
0000
0010
0000
0000
0000
0000
0000
0000
,
0100
0000
1001
0000
0010
0000
1001
0001
,
0001
0000
0000
0100
0000
0000
0001
0000
0000
0100
0000
0000
0000
0000
0000
0000
,
0002
0000
0000
0023
0000
0000
0230
0300
0100
0000
0000
0000
1001
0000
0001
0000
,
0001
0000
0010
0000
0001
0000
0000
0010
0000
0000
0000
0000
0100
0000
0000
0000
,
1000
0000
0010
0000
1000
0000
0000
0010
0000
0000
0000
0000
1000
0000
0000
0000
,
0100
0000
0010
0000
0100
0000
0000
0010
0000
0000
0000
0000
0001
0000
0000
0000
,
0010
0000
0100
0000
0010
0000
0000
0100
0000
0000
0000
0000
1000
0000
0000
0000
,
0001
0100
0010
0100
,
0001
0000
0010
0000
0100
0000
1000
0010
,
1000
0100
0010
0100
,
1000
0000
0010
0000
0100
0000
0001
0010
;

//---------------dance-single - ----------------
#NOTEDATA:;
#CHARTNAME:Tons of Bonuses;
#STEPSTYPE:dance-single;
#DESCRIPTION:;
#CHARTSTYLE:;
#DIFFICULTY:Hard;
#METER:7;
#RADARVALUES:0.460697,0.467177,0.260221,0.027881,0.413565,347.000000,319.000000,28.000000,3.000000,0.000000,0.000000,0.000000,0.000000,0.000000,0.460697,0.467177,0.260221,0.027881,0.413565,347.000000,319.000000,28.000000,3.000000,0.000000,0.000000,0.000000,0.000000,0.000000;
#CREDIT:Phil Lee;
#OFFSET:0.010000;
#BPMS:0.000000=107.125000
;
#STOPS:;
#DELAYS:;
#WARPS:;
#TIMESIGNATURES:0.000000=4=4
;
#TICKCOUNTS:0.000000=4
;
#COMBOS:0.000000=1
;
#SPEEDS:0.000000=0.750000=0.000000=0
,14.000000=1.000000=1.000000=0
;
#SCROLLS:0.000000=1.000000
;
#FAKES:;
#LABELS:0.000000=Song Start
;
#NOTES:
0000
0000
0000
0000
,
0000
0000
0000
0000
,
0001
0000
0000
0100
0010
0000
1000
0000
0100
0000
0010
0000
0001
0000
0100
0000
,
0001
0000
0000
1000
0010
0000
0100
0000
0001
0000
0000
0000
1000
0100
1000
0000
,
0010
0000
0000
0000
1001
0000
0000
0000
1000
0000
0000
1000
0010
0000
0000
0000
,
0100
0000
0000
0000
1010
0000
0000
0000
0010
0000
0000
0010
1000
0000
0001
0000
,
1000
0000
0000
0000
1001
0000
0000
0000
0001
0000
0000
0001
0010
0000
0000
0000
,
0100
0000
0000
0000
1100
0000
0000
0000
0100
0000
0000
0100
1000
0000
0010
0000
,
1000
0000
0000
0000
0101
0000
0000
0000
0001
0000
0000
0001
1000
0000
0000
0000
,
0001
0000
0000
0000
1010
0000
0000
0000
0010
0000
0000
0010
1000
0000
0010
0000
,
0100
0000
0000
0000
1001
0000
0000
0000
0001
0000
0000
0001
0010
0000
0000
0000
,
0001
0000
0000
0000
0110
0000
0000
0000
1000
0000
0000
1000
0010
0000
0100
0000
,
0010
0000
0000
0000
1001
0000
0000
0000
0001
0000
0000
0001
0010
0000
0000
0000
,
0100
0000
0000
0000
0011
0000
0000
0000
0010
0000
0000
0010
0001
0000
1000
0000
,
0001
0000
0000
0000
1001
0000
0000
0000
1000
0000
0000
1000
0010
0000
0000
0000
,
0100
0000
0000
0000
0101
0000
0000
0000
0100
0000
0000
0100
0001
0000
0010
0000
,
0001
0000
0000
0000
1100
0000
0000
0000
1000
0000
0000
1000
0001
0000
0000
0000
,
1000
0000
0000
0000
0011
0000
0000
0000
0010
0000
0000
0010
0001
0000
0010
0000
,
0100
0000
0000
0000
1001
0000
0000
0000
1000
0000
0000
1000
0010
0000
0000
0000
,
1000
0000
0000
0000
0110
0000
0000
0000
1000
0000
0000
1000
0001
0000
0010
0000
,
0001
0100
0001
0000
1000
0000
0001
0100
0001
0000
1000
0000
0001
0100
0001
0000
,
1000
0000
0000
0000
0100
0000
0000
0100
0000
0010
0100
0000
1000
0000
0001
0000
,
1000
0010
1000
0000
0001
0000
1000
0000
0100
0000
1000
0000
0001
0000
0000
0000
,
0000
0000
1000
0100
1000
0000
0010
0000
0100
0000
0001
0000
0100
0000
0010
0000
,
0000
0000
0000
0000
1001
0000
1000
0000
0001
0000
0100
0010
0000
1000
0000
0001
,
0000
0000
0000
0000
1010
0000
1000
0100
1000
0000
0001
0100
0000
0010
0000
1000
,
0000
0000
0000
0000
0101
0000
0000
0000
0001
0000
1000
0000
0100
1000
0000
0001
,
0000
0000
0000
0000
0101
0000
0100
0010
0100
0000
0001
1000
0000
0010
0000
0100
,
0001
0010
0000
0001
0010
0000
0100
0000
1000
0000
0100
0010
0000
0001
0000
1000
,
0000
0000
0000
0000
0011
0000
0001
0100
0001
0000
1000
0100
0000
0010
0000
0001
,
0000
0000
0000
0000
1100
0000
0000
0000
1000
0000
0001
0000
0100
0001
0000
1000
,
0000
0000
0000
0000
1100
0000
0100
0010
0100
0000
1000
0001
0000
0010
0000
0100
,
1000
0000
0010
0100
0000
0001
0000
0100
0000
0100
0000
0001
0010
0001
0000
0000
,
0100
0000
0100
0000
0010
0100
0000
0010
0000
1000
0000
0000
1000
0000
0001
0010
,
0001
0000
0010
0000
0100
1000
0000
0100
0000
0010
0000
0000
0001
0000
0100
0000
,
0001
0000
1000
0000
0100
0000
0010
0001
0000
0000
1000
0001
1000
0000
0001
0000
,
0100
0000
0000
0000
1001
0000
0000
0000
1000
0000
0000
0100
1000
0000
0000
0000
,
0010
0000
0000
0000
0110
0000
0000
0000
1000
0000
0000
0001
0100
0000
0010
0000
,
1000
0000
0000
0000
1001
0000
0000
0000
1000
0000
0000
0001
0100
0000
0000
0000
,
0002
0000
0003
0020
0000
0030
0200
0300
1100
0000
0000
0000
1100
0000
0000
0000
,
1000
0000
0001
0000
0010
0000
0000
0100
0000
1000
0001
1000
0001
0000
0000
0000
,
0010
0000
0001
0000
1000
0000
0000
0010
0000
0100
0001
0100
0001
0000
0000
0000
,
1000
0000
0100
0000
0010
0000
0000
0001
0000
0100
0010
0100
0010
0000
0000
0000
,
1000
0000
0001
0000
0100
0000
0000
0001
0000
0010
0100
0010
0100
0000
0000
0000
,
1000
0000
0000
0001
0010
0000
0100
0000
1000
0000
0001
0000
0100
0000
0010
0000
,
1000
0000
0000
0001
0100
0000
0010
0000
0100
0000
0001
0000
0010
0000
0001
0000
,
1000
0000
0000
0100
1000
0000
0001
0000
1000
0000
0010
0000
1000
0000
0001
0000
,
0100
0000
0000
0001
0010
0000
0100
0000
1000
0000
0001
0000
0100
0000
0010
0000
;

//---------------dance-single - ----------------
#NOTEDATA:;
#CHARTNAME:Jackpot;
#STEPSTYPE:dance-single;
#DESCRIPTION:;
#CHARTSTYLE:;
#DIFFICULTY:Challenge;
#METER:8;
#RADARVALUES:0.576203,0.556890,0.120817,0.492560,0.724900,434.000000,421.000000,13.000000,53.000000,0.000000,0.000000,2.000000,6.000000,18.000000,0.576203,0.556890,0.120817,0.492560,0.724900,434.000000,421.000000,13.000000,53.000000,0.000000,0.000000,2.000000,6.000000,18.000000;
#CREDIT:Phil Lee;
#OFFSET:0.010000;
#BPMS:0.000000=107.125000
;
#STOPS:;
#DELAYS:;
#WARPS:;
#TIMESIGNATURES:0.000000=4=4
;
#TICKCOUNTS:0.000000=4
;
#COMBOS:0.000000=1
;
#SPEEDS:0.000000=1.000000=0.000000=0
,48.000000=1.500000=8.000000=0
,56.000000=1.000000=8.000000=0
,64.000000=1.500000=8.000000=0
,72.000000=1.000000=8.000000=0
,156.125000=1.500000=0.125000=0
,156.250000=1.000000=0.125000=0
,157.625000=1.500000=0.125000=0
,157.750000=1.000000=0.125000=0
;
#SCROLLS:0.000000=7.500000
,0.250000=0.000000
,7.000000=1.000000
,15.000000=2.000000
,15.125000=0.000000
,15.250000=2.000000
,15.375000=0.000000
,15.500000=2.000000
,15.625000=0.000000
,15.750000=1.000000
,95.500000=0.500000
,97.500000=1.000000
,99.750000=0.500000
,101.500000=1.000000
,103.750000=0.500000
,106.000000=1.000000
,107.750000=0.500000
,109.500000=1.000000
,116.000000=0.500000
,117.500000=1.000000
,120.000000=0.500000
,122.000000=1.000000
,124.000000=0.500000
,125.500000=1.000000
,142.500000=0.000000
,142.625000=2.000000
,142.750000=0.000000
,142.875000=2.000000
,143.000000=0.000000
,143.125000=2.000000
,143.250000=1.000000
,143.500000=0.000000
,143.625000=2.000000
,143.750000=1.000000
,144.000000=1.250000
,144.750000=0.750000
,145.500000=1.250000
,146.250000=0.750000
,152.000000=1.250000
,152.750000=0.750000
,153.500000=1.250000
,154.250000=0.750000
,156.000000=1.250000
,156.750000=0.750000
,157.500000=1.250000
,158.000000=0.750000
,160.020828=1.000000
;
#FAKES:0.000000=0.250000
,105.000000=0.250000
,121.000000=1.000000
,146.750000=4.500000
,154.750000=0.500000
,158.000000=1.750000
;
#LABELS:0.000000=Song Start
;
#ATTACKS:TIME=8.430596:LEN=0.140023:MODS=,*100 -50% Flip,*100 25% Centered:TIME=8.570620:LEN=0.140024:MODS=,*100 50% Centered,*100 10% Flip:TIME=8.710644:LEN=0.140023:MODS=,*100 75% Centered,*100 -25% Flip:TIME=8.850667:LEN=2.380397:MODS=,*100 0% Centered,*100 0% Flip:TIME=43.856503:LEN=0.140022:MODS=*7 -15% Centered:TIME=44.136547:LEN=0.140022:MODS=*7 15% Centered:TIME=43.996525:LEN=0.140022:MODS=*7 0% Centered:TIME=44.276569:LEN=2.240376:MODS=,*7 0% Centered:TIME=79.842499:LEN=0.140022:MODS=,*100 25% Centered,*100 10% Flip:TIME=79.982521:LEN=0.140022:MODS=,*100 50% Centered,*100 20% Flip:TIME=80.122543:LEN=0.140022:MODS=,*100 75% Centered,*100 -50% Flip:TIME=80.262566:LEN=0.140022:MODS=,*100 0% Centered,*100 0% Flip:TIME=80.402588:LEN=0.140030:MODS=*100 50% Centered,*100 -10% Flip:TIME=80.542618:LEN=2.240372:MODS=,*100 0% Centered,*100 0% Flip;
#NOTES:
M00M
0000
0000
0000
,
0000
0000
0000
0000
,
1000
0000
0000
0010
0100
0000
0010
0100
0001
0010
0001
0000
1000
0000
0010
0100
,
0001
0000
0000
1000
0100
0000
1000
0100
0010
0100
1000
0000
0001
0100
0001
0000
,
1000
0000
0000
0001
0100
0000
0001
0100
0010
0100
0001
0000
1000
0000
0100
1000
,
0001
0000
0000
1000
0100
0000
1000
0100
0010
0100
1000
0000
0001
0000
1000
0100
,
0010
0000
0000
0001
0100
0000
0001
0100
0010
1000
0001
0000
1000
0000
0100
0010
,
0100
0000
0000
1000
0001
0000
1000
0001
0100
0010
0100
0000
0001
0000
1000
0100
,
1000
0000
0000
0001
0100
0000
0001
0100
0010
1000
0100
0000
1000
0000
0001
0010
,
0001
0000
0000
0100
0010
0000
0100
0010
1000
0001
1000
0000
0100
0000
1000
0001
,
0010
0000
0000
0001
0100
0000
0001
0100
0001
0010
0001
0000
1000
0000
0010
0100
,
0001
0000
0000
1000
0100
0000
1000
0100
0010
0001
0100
0000
0001
0000
1000
0010
,
1000
0000
0002
0003
0110
0000
0002
0003
1000
0000
0000
0100
0010
0000
0002
0003
,
1000
0000
0002
0003
0110
0000
2000
3000
0001
0000
0000
0100
0001
0000
1000
0000
,
0001
0000
0020
0030
1100
0000
2000
3000
0100
0000
0000
0010
0100
0000
2000
3000
,
0001
0000
0200
0300
0011
0000
0002
0003
1000
0000
0000
0001
0100
0000
0010
0000
,
1000
0000
0200
0300
1001
0000
2000
3000
0001
0000
0000
0100
0010
0000
2000
3000
,
0100
0000
0020
0030
0101
0000
0200
0300
0010
0000
0000
0100
0001
0000
1000
0000
,
0100
0000
2000
3000
0101
0000
0002
0003
1000
0000
0000
0001
0100
0000
0002
0003
,
0010
0000
0002
0003
0110
0000
0002
0003
1000
0000
0000
0010
0100
0000
0001
1000
,
1000
0100
1000
0000
1001
0000
1000
0100
1000
0000
1001
0000
1000
0100
1000
0000
,
1001
0000
0000
0000
0001
0000
0000
0001
0000
0100
0010
0000
1000
0010
0100
0010
,
1000
1000
0010
0000
0100
0000
0001
0001
0010
0001
0100
0000
0001
0000
0000
0000
,
0000
0000
1000
0010
1000
0000
0001
0000
0010
0100
1000
0000
0001
0000
0100
0000
,
0000
0000
0000
0000
0000
0000
0001
0000
0001
0000
1000
0001
0000
0010
0000
0002
,
0000
0000
0000
0003
000L
0000
0000
0000
0000
0000
0000
0000
0100
0000
0010
0000
0001
0000
0010
0000
0100
0000
1000
0000
0000
0000
0010
0000
0000
0000
2000
0000
,
0000
0000
0000
3000
L000
0000
0000
0000
00M0
0000
0000
0000
0000
0000
0000
0000
0100
0000
0000
0000
0100
0000
0000
0000
0001
0000
1000
0000
0000
0000
0002
0000
,
0000
0000
0000
0003
000L
0000
0000
0000
0000
0000
0000
0000
0010
0000
0100
0000
0010
0000
0000
0000
0100
0000
0001
0000
0000
0000
0100
0000
0000
0000
0100
0000
,
0001
0010
0000
0010
0001
0000
2000
3000
2000
3000
0200
2300
3000
0002
0003
2000
,
0000
0000
0000
3000
L000
0000
0000
0000
0000
0000
0000
0000
2000
0000
3020
0000
0230
0000
0320
0000
2030
0000
3002
0000
0003
0000
0020
0000
0030
0000
0200
0000
,
0000
0000
0000
0300
0L00
0000
0000
0000
M000
0000
0000
0000
0M00
0000
0000
0000
0200
0000
0300
0000
0200
0000
0300
0000
2000
0000
3020
0000
0030
0000
2000
0000
,
0000
0000
0000
3000
L000
0000
0000
0000
0000
0000
0000
0000
2000
0000
3200
0000
2300
0000
3000
0000
0200
0000
0320
0000
0030
0000
0200
0000
0300
0000
0200
0000
,
1300
0100
0010
0001
0000
0010
0000
0100
0000
0100
1000
0010
0100
1000
0000
0000
,
0100
0000
0100
0001
0010
0100
0000
0010
0000
1001
0000
1000
1001
0000
1000
0010
,
0100
0000
0001
0000
0100
0010
0000
1000
0000
0100
0000
0000
1000
0000
0010
0000
,
1000
0100
0010
0000
0100
0000
1000
0100
0000
0000
0010
0001
0100
0000
0010
0000
,
2000
0000
0000
3100
0000
0000
2000
0000
0000
3010
0000
M000
000M
0000
0000
0000
,
M000
0000
0000
0000
00M0
0000
0000
0000
0M00
0000
0000
000M
M000
0000
1000
0100
,
2000
0000
0000
3001
0000
0000
0020
0000
0000
0130
0000
000M
M000
0000
0000
0000
,
4000
0000
0000
3010
0000
0000
0400
0000
M300
0000
0000
000M
00M0
0000
000M
0000
,
0001
0000
0100
0010
1000
0000
0010
1000
0000
1000
0100
0010
0001
0000
0100
0010
,
0100
0000
0001
0010
0100
0000
0010
0100
0000
0100
1000
0010
1000
0000
0001
0010
,
0001
0000
1000
0010
0100
0000
0010
1000
0000
1000
0001
0010
0100
0000
1000
0010
,
1000
0000
0001
1000
0010
0000
1000
0100
0000
0100
1000
0001
0010
0000
0001
0100
,
0001
0000
0000
1000
0010
0000
1000
0010
0100
0001
1000
0000
0001
0000
0010
0001
,
1000
0000
0000
0010
0100
0000
0010
0100
0001
0010
0001
0000
1000
0000
0001
1000
,
0100
0000
0000
1000
0010
0000
1000
0010
0100
0001
0010
0000
0100
0000
1000
0010
,
1000
0000
0000
0001
0010
0000
0001
0010
0100
0010
0001
0000
1000
0000
0010
0100
;
