#VERSION:0.83;
#TITLE:Without You;
#SUBTITLE:(Dance Mix);
#ARTIST:ShambleTrain;
#TITLETRANSLIT:;
#SUBTITLETRANSLIT:;
#ARTISTTRANSLIT:;
#GENRE:;
#ORIGIN:;
#CREDIT:;
#BANNER:withoutyou-banner.png;
#BACKGROUND:withoutyou-bg.png;
#PREVIEWVID:;
#JACKET:;
#CDIMAGE:;
#DISCIMAGE:;
#LYRICSPATH:;
#CDTITLE:;
#MUSIC:Without You (Dance Mix).ogg;
#OFFSET:0.000000;
#SAMPLESTART:64.167099;
#SAMPLELENGTH:14.000000;
#SELECTABLE:YES;
#BPMS:0.000=135.000;
#STOPS:;
#DELAYS:;
#WARPS:143.146=0.063;
#TIMESIGNATURES:0.000=4=4;
#TICKCOUNTS:0.000=4;
#COMBOS:0.000=1;
#SPEEDS:0.000=1.000=0.000=0;
#SCROLLS:0.000=1.000;
#FAKES:;
#LABELS:0.000=Song Start;
#BGCHANGES:;
#KEYSOUNDS:;
#ATTACKS:
;

//---------------dance-single - ----------------
#NOTEDATA:;
#CHARTNAME:I Can't Live Without You;
#STEPSTYPE:dance-single;
#DESCRIPTION:;
#CHARTSTYLE:;
#DIFFICULTY:Challenge;
#METER:9;
#RADARVALUES:0.619061,0.669845,0.668376,0.470066,0.224016,590.000000,499.000000,91.000000,64.000000,10.000000,0.000000,4.000000,4.000000,0.000000,0.619061,0.669845,0.668376,0.470066,0.224016,590.000000,499.000000,91.000000,64.000000,10.000000,0.000000,4.000000,4.000000,0.000000;
#CREDIT:Phil Lee;
#OFFSET:0.000000;
#BPMS:0.000000=135.000000
;
#STOPS:;
#DELAYS:;
#WARPS:143.187500=0.062500
;
#TIMESIGNATURES:0.000000=4=4
;
#TICKCOUNTS:0.000000=4
;
#COMBOS:0.000000=1
;
#SPEEDS:0.000000=0.000000=0.000000=0
,0.500000=1.000000=6.500000=0
,7.000000=1.500000=0.500000=0
,7.500000=1.000000=0.500000=0
,135.000000=0.750000=1.000000=0
,140.000000=1.000000=4.000000=0
,143.000000=1.500000=0.500000=0
,143.500000=1.000000=0.500000=0
,207.000000=0.750000=1.000000=0
,236.000000=1.500000=3.000000=0
,239.000000=1.000000=1.000000=0
,296.000000=1.500000=8.000000=0
;
#SCROLLS:0.000000=1.000000
,10.500000=1.500000
,11.000000=0.500000
,11.500000=1.500000
,12.000000=0.500000
,12.500000=1.500000
,13.000000=0.500000
,13.500000=1.500000
,14.000000=0.500000
,14.500000=1.500000
,15.000000=0.500000
,15.500000=1.500000
,16.000000=0.500000
,16.500000=1.000000
,27.500000=1.500000
,28.000000=0.500000
,28.500000=1.500000
,29.000000=0.500000
,29.500000=1.500000
,30.000000=0.500000
,30.500000=1.500000
,31.000000=0.500000
,31.500000=1.500000
,32.000000=0.500000
,32.500000=1.000000
,147.500000=1.500000
,148.000000=0.500000
,148.500000=1.500000
,149.000000=0.500000
,149.500000=1.500000
,150.000000=0.500000
,150.500000=1.500000
,151.000000=0.500000
,151.500000=1.500000
,152.000000=0.500000
,152.500000=1.000000
,163.500000=1.500000
,164.000000=0.500000
,164.500000=1.500000
,165.000000=0.500000
,165.500000=1.500000
,166.000000=0.500000
,166.500000=1.500000
,167.000000=0.500000
,167.500000=1.500000
,168.000000=0.500000
,168.500000=1.000000
,179.500000=1.500000
,180.000000=0.500000
,180.500000=1.500000
,181.000000=0.500000
,181.500000=1.500000
,182.000000=0.500000
,182.500000=1.500000
,183.000000=0.500000
,183.500000=1.500000
,184.000000=0.500000
,184.500000=1.000000
,195.500000=1.500000
,196.000000=0.500000
,196.500000=1.500000
,197.000000=0.500000
,197.500000=1.500000
,198.000000=0.500000
,198.500000=1.500000
,199.000000=0.500000
,199.500000=1.500000
,200.000000=0.500000
,200.500000=1.000000
;
#FAKES:;
#LABELS:0.000000=Song Start
;
#NOTES:
0000
0000
0000
0000
,
1000
0000
0000
0000
0100
0000
0000
0000
0001
0000
0000
0000
0100
0000
0000
0000
1000
0000
0010
0000
1000
0000
0010
0000
0400
0004
0000
0000
0000
0000
0000
0303
,
0000
0000
1000
0000
1000
0000
0000
1000
0000
0000
0100
0000
0000
0000
1001
0000
,
0000
0011
0000
1001
0000
1010
0000
1010
,
0000
0010
0010
0010
0010
0000
0000
0100
,
0001
0000
0000
0000
0001
0000
0010
0000
0000
0000
1001
0000
1000
0100
0010
0100
,
1000
0000
0001
0000
0001
0000
0000
0001
0000
0000
0100
0000
0000
0000
1001
0000
,
0000
1010
0000
1001
0000
0011
0000
0011
,
0000
0000
0000
0000
0001
0000
0000
0000
0001
0000
0000
0000
0001
0000
0000
0000
0002
0000
0000
0003
000L
0000
0000
0000
0000
0000
0000
0000
0001
0000
0000
0000
,
1000
0000
0000
0000
1001
0000
0000
0000
0011
0000
0000
0010
0000
0000
0100
0000
,
0000
1000
1000
0000
1000
0000
1000
1000
,
0000
0001
0001
0000
0001
0000
0001
0001
,
0100
0000
0000
0000
0100
0000
0000
0000
0110
0000
0000
0110
0000
0000
0110
0000
,
0000
0000
0010
0000
0000
0010
0000
0000
0020
0000
0030
0000
2000
0000
3000
0000
,
0M00
0001
0001
0000
0001
0000
0001
00M1
,
0000
1000
1000
0000
1000
1000
1000
1000
,
010M
0000
0000
0000
0100
0000
0000
0000
M110
0000
0000
0110
0000
0000
011M
0000
,
0000
0000
0010
0000
0000
0010
0000
0000
0020
0000
0030
0000
0002
0000
0003
0000
,
2000
0000
3000
0000
1001
0000
0000
0000
1000
0000
0200
0300
1100
0000
2000
0000
,
3010
0000
0000
0000
0110
0000
0000
0000
1000
0000
0200
0300
0110
0000
0010
0001
,
0020
0000
0030
0000
0101
0000
0000
0000
0001
0000
0200
0300
0101
0000
0200
0000
,
0310
0000
0000
0010
1000
0000
0002
0000
0013
0000
0001
0000
1000
0010
1000
0001
,
0020
0000
0030
0000
0011
0000
0000
0000
0001
0000
0020
0030
0011
0000
0002
0000
,
0103
0000
0000
0000
0101
0000
0000
0000
0001
0000
0020
0030
0110
0000
0100
1000
,
0200
0000
0300
0000
1010
0000
0000
0000
1000
0000
0020
0030
1010
0000
2000
0000
,
3100
0000
0000
0000
0000
0000
0100
0000
0010
0000
0000
0000
0002
0000
0000
0000
0103
0000
0000
0000
0001
0000
0000
0000
1000
0000
0010
0000
2000
0000
0000
3000
,
L000
0100
0100
0000
0100
0000
0100
0100
,
0000
0010
0010
0000
0010
0000
0010
0010
,
1000
0000
0000
0000
1000
0000
0000
0000
1001
0000
0000
1001
0000
0000
1001
0000
,
0000
0000
0001
0000
0000
0001
0000
0000
0002
0000
0003
0000
0200
0000
0300
0000
,
00M0
0001
0001
0000
0001
0000
0001
M001
,
0000
0010
0010
0000
0010
0010
0010
0010
,
0M01
0000
0000
0000
0001
0000
0000
0000
1001
0000
0000
1001
0000
0000
10M1
0000
,
0000
0000
1000
0000
0000
1000
000M
0000
2000
0000
3000
0000
0200
0000
0300
0000
,
2000
3001
1001
0001
,
1000
0000
0000
0000
0010
0000
0000
0000
0100
0000
0000
0000
1000
0000
0000
0000
0100
0000
0001
0000
0010
0000
0001
0000
4000
0040
0000
0000
0000
0000
0000
3030
,
0000
0000
0100
0000
0100
0000
0000
0100
0000
0000
0001
0000
0000
0000
1001
0000
,
0000
1100
0000
0011
0000
0101
0000
0101
,
0000
0100
0100
0100
0100
0000
0000
0001
,
0100
0000
0000
0000
0100
0000
0001
0000
0000
0000
1001
0000
1000
0010
1000
0100
,
1000
0000
0010
0000
0010
0000
0000
0010
0000
0000
1000
0000
0000
0000
1001
0000
,
0000
0101
0000
1010
0000
1100
0000
1100
,
0000
0000
0000
0000
0100
0000
0000
0000
0100
0000
0000
0000
0100
0000
0000
0000
0200
0000
0000
0300
0L00
0000
0000
0000
0000
0000
0000
0000
0100
0000
0000
0000
,
0010
0000
0000
0000
1001
0000
0000
0000
0001
0000
0010
0000
0001
0100
0001
1000
,
0001
0000
0010
0000
0010
0000
0000
0010
0000
0000
0100
0000
0000
0000
1100
0000
,
0000
0011
0000
1001
0000
0101
0000
0101
,
0000
0001
0001
0001
0001
0000
0000
1000
,
0100
0000
0000
0000
0100
0000
1000
0000
0000
0000
1100
0000
0100
0010
0100
1000
,
0010
0000
1000
0000
1000
0000
0000
1000
0000
0000
0001
0000
0000
0000
0011
0000
,
0000
0110
0000
1100
0000
1010
0000
1010
,
0000
0000
0000
0000
1000
0000
0000
0000
1000
0000
0000
0000
1000
0000
0000
0000
2000
0000
0000
3000
L000
0000
0000
0000
0000
0000
0000
0000
1000
0000
0000
0000
,
0001
0000
0000
0000
0011
0000
0000
0000
0010
0000
0100
0000
1000
0010
1000
0100
,
2000
3000
0001
0100
1100
0100
0001
1000
,
0001
0000
0100
0000
1000
0000
0100
0000
0110
0000
0100
0000
0001
0000
1000
0010
,
1000
0100
0010
0100
0101
0100
1000
0010
,
0100
0000
0010
0000
0001
0000
0010
0000
1010
0000
1000
0000
0001
0010
0100
0010
,
0002
1003
0010
0100
1100
0100
0001
0020
,
0031
0000
1000
0000
0010
0000
0100
0000
0101
0000
0100
0000
1000
0000
0100
0001
,
0200
0310
0001
0010
1010
1000
0100
2000
,
3001
0000
0010
0000
1000
0000
0020
0030
0001
1000
0010
1000
0001
0010
0100
0010
,
0001
0000
0100
0000
0101
0000
0001
0000
0010
0000
0200
0300
1100
0000
1000
0000
,
0010
0000
1000
0000
1100
0000
1000
0000
0001
0000
0200
0300
0101
0000
0001
0010
,
0001
0000
0100
0000
0110
0000
0100
0000
0001
0000
2000
3000
1010
0000
0010
0000
,
0100
0000
0010
1000
0010
0000
0100
0000
0001
0000
0020
0000
0031
0100
0010
0100
,
0001
0000
1000
0000
1100
0000
1000
0000
0001
0000
0200
0300
0110
0000
0010
0000
,
1000
0000
0001
0000
1001
0000
1000
0000
0100
0000
0010
0001
0010
0000
0100
0000
,
1000
0000
0001
0000
1001
0000
0001
0000
0010
0000
0200
0300
1100
0000
1000
0000
,
0010
0000
0100
0001
0100
0000
0010
0000
1000
0000
0002
0000
0013
0100
1000
0010
,
2000
0000
3000
0000
1001
0000
0000
0000
1000
0000
0020
0030
1010
0000
2000
0000
,
3001
0000
0000
0000
0011
0000
0000
0000
0010
0000
0200
0000
1300
0000
0010
0100
,
0020
0000
1030
0000
0001
0010
0110
0200
,
1300
0000
0000
1000
0010
0000
0200
0000
0301
0000
0010
0000
0200
1300
0020
1030
,
0002
0000
0003
0000
1001
0000
0000
0000
0001
0000
0020
0030
0022
0033
0002
0003
,
1001
1000
1010
0000
0010
0200
0301
0010
,
0200
1300
0010
0200
0301
0010
0110
0100
,
1100
0000
0000
1000
0010
0000
0200
0300
0101
0000
0100
0000
0020
2030
3200
2300
,
3000
0000
0000
0000
;

//---------------dance-single - ----------------
#NOTEDATA:;
#CHARTNAME:I Need You;
#STEPSTYPE:dance-single;
#DESCRIPTION:;
#CHARTSTYLE:;
#DIFFICULTY:Hard;
#METER:8;
#RADARVALUES:0.499445,0.586114,0.132206,0.359895,0.143223,476.000000,458.000000,18.000000,49.000000,0.000000,0.000000,6.000000,3.000000,0.000000,0.499445,0.586114,0.132206,0.359895,0.143223,476.000000,458.000000,18.000000,49.000000,0.000000,0.000000,6.000000,3.000000,0.000000;
#CREDIT:Phil Lee;
#OFFSET:0.000000;
#BPMS:0.000000=135.000000
;
#STOPS:;
#DELAYS:;
#WARPS:143.125000=0.062500
;
#TIMESIGNATURES:0.000000=4=4
;
#TICKCOUNTS:0.000000=4
;
#COMBOS:0.000000=1
;
#SPEEDS:0.000000=0.500000=0.000000=0
,1.000000=1.000000=3.000000=0
,135.000000=0.750000=1.000000=0
,140.000000=1.000000=4.000000=0
,236.000000=1.500000=3.000000=0
,239.000000=1.000000=1.000000=0
,300.000000=1.500000=4.000000=0
;
#SCROLLS:0.000000=1.000000
;
#FAKES:;
#LABELS:0.000000=Song Start
;
#NOTES:
0000
0000
0000
0000
,
1000
0000
0001
0000
0100
0000
0001
0000
4000
0400
0000
0000
0000
0000
0000
3300
,
0000
0000
0010
0000
0010
0000
0000
0010
0000
0000
0001
0000
0000
0000
0010
0000
,
0000
0100
0000
1000
0000
0100
0000
0100
,
0000
0010
0010
0010
0010
0000
0000
0001
,
1000
0000
1000
0010
0000
0100
0000
0001
,
0000
0000
0010
0000
0010
0000
0000
0010
0000
0000
0001
0000
0000
0000
0100
0000
,
0000
0010
0000
1000
0000
0100
0000
0100
,
0000
0000
0000
0000
1000
0000
0000
0000
1000
0000
0000
0000
1000
0000
0000
0000
2000
0000
0000
3000
L000
0000
0000
0000
0000
0000
0000
0000
0100
0000
0000
0000
,
0001
0000
0000
0000
0010
0000
0000
0000
0100
0000
0000
1000
0000
0000
0010
0000
,
0000
0100
0100
0000
0100
0000
0100
0100
,
0000
0001
0001
0000
0001
0000
0001
0001
,
0010
0000
0000
0000
0010
0000
0000
0000
0010
0000
0000
0010
0000
0000
0010
0000
,
0000
0000
0100
0000
0000
0100
0000
0000
0100
0000
0000
0000
1000
0000
0000
0000
,
0000
0010
0010
0000
0010
0000
0010
0010
,
0000
0100
0100
0000
0100
0100
0100
0100
,
0001
0000
0000
0000
0001
0000
0000
0000
0001
0000
0000
0001
0000
0000
0001
0000
,
0000
0000
0010
0000
0000
0010
0000
0000
0010
0000
0000
0000
0100
0000
0000
0000
,
1000
0000
1001
0000
0001
0020
0130
1000
,
0010
0000
0000
0000
1010
0000
0000
0000
1000
0000
0200
0000
1300
0000
0001
0100
,
0001
0000
0011
0000
0010
0200
1300
0010
,
0100
0000
0000
0100
0001
0000
1000
0000
0010
0000
0100
0000
0001
0010
0001
0010
,
0001
0000
1001
0000
1000
0020
0130
0001
,
0010
0000
0000
0000
0011
0000
0000
0000
0001
0000
0200
0000
0301
0000
1000
0100
,
1000
0000
1010
0000
0010
0200
0301
0010
,
0100
0000
0000
0100
1000
0000
0001
0000
0010
0000
0100
0000
1000
0010
1000
0010
,
1000
0100
0100
0000
0100
0000
0100
0100
,
0000
1000
1000
0000
1000
0000
1000
1000
,
0010
0000
0000
0000
0010
0000
0000
0000
0010
0000
0000
0010
0000
0000
0010
0000
,
0000
0000
0100
0000
0000
0100
0000
0000
0100
0000
0000
0000
0001
0000
0000
0000
,
0000
0010
0010
0000
0010
0000
0010
0010
,
0000
0100
0100
0000
0100
0100
0100
0100
,
1000
0000
0000
0000
1000
0000
0000
0000
1000
0000
0000
1000
0000
0000
1000
0000
,
0000
0000
0010
0000
0000
0010
0000
0000
0010
0000
0000
0000
0100
0000
0000
0000
,
0001
0100
0110
1000
,
0001
0000
0100
0000
0010
0000
0100
0000
0004
0040
0000
0000
0000
0000
0000
0033
,
0000
0000
0100
0000
0100
0000
0000
0100
0000
0000
1000
0000
0000
0000
0010
0000
,
0000
0100
0000
0001
0000
0100
0000
0100
,
0000
0010
0010
0010
0010
0000
0000
1000
,
0001
0000
0001
0010
0000
0100
0000
1000
,
0000
0000
0010
0000
0010
0000
0000
0010
0000
0000
1000
0000
0000
0000
0100
0000
,
0000
0010
0000
0001
0000
0100
0000
0100
,
0000
0000
0000
0000
0001
0000
0000
0000
0001
0000
0000
0000
0001
0000
0000
0000
0002
0000
0000
0003
000L
0000
0000
0000
0000
0000
0000
0000
0100
0000
0000
0000
,
1000
0000
0010
0000
0100
0001
0000
0010
,
0000
0000
0001
0000
0001
0000
0000
0001
0000
0000
0100
0000
0000
0000
0010
0000
,
0000
1000
0000
0001
0000
1000
0000
1000
,
0000
0100
0100
0100
0100
0000
0000
1000
,
0010
0000
0010
1000
0000
0001
0000
0010
,
0000
0000
0100
0000
0100
0000
0000
0100
0000
0000
1000
0000
0000
0000
0010
0000
,
0000
1000
0000
0100
0000
1000
0000
1000
,
0000
0000
0000
0000
0001
0000
0000
0000
0001
0000
0000
0000
0001
0000
0000
0000
0002
0000
0000
0003
000L
0000
0000
0000
0000
0000
0000
0000
0001
0000
0000
0000
,
1000
0000
0000
0000
0010
0000
0000
0000
0100
0000
0000
0001
0000
0000
0010
0000
,
0002
0000
1003
0010
0100
0001
0100
0020
,
1030
0000
0100
0000
0010
0000
0100
0000
1000
0000
0001
0000
0100
0000
0001
0010
,
0002
0103
0010
1000
0010
0100
0001
0010
,
0200
0000
1300
0000
0010
0000
0100
0000
0002
0000
1003
0000
0100
0010
0100
0010
,
0200
1300
0001
0100
0001
0010
0001
2000
,
3100
0000
0010
0000
0100
0000
1000
0000
0010
0000
0100
0000
0010
0000
1000
0001
,
2000
3010
0100
0001
0010
0100
1000
0002
,
0103
0000
0010
0000
0100
0000
0002
0000
0043
0400
0000
0000
0000
0000
0000
0330
,
2000
3010
0001
0010
1000
0100
1000
0020
,
1030
0100
0001
0100
0010
0001
0010
0100
,
2000
3001
0100
0010
0100
1000
0100
0002
,
1003
0010
0001
0020
1030
0100
0010
0100
,
2000
3001
0100
0001
0010
1000
0010
0200
,
1300
0000
0100
0000
0010
0000
0001
0000
0100
0000
0001
0010
0001
0000
1000
0000
,
0020
1030
0001
0010
1000
0010
0001
0200
,
0301
1000
0100
0002
0103
0100
0100
0010
,
0001
0000
1001
0000
0001
0010
0011
0020
,
0031
0000
0000
0000
0110
0000
0000
0000
0001
0000
2000
0000
3010
0000
1000
0100
,
2000
0000
3010
0000
1000
0001
0101
0200
,
0301
0000
0000
0001
0010
0000
0200
0000
1300
0000
0010
0000
2000
3100
2000
3100
,
2000
0000
3000
0000
1001
0000
0000
0000
0001
0000
0020
0030
0220
0330
0200
0300
,
1001
0001
0011
0000
0010
0002
1003
0010
,
2000
0000
3000
0002
1003
0010
0110
0100
,
0101
0000
0000
0001
0010
0000
0002
0003
0101
0000
0100
0000
0020
2030
3020
2030
,
3000
0000
0000
0000
;

//---------------dance-single - ----------------
#NOTEDATA:;
#CHARTNAME:I Want You;
#STEPSTYPE:dance-single;
#DESCRIPTION:;
#CHARTSTYLE:;
#DIFFICULTY:Medium;
#METER:6;
#RADARVALUES:0.413407,0.389457,0.293791,0.102827,0.058758,394.000000,354.000000,40.000000,14.000000,0.000000,0.000000,0.000000,0.000000,0.000000,0.413407,0.389457,0.293791,0.102827,0.058758,394.000000,354.000000,40.000000,14.000000,0.000000,0.000000,0.000000,0.000000,0.000000;
#CREDIT:Phil Lee;
#OFFSET:0.000000;
#BPMS:0.000000=135.000000
;
#STOPS:;
#DELAYS:;
#WARPS:143.125000=0.062500
;
#TIMESIGNATURES:0.000000=4=4
;
#TICKCOUNTS:0.000000=4
;
#COMBOS:0.000000=1
;
#SPEEDS:0.000000=1.000000=0.000000=0
;
#SCROLLS:0.000000=1.000000
;
#FAKES:;
#LABELS:0.000000=Song Start
;
#NOTES:
// measure 0
0000
0000
0000
0000
,  // measure 1
1000
0100
1000
0100
0020
0000
0032
0000
,  // measure 2
0003
0000
1000
0000
1000
0000
0000
1000
0000
0000
0010
0000
0000
0000
1000
0000
,  // measure 3
0000
0001
0000
0100
0000
0001
0000
0001
,  // measure 4
0000
0100
0100
0100
0100
0000
0000
0001
,  // measure 5
0010
0000
0010
0001
0000
0100
0000
0010
,  // measure 6
0000
0000
1000
0000
1000
0000
0000
1000
0000
0000
0010
0000
0000
0000
1000
0000
,  // measure 7
0000
0100
0000
0010
0000
0001
0000
0001
,  // measure 8
0000
0100
0100
0100
0100
0000
0000
0010
,  // measure 9
1000
0000
0000
0000
0100
0000
0000
0000
1000
0000
0000
0010
0000
0000
1000
0000
,  // measure 10
0000
0001
0001
0000
0001
0000
0001
0001
,  // measure 11
0000
0100
0100
0000
0100
0000
0100
0100
,  // measure 12
0010
0000
0000
0000
0010
0000
0000
0000
0010
0000
0000
0010
0000
0000
0010
0000
,  // measure 13
0000
0000
1000
0000
0000
1000
0000
0000
2000
0000
3000
0000
0200
0000
0300
0000
,  // measure 14
0000
1000
1000
0000
1000
0000
1000
1000
,  // measure 15
0000
0010
0010
0000
0010
0010
0010
0010
,  // measure 16
0100
0000
0000
0000
0100
0000
0000
0000
0100
0000
0000
0100
0000
0000
0100
0000
,  // measure 17
0000
0000
0001
0000
0000
0001
0000
0000
0002
0000
0003
0000
0020
0000
0030
0000
,  // measure 18
0001
0000
1001
0000
1000
0000
1010
0010
,  // measure 19
0000
0110
0100
0101
,  // measure 20
0001
0000
0011
0000
0010
0000
0110
0100
,  // measure 21
0000
0000
1100
1000
0000
0000
1001
0000
,  // measure 22
1000
0000
1001
0000
0001
0000
0011
0010
,  // measure 23
0000
0110
0100
1100
,  // measure 24
1000
0000
1010
0000
0010
0000
0110
0100
,  // measure 25
0000
0000
0101
0001
0000
0000
1001
0000
,  // measure 26
0000
1000
1000
0000
1000
0000
1000
1000
,  // measure 27
0000
0100
0100
0000
0100
0000
0100
0100
,  // measure 28
0010
0000
0000
0000
0010
0000
0000
0000
0010
0000
0000
0010
0000
0000
0010
0000
,  // measure 29
0000
0000
0001
0000
0000
0001
0000
0000
0002
0000
0003
0000
0200
0000
0300
0000
,  // measure 30
0000
0001
0001
0000
0001
0000
0001
0001
,  // measure 31
0000
0010
0010
0000
0010
0010
0010
0010
,  // measure 32
0100
0000
0000
0000
0100
0000
0000
0000
0100
0000
0000
0100
0000
0000
0100
0000
,  // measure 33
0000
0000
1000
0000
0000
1000
0000
0000
2000
0000
3000
0000
0020
0000
0030
0000
,  // measure 34
1000
0001
0101
0100
,  // measure 35
0010
0100
0010
0100
0020
0000
2030
0000
,  // measure 36
3000
0000
0001
0000
0001
0000
0000
0001
0000
0000
0010
0000
0000
0000
0001
0000
,  // measure 37
0000
1000
0000
0100
0000
1000
0000
1000
,  // measure 38
0000
0100
0100
0100
0100
0000
0000
1000
,  // measure 39
0010
0000
0010
1000
0000
0100
0000
0010
,  // measure 40
0000
0000
0001
0000
0001
0000
0000
0001
0000
0000
0010
0000
0000
0000
0001
0000
,  // measure 41
0000
0100
0000
0010
0000
1000
0000
1000
,  // measure 42
0000
0100
0100
0100
0100
0000
0000
0010
,  // measure 43
0001
0000
0100
0000
0001
0010
0000
0001
,  // measure 44
0000
0000
0010
0000
0010
0000
0000
0010
0000
0000
0100
0000
0000
0000
0010
0000
,  // measure 45
0000
0001
0000
0100
0000
0010
0000
0010
,  // measure 46
0000
1000
1000
1000
1000
0000
0000
0010
,  // measure 47
0100
0000
0100
0010
0000
1000
0000
0100
,  // measure 48
0000
0000
1000
0000
1000
0000
0000
1000
0000
0000
0001
0000
0000
0000
0010
0000
,  // measure 49
0000
0100
0000
0010
0000
0001
0000
0001
,  // measure 50
0000
1000
1000
1000
1000
0000
0000
0010
,  // measure 51
1000
0000
0000
0000
0001
0000
0000
0000
0010
0000
0000
0100
0000
0000
0010
0000
,  // measure 52
0001
1000
1010
1000
,  // measure 53
0100
0010
0011
0001
,  // measure 54
0100
0001
0011
0001
,  // measure 55
1000
0010
1010
0010
,  // measure 56
0100
0001
0011
0010
,  // measure 57
0100
1000
1010
1000
,  // measure 58
0100
1000
1001
0001
,  // measure 59
0100
0010
0100
0010
2000
0000
3200
0000
,  // measure 60
1300
0010
1000
0000
0001
0100
0001
0000
,  // measure 61
0010
0100
0010
0000
0001
1000
0001
0000
,  // measure 62
0100
0010
0100
0000
0001
0010
0001
0000
,  // measure 63
1000
0010
1000
0000
0100
0010
0100
0000
,  // measure 64
1000
0010
1000
0000
0001
0100
0001
0000
,  // measure 65
0010
0100
0010
0000
0001
0010
0001
0000
,  // measure 66
1000
0100
1000
0000
0010
0100
0010
0000
,  // measure 67
1000
0010
1000
0000
0100
0010
0100
0000
,  // measure 68
1000
0000
1001
0000
0001
0000
0011
0010
,  // measure 69
0000
0110
0100
1100
,  // measure 70
1000
0000
1010
0000
0010
0000
0110
0100
,  // measure 71
0000
0000
0101
0001
0000
0000
0011
0001
,  // measure 72
0000
0000
1001
0000
1000
0000
1010
0010
,  // measure 73
0000
0000
0110
0000
0100
0000
0101
0001
,  // measure 74
0000
0000
0011
0010
0000
0000
0110
0000
,  // measure 75
0100
0000
0110
0010
0000
0000
0011
0000
;

//---------------dance-single - ----------------
#NOTEDATA:;
#CHARTNAME:I Miss You;
#STEPSTYPE:dance-single;
#DESCRIPTION:;
#CHARTSTYLE:;
#DIFFICULTY:Easy;
#METER:5;
#RADARVALUES:0.283299,0.333821,0.022034,0.139551,0.058758,270.000000,267.000000,3.000000,19.000000,0.000000,0.000000,0.000000,0.000000,0.000000,0.283299,0.333821,0.022034,0.139551,0.058758,270.000000,267.000000,3.000000,19.000000,0.000000,0.000000,0.000000,0.000000,0.000000;
#CREDIT:Phil Lee;
#OFFSET:0.000000;
#BPMS:0.000000=135.000000
;
#STOPS:;
#DELAYS:;
#WARPS:143.125000=0.062500
;
#TIMESIGNATURES:0.000000=4=4
;
#TICKCOUNTS:0.000000=4
;
#COMBOS:0.000000=1
;
#SPEEDS:0.000000=1.000000=0.000000=0
;
#SCROLLS:0.000000=1.000000
;
#FAKES:;
#LABELS:0.000000=Song Start
;
#NOTES:
0000
0000
0000
0000
,
0000
0000
0000
0000
,
0000
0000
0000
0000
1000
0000
0000
1000
0000
0000
0100
0000
0000
0000
1000
0000
,
0000
0001
0000
0001
0000
0100
0000
0100
,
0000
0001
0000
0000
0001
0000
0000
0000
,
0010
0000
0000
0010
0000
0010
0000
0010
,
0000
0000
0000
0000
0100
0000
0000
0100
0000
0000
1000
0000
0000
0000
0010
0000
,
0000
0100
0000
0100
0000
0001
0000
0001
,
0000
0010
0000
0000
0010
0000
0000
0000
,
0001
0000
0000
0000
0010
0000
0000
0000
0001
0000
0000
0001
0000
0000
0001
0000
,
0000
0100
0100
0000
0100
0000
0100
0100
,
0000
0010
0010
0000
0010
0000
0010
0010
,
0010
0000
0000
0000
1000
0000
0000
0000
1000
0000
0000
1000
0000
0000
1000
0000
,
0000
0000
0001
0000
0000
0001
0000
0000
0001
0000
0000
0000
0100
0000
0000
0000
,
0000
0010
0010
0000
0010
0000
0010
0010
,
0000
1000
1000
0000
1000
1000
1000
1000
,
1000
0000
0000
0000
0100
0000
0000
0000
0100
0000
0000
0100
0000
0000
0100
0000
,
0000
0000
1000
0000
0000
1000
0000
0000
1000
0000
0000
0000
0001
0000
0000
0000
,
1001
0000
1000
0000
0000
0000
0001
0020
,
0000
0100
0000
0130
,
2000
0000
0001
0000
0000
0000
3001
0200
,
0000
0000
0310
2000
0000
0000
3001
0000
,
0020
0000
0001
0000
0000
0000
0031
0200
,
0000
0001
0000
0301
,
2000
0000
0100
0000
0000
0000
3100
0020
,
0000
0000
0031
0200
0000
0000
0310
0000
,
0000
1000
1000
0000
1000
0000
1000
1000
,
0000
0100
0100
0000
0100
0000
0100
0100
,
0100
0000
0000
0000
1000
0000
0000
0000
1000
0000
0000
1000
0000
0000
1000
0000
,
0000
0000
0001
0000
0000
0001
0000
0000
0001
0000
0000
0000
0100
0000
0000
0000
,
0000
0001
0001
0000
0001
0000
0001
0001
,
0000
0010
0010
0000
0010
0010
0010
0010
,
0010
0000
0000
0000
0100
0000
0000
0000
0100
0000
0000
0100
0000
0000
0100
0000
,
0000
0000
1000
0000
0000
1000
0000
0000
1000
0000
0000
0000
0010
0000
0000
0000
,
0000
0000
1001
0000
,
0000
0000
1001
0000
,
0000
0000
0000
0000
0001
0000
0000
0001
0000
0000
0100
0000
0000
0000
0001
0000
,
0000
1000
0000
1000
0000
0100
0000
0100
,
0000
1000
0000
0000
1000
0000
0000
0000
,
0010
0000
0000
0010
0000
0010
0000
0010
,
0000
0000
0000
0000
0100
0000
0000
0100
0000
0000
0001
0000
0000
0000
0010
0000
,
0000
0100
0000
0100
0000
1000
0000
1000
,
0000
0010
0000
0000
0010
0000
0000
0000
,
1000
0000
0001
0000
1000
0010
0000
1000
,
0000
0000
0000
0000
0100
0000
0000
0100
0000
0000
0010
0000
0000
0000
0001
0000
,
0000
0100
0000
0100
0000
0010
0000
0010
,
0000
0100
0000
0000
0100
0000
0000
0000
,
0001
0000
0000
0001
0000
0001
0000
0001
,
0000
0000
0000
0000
0010
0000
0000
0010
0000
0000
0100
0000
0000
0000
1000
0000
,
0000
0100
0000
0100
0000
0010
0000
0010
,
0000
0001
0000
0000
0001
0000
0000
0000
,
0100
0000
0000
0000
0001
0000
0000
0000
0010
0000
0000
0010
0000
0000
0010
0000
,
0200
0000
0000
0000
0000
0000
0300
2000
,
0000
0000
0000
0000
0000
0000
0000
3000
,
0002
0000
0000
0003
,
0200
0000
0000
0300
0020
0000
0000
0030
,
2000
0000
0000
0000
0000
0000
3000
0200
,
0000
0000
0000
0000
0000
0000
0000
0300
,
0020
0000
0000
0000
0000
0000
0000
0230
,
0000
0000
0300
2000
0000
0000
0000
3000
,
0001
0100
0001
0010
,
0100
1000
0010
1000
,
0100
0010
0100
1000
,
0001
0100
0010
0100
,
0001
1000
0001
0100
,
0001
1000
0100
1000
,
0010
1000
0001
1000
,
0100
0010
0001
1000
,
0001
0000
0100
0000
0001
0000
1000
0100
,
0000
1000
0010
0100
,
0001
0000
1000
0000
0100
0000
0010
0001
,
0000
0000
1000
0010
0000
0000
0100
0001
,
0000
0000
0010
0000
0100
0000
0010
0001
,
0000
0000
1000
0000
0010
0000
1000
0001
,
0000
0000
0010
0100
0000
0000
1000
0000
,
0010
0000
0100
0001
0000
0000
1000
0000
;

//---------------dance-single - ----------------
#NOTEDATA:;
#CHARTNAME:Goodbye;
#STEPSTYPE:dance-single;
#DESCRIPTION:;
#CHARTSTYLE:;
#DIFFICULTY:Beginner;
#METER:2;
#RADARVALUES:0.156339,0.194729,0.014690,0.154241,0.000000,149.000000,147.000000,2.000000,21.000000,0.000000,0.000000,0.000000,0.000000,0.000000,0.156339,0.194729,0.014690,0.154241,0.000000,149.000000,147.000000,2.000000,21.000000,0.000000,0.000000,0.000000,0.000000,0.000000;
#CREDIT:Phil Lee;
#OFFSET:0.000000;
#BPMS:0.000000=135.000000
;
#STOPS:;
#DELAYS:;
#WARPS:143.125000=0.062500
;
#TIMESIGNATURES:0.000000=4=4
;
#TICKCOUNTS:0.000000=4
;
#COMBOS:0.000000=1
;
#SPEEDS:0.000000=1.000000=0.000000=0
;
#SCROLLS:0.000000=1.000000
;
#FAKES:;
#LABELS:0.000000=Song Start
;
#NOTES:
0000
0000
0000
0000
,
0000
0000
0000
0000
,
1001
1000
0000
1000
,
0000
0100
0000
0100
,
0000
0010
0000
0010
,
0000
0001
0000
0001
,
0000
0100
0000
0100
,
0000
0010
0000
0010
,
0000
1000
0000
1000
,
0000
0100
0000
0100
,
0000
1000
0000
1000
,
0000
0001
0000
0001
,
0000
0010
0000
0010
,
0000
0100
0000
0100
,
0000
1000
0000
1000
,
0000
0001
0000
0001
,
0000
0100
0000
0100
,
0000
0001
0000
0001
,
0020
0000
0000
0000
0000
0000
0030
0200
,
0000
0000
0000
0000
0000
0000
0000
0300
,
2000
0000
0000
0000
0000
0000
3000
0002
,
0000
0000
0003
0200
0000
0000
0300
0000
,
0002
0000
0000
0000
0000
0000
0003
0020
,
0000
0000
0000
0000
0000
0000
0000
0030
,
0200
0000
0000
0000
0000
0000
0300
2000
,
0000
0000
3000
0002
0000
0003
0200
0300
,
0000
0010
0010
0010
,
0000
1000
1000
1000
,
0100
0000
0100
0000
,
0000
0000
0010
0010
,
0000
0001
0001
0001
,
0000
0100
0100
0100
,
0001
0000
0001
0000
,
0000
0000
0010
0010
,
0000
0000
0000
0000
,
0000
0000
0000
0000
,
1001
1000
0000
1000
,
0000
0001
0000
0001
,
0000
0010
0000
0010
,
0000
0001
0000
0001
,
0000
1000
0000
1000
,
0000
0010
0000
0010
,
0000
0100
0000
0100
,
0000
0010
0000
0010
,
0000
1000
0000
1000
,
0000
0001
0000
0001
,
0000
0010
0000
0010
,
0000
0100
0000
0100
,
0000
1000
0000
1000
,
0000
0001
0000
0001
,
0000
0100
0000
0100
,
0000
0001
0000
0001
,
2000
0000
0000
0000
0000
0000
3000
0200
,
0000
0000
0000
0300
,
0020
0000
0000
0000
0000
0000
0000
0030
,
0002
0000
0000
0003
0200
0000
0000
0300
,
0002
0000
0000
0000
0000
0000
0003
0020
,
0000
0000
0000
0000
0000
0000
0000
0030
,
0200
0000
0000
0000
0000
0000
0300
2000
,
0000
0000
3000
0020
0000
0000
0000
0030
,
1000
1000
1000
0000
,
0100
0100
0100
0000
,
0010
0010
0010
0000
,
0001
0001
0001
0000
,
0100
0100
0100
0000
,
0001
0001
0001
0000
,
0010
0010
0010
0000
,
0100
0100
0100
0000
,
0000
1000
0000
1000
,
0000
0001
0000
0001
,
0000
0100
0000
0100
,
0000
0001
0000
0001
,
0000
0010
0000
0010
,
0000
0100
0000
0100
,
0000
1000
0000
1000
,
0000
0010
0000
0010
;
