#VERSION:0.83;
#TITLE:Waterfall;
#SUBTITLE:;
#ARTIST:Istvan Satmari;
#TITLETRANSLIT:;
#SUBTITLETRANSLIT:;
#ARTISTTRANSLIT:;
#GENRE:;
#ORIGIN:;
#CREDIT:;
#BANNER:waterfall-banner.png;
#BACKGROUND:waterfall-bg.png;
#PREVIEWVID:;
#JACKET:;
#CDIMAGE:;
#DISCIMAGE:;
#LYRICSPATH:;
#CDTITLE:;
#MUSIC:Waterfall.ogg;
#OFFSET:0.000000;
#SAMPLESTART:105.348000;
#SAMPLELENGTH:14.046379;
#SELECTABLE:YES;
#BPMS:0.000=136.690;
#STOPS:;
#DELAYS:;
#WARPS:;
#TIMESIGNATURES:0.000=4=4;
#TICKCOUNTS:0.000=4;
#COMBOS:0.000=1;
#SPEEDS:0.000=1.000=0.000=0;
#SCROLLS:0.000=1.000;
#FAKES:;
#LABELS:0.000=Song Start;
#BGCHANGES:;
#KEYSOUNDS:;
#ATTACKS:
;

//---------------dance-single - ----------------
#NOTEDATA:;
#CHARTNAME:Niagara Falls;
#STEPSTYPE:dance-single;
#DESCRIPTION:;
#CHARTSTYLE:;
#DIFFICULTY:Challenge;
#METER:9;
#RADARVALUES:0.505329,0.620527,0.089931,0.502117,0.434669,472.000000,460.000000,12.000000,67.000000,0.000000,0.000000,8.000000,3.000000,22.000000,0.505329,0.620527,0.089931,0.502117,0.434669,472.000000,460.000000,12.000000,67.000000,0.000000,0.000000,8.000000,3.000000,22.000000;
#CREDIT:Phil Lee;
#OFFSET:0.000000;
#BPMS:0.000000=136.690002
;
#STOPS:;
#DELAYS:;
#WARPS:;
#TIMESIGNATURES:0.000000=4=4
;
#TICKCOUNTS:0.000000=4
;
#COMBOS:0.000000=1
;
#SPEEDS:0.000000=1.000000=0.000000=0
,46.000000=1.500000=1.500000=0
,47.500000=1.000000=0.500000=0
,220.000000=1.500000=1.000000=0
,222.000000=1.000000=1.000000=0
,280.000000=1.500000=2.000000=0
;
#SCROLLS:0.000000=1.000000
,80.000000=0.600000
,93.000000=0.700000
,94.000000=0.800000
,95.000000=0.900000
,96.000000=1.000000
;
#FAKES:280.375000=7.500000
;
#LABELS:0.000000=Song Start
;
#NOTES:
// measure 0
0000
0000
0000
0000
,  // measure 1
0000
0000
0000
0000
,  // measure 2
0000
0000
0000
0000
,  // measure 3
0000
0000
0000
0000
,  // measure 4
0001
0000
1000
0000
0010
0000
0001
0000
0000
0010
0000
0000
0010
0000
0000
0000
,  // measure 5
1000
0000
0100
0000
0001
0000
0100
0000
0000
0010
0000
0000
0010
0000
0000
0000
,  // measure 6
0001
0000
0100
0000
1000
0000
0100
0000
0000
0001
0000
0000
0001
0000
0000
0000
,  // measure 7
0100
0000
0010
0000
0100
0000
1000
0000
0000
0100
0000
0000
0100
0000
0000
0000
,  // measure 8
0001
0000
0010
0000
0100
0000
0010
0000
0000
1000
0000
0000
1000
0000
0000
0000
,  // measure 9
0010
0000
0001
0000
0100
0000
0010
0000
0000
0001
0000
0000
0001
0000
0000
0000
,  // measure 10
0010
0000
1000
0000
0100
0000
0001
0000
0000
0100
0000
0000
0100
0000
0000
0000
,  // measure 11
0010
0000
0001
0000
1000
0000
0010
0000
1000
0001
0100
0001
1000
0010
0100
0010
,  // measure 12
1000
0000
0100
0000
0010
0000
0001
0000
1000
0010
0000
0010
1000
0000
0000
0000
,  // measure 13
0100
0000
1000
0000
0001
0000
1000
0000
0001
0100
0000
0100
0001
0000
0000
0000
,  // measure 14
1000
0000
0001
0000
0010
0000
0001
0000
0100
0010
0000
0010
0100
0000
0000
0000
,  // measure 15
0001
0000
0010
0000
0100
0000
0010
0000
0001
1000
0000
1000
0001
0000
0000
0000
,  // measure 16
0020
0032
0203
0320
2030
3200
0320
0032
,  // measure 17
2003
3002
0023
0230
2300
3002
0203
0320
,  // measure 18
2030
3002
0203
0302
2003
3200
0320
0230
,  // measure 19
1300
0000
4000
0040
0000
0000
0000
0000
0000
0000
0000
0000
0000
0000
0000
3030
,  // measure 20
0100
0000
0001
0000
0100
0000
0000
0000
0010
0000
0000
0000
1000
0000
0000
0000
0002
0000
0000
0000
0000
0003
000L
0000
0000
0000
0000
0000
0000
0000
0000
0000
,  // measure 21
0010
0000
1000
0000
0010
0000
0000
0000
0100
0000
0000
0000
0001
0000
0000
0000
0020
0000
0000
0000
0000
0030
00L0
0000
0000
0000
0000
0000
0000
0000
0000
0000
,  // measure 22
1000
0000
0100
0000
1000
0000
0000
0000
0001
0000
0000
0000
0010
0000
0000
0000
0200
0000
0000
0000
0000
0300
0L00
0000
0000
0000
0000
0000
0000
0000
0000
0000
,  // measure 23
0001
0000
0001
0100
0001
1000
0100
1000
0001
0010
0001
0010
0100
1000
0100
1000
,  // measure 24
0002
0000
1003
0010
2000
0000
0000
0000
,  // measure 25
3200
0000
0310
0100
2000
0000
0000
0000
,  // measure 26
3001
0010
0100
1000
0001
0200
0000
0000
,  // measure 27
0320
2030
3002
0203
0320
0230
0302
0003
,  // measure 28
2000
0000
3001
0010
0200
0000
0000
0000
,  // measure 29
2300
0000
3010
0100
0020
0000
0000
0000
,  // measure 30
1030
0100
0010
0100
1000
0002
0000
0000
,  // measure 31
2003
3020
2030
3200
0320
0230
2300
3000
,  // measure 32
1001
0000
0000
0001
0000
0000
0100
0000
0010
0000
0000
1000
0000
0000
0001
0000
,  // measure 33
0100
0000
0000
0001
0000
0000
0010
0000
0100
0000
2000
0000
3200
0000
0320
0000
,  // measure 34
0031
0000
0000
1000
0000
0000
0001
0000
0100
0010
0000
0100
0010
0000
0100
0000
,  // measure 35
0001
0000
0000
0100
0000
0000
0010
0000
1000
0100
0000
1000
0100
0000
0000
0000
,  // measure 36
2000
0000
0000
0001
0000
0000
3001
0000
0020
0000
0000
0100
0000
0000
0130
0000
,  // measure 37
0000
1000
1001
1010
,  // measure 38
1000
0000
0000
0001
0000
0000
0100
0000
0010
1000
0000
0010
1000
0000
0001
0000
,  // measure 39
1000
0000
0000
0100
0000
0000
0010
0000
0100
0000
0000
0100
1000
0000
0000
1000
,  // measure 40
0001
0010
0000
0001
0000
0000
0001
0000
0100
0000
0000
0100
0000
0000
0100
0000
,  // measure 41
0000
0000
0002
0023
0230
0320
0032
2003
,  // measure 42
3001
0010
0000
0001
0010
0000
0000
0000
0100
1000
0000
0100
1000
0000
0000
0000
,  // measure 43
0001
0100
0000
0001
0100
0000
0000
0000
0010
1000
0000
0010
1000
0000
0000
0100
,  // measure 44
1000
0001
0000
1000
0001
0000
0000
0000
0100
0010
0000
0100
0010
0000
0000
0000
,  // measure 45
0000
1001
1010
0101
,  // measure 46
1000
0000
0000
1001
0000
0000
1001
0000
0001
0000
0000
1001
0000
0000
1001
0000
,  // measure 47
1000
0000
0000
1010
0000
0000
1010
0000
0010
0100
0010
0000
1000
1000
0100
0000
,  // measure 48
1000
0010
0000
1000
0000
0000
0001
0000
0100
0000
0010
0000
0000
1000
0000
0000
,  // measure 49
0001
0000
0010
0100
1000
0100
0010
0000
0001
0010
0004
0040
0000
0000
0000
0033
,  // measure 50
0100
0000
0010
0000
0000
0010
0000
0000
0001
0000
1000
0000
0000
1000
0000
0000
,  // measure 51
0001
0000
0100
0000
0000
0100
0000
0000
0010
0000
1000
0100
1000
0000
0001
0100
,  // measure 52
0001
0000
0010
0100
0010
0001
0000
0000
1000
0100
1000
0100
0000
0010
0001
0000
,  // measure 53
0000
0000
0000
0000
0100
0000
0001
0000
1000
0000
0010
0100
0010
0000
1000
0000
,  // measure 54
0001
0000
1000
0010
0000
1000
0010
0000
0100
0000
0001
0010
0000
0001
0010
0000
,  // measure 55
0400
4000
0000
0000
0000
0000
0000
0000
0000
0000
0000
0000
0000
0000
3300
0000
,  // measure 56
0002
1000
1003
0000
,  // measure 57
0020
0100
0130
0000
,  // measure 58
0002
0010
0013
0000
,  // measure 59
0200
2300
0000
0000
,  // measure 60
3100
0010
1000
0010
0001
1000
0100
0010
,  // measure 61
0001
0100
1000
0100
0010
1000
0001
0100
,  // measure 62
0010
0001
0010
1000
0100
1000
0001
0100
,  // measure 63
0010
1000
0010
0001
0010
1000
0001
1000
,  // measure 64
0010
0000
0100
0000
0001
0000
0010
0000
0001
1000
0000
1000
0010
0000
0010
0000
,  // measure 65
0100
0000
0001
0000
0010
0000
0100
0000
1000
0100
0000
0100
0010
0000
0010
0000
,  // measure 66
0001
0000
0100
0000
0010
0000
0100
0000
0001
1000
0000
1000
0100
0000
0100
0000
,  // measure 67
1000
0000
0010
0000
0100
0000
0001
0000
0010
0100
0000
0100
1000
0000
1000
0000
,  // measure 68
0010
0000
0100
0000
0001
0000
1000
0000
0100
0010
0000
0010
0001
0000
0001
0000
,  // measure 69
1000
0000
0010
0000
0100
0000
0001
0000
0010
0100
0000
0100
1000
0000
1000
0000
,  // measure 70
0004
4000
0M00
0000
00M0
0000
0M00
0000
00M0
0M00
0000
00M0
0M00
0000
0000
0000
,  // measure 71
00M0
0000
0M00
00M0
0M00
00M0
0M00
00M0
0M00
00M0
0M00
00M0
0M00
00M0
0M00
00M0
,  // measure 72
3003
0000
0000
0000
;

//---------------dance-single - ----------------
#NOTEDATA:;
#CHARTNAME:Victoria Falls;
#STEPSTYPE:dance-single;
#DESCRIPTION:;
#CHARTSTYLE:;
#DIFFICULTY:Edit;
#METER:10;
#RADARVALUES:0.700180,0.899595,0.112414,0.269794,0.963016,654.000000,639.000000,15.000000,36.000000,0.000000,4.000000,2.000000,3.000000,0.000000,0.700180,0.899595,0.112414,0.269794,0.963016,654.000000,639.000000,15.000000,36.000000,0.000000,4.000000,2.000000,3.000000,0.000000;
#CREDIT:Phil Lee;
#OFFSET:0.000000;
#BPMS:0.000000=136.690002
;
#STOPS:;
#DELAYS:;
#WARPS:;
#TIMESIGNATURES:0.000000=4=4
;
#TICKCOUNTS:0.000000=4
;
#COMBOS:0.000000=1
;
#SPEEDS:0.000000=0.500000=0.000000=0
,12.000000=1.500000=2.000000=0
,15.000000=1.000000=0.750000=0
,46.000000=1.500000=1.500000=0
,47.500000=1.000000=0.500000=0
,76.500000=1.250000=2.000000=0
,79.000000=1.000000=1.000000=0
,93.500000=1.250000=1.500000=0
,95.000000=1.000000=1.000000=0
,220.000000=1.250000=3.000000=0
,223.000000=1.000000=1.000000=0
,264.000000=1.250000=12.000000=0
,279.750000=1.350000=1.750000=0
,288.000000=0.000000=4.000000=0
;
#SCROLLS:0.000000=1.000000
,19.000000=0.750000
,20.000000=1.000000
,23.000000=0.750000
,24.000000=1.000000
,27.000000=0.750000
,28.000000=1.000000
,31.000000=0.750000
,32.000000=1.000000
,35.000000=0.750000
,36.000000=1.000000
,39.000000=0.750000
,40.000000=1.000000
,43.000000=0.750000
,44.000000=1.000000
,46.000000=0.000000
,46.125000=2.000000
,46.250000=0.000000
,46.375000=2.000000
,46.500000=0.000000
,46.625000=2.000000
,46.750000=0.000000
,46.875000=2.000000
,47.000000=0.000000
,47.125000=2.000000
,47.250000=0.000000
,47.375000=2.000000
,47.500000=0.000000
,47.625000=2.000000
,47.750000=0.000000
,47.875000=2.000000
,48.000000=1.000000
,51.000000=0.750000
,52.000000=1.000000
,55.000000=0.750000
,56.000000=1.000000
,59.000000=0.750000
,60.000000=1.000000
,63.000000=0.750000
,64.000000=1.000000
,67.000000=0.750000
,68.000000=1.000000
,71.000000=0.750000
,72.000000=1.000000
,75.000000=0.750000
,76.000000=1.000000
,80.000000=0.600000
,82.750000=0.300000
,84.000000=0.600000
,86.750000=0.300000
,88.000000=0.600000
,90.750000=0.300000
,92.000000=0.600000
,93.000000=0.700000
,94.000000=0.800000
,95.000000=0.900000
,96.000000=1.000000
,227.000000=0.750000
,228.000000=1.000000
,231.000000=0.750000
,232.000000=1.000000
,235.000000=0.750000
,236.000000=1.000000
,239.000000=0.750000
,240.000000=1.000000
;
#FAKES:;
#LABELS:0.000000=Song Start
;
#NOTES:
// measure 0
0000
0000
0000
0000
,  // measure 1
0000
0000
0000
0000
,  // measure 2
0000
0000
0000
0000
,  // measure 3
4000
0004
0000
0000
0000
0000
0000
0000
0000
0000
0000
0000
0000
0000
3003
0000
,  // measure 4
0010
0000
0100
0010
0001
0010
0100
1000
0000
0001
0000
0000
0001
0000
0000
0000
,  // measure 5
0010
0000
0001
0100
0010
1000
0001
0100
0000
0001
0000
0000
0001
0000
0000
0000
,  // measure 6
1000
0000
0001
0010
0001
1000
0001
0010
0000
0100
0000
0000
0100
0000
0000
0000
,  // measure 7
0010
0000
0001
0100
0010
1000
0010
0100
0000
0010
0000
0000
0010
0000
0000
0000
,  // measure 8
1000
0000
0100
0010
0001
1000
0100
1000
0000
0010
0000
0000
0010
0000
0000
0000
,  // measure 9
1000
0000
0001
1000
0010
0100
0010
1000
0000
0001
0000
0000
0001
0000
0000
0000
,  // measure 10
0100
0000
0001
0010
0100
1000
0001
1000
0000
0100
0000
0000
0100
0000
0000
0000
,  // measure 11
1000
0000
0010
1000
0001
1000
0010
0100
0001
0100
0010
1000
0001
0100
0001
1000
,  // measure 12
0100
0000
1000
0001
0010
0100
0010
0001
1000
0010
0000
0010
1000
0000
1000
0000
,  // measure 13
1001
0000
1000
0010
1000
0001
0100
0010
1000
0100
0000
0100
1000
0000
1000
0000
,  // measure 14
1100
0000
1000
0100
0010
0001
0010
0100
0010
0001
0000
0001
0010
0000
0010
0000
,  // measure 15
0011
0000
0001
0100
0010
0100
0001
1000
0010
0100
0000
0100
0010
0000
0010
0000
,  // measure 16
1010
0000
1000
0001
1000
0100
0010
0001
1000
0100
0000
0100
0010
0000
0010
0000
,  // measure 17
0011
0000
0001
0100
0001
1000
0010
0100
0001
1000
0000
1000
0010
0000
0010
0000
,  // measure 18
1010
0000
1000
0100
0010
0100
1000
0001
0010
0001
0000
0001
1000
0000
1000
0000
,  // measure 19
1001
0000
1000
0001
1000
0010
0100
0010
1000
0100
0010
0001
1000
0100
1000
0010
,  // measure 20
1000
0000
0100
0000
1000
0000
0000
0000
0001
0000
0000
0000
0100
0000
0000
0000
0020
0000
0000
0000
0000
0030
00L0
0000
0000
0000
0000
0000
0000
0000
0000
0000
,  // measure 21
0001
0000
1000
0000
0010
0000
0000
0000
1000
0000
0000
0000
0001
0000
0000
0000
0200
0000
0000
0000
0000
0300
0L00
0000
0000
0000
0000
0000
0000
0000
0000
0000
,  // measure 22
0010
0000
0100
0000
1000
0000
0000
0000
0001
0000
0000
0000
0100
0000
0000
0000
0020
0000
0000
0000
0000
0030
00L0
0000
0000
0000
0000
0000
0000
0000
0000
0000
,  // measure 23
0001
0000
0001
0100
0010
0100
0001
1000
0001
0010
0100
1000
0100
0010
0001
1000
,  // measure 24
0001
0100
0001
1000
0100
0010
0100
1000
0001
0010
0000
0010
0000
0000
0000
0000
,  // measure 25
0001
0100
0001
1000
0010
0100
0001
1000
0100
1000
0000
1000
0000
0000
0000
0000
,  // measure 26
0001
1000
0010
0100
0010
1000
0001
0010
0100
1000
0000
1000
0000
0000
0000
0000
,  // measure 27
0010
1000
0100
0010
0001
1000
0010
0100
0001
1000
0000
1000
0000
0000
0000
0000
,  // measure 28
0010
0100
0010
1000
0100
0010
0100
1000
0001
0010
0000
0010
0000
0000
0000
0000
,  // measure 29
0001
0100
0001
0010
0100
1000
0010
0100
0001
1000
0000
1000
0000
0000
0000
0000
,  // measure 30
0010
1000
0100
1000
0001
0100
0010
0100
0001
0010
0000
0010
0000
0000
0000
0000
,  // measure 31
0100
1000
0100
0010
0001
1000
0001
0100
0010
0100
0000
0100
0000
0000
0000
0000
,  // measure 32
0002
0000
0000
1000
0000
0000
1003
0000
0200
0000
0000
0010
0000
0000
0310
0000
,  // measure 33
0002
0000
0000
0010
0000
0000
0010
0003
0100
0000
2000
3000
0200
0300
0020
0030
,  // measure 34
0002
0000
0000
0100
0000
0000
0103
0000
0010
1000
0000
1000
0100
0000
1000
0000
,  // measure 35
0002
0000
0000
1000
0000
0000
1000
0003
2200
0000
0000
0000
3301
0000
0000
0000
,  // measure 36
1000
0010
0000
1000
0010
0000
0000
0000
2000
0000
0000
0001
0000
0000
0001
0000
,  // measure 37
0000
0002
0200
3313
,  // measure 38
1000
0000
0000
0001
0000
0000
0001
0000
1000
0100
0000
1000
0100
0000
1000
0000
,  // measure 39
0001
0000
0000
0100
0000
0000
0100
0000
0001
0000
0000
0001
1000
0000
0000
1000
,  // measure 40
0100
1000
0000
0010
0000
0000
0000
0000
0100
0000
0000
0100
0000
0000
0100
0000
,  // measure 41
0000
0000
0002
0203
0320
2030
3002
2003
,  // measure 42
3100
0010
0000
0100
0010
0000
0000
0000
0001
0100
0000
0001
0100
0000
0000
0000
,  // measure 43
0001
1000
0000
0001
1000
0000
0000
0000
0001
0010
0000
0001
0100
0000
0000
0100
,  // measure 44
0001
0010
0000
0001
0010
0000
0000
0000
0001
1000
0000
0001
1000
0000
0000
0000
,  // measure 45
0000
0000
0000
0010
0200
0000
0000
0000
0020
0000
0000
0000
1331
0000
0000
0000
,  // measure 46
1000
0000
0000
1001
0000
0000
1001
0000
0001
0000
0000
1001
0000
0000
1001
0000
,  // measure 47
0010
0000
0000
1001
0000
0000
1001
0000
1000
0010
1000
0000
0001
0001
0010
0000
,  // measure 48
0001
0100
0000
0010
0000
0000
0010
0000
1000
0000
0001
0000
0000
0001
0000
0000
,  // measure 49
0000
0000
0010
0100
0010
0001
1000
0100
1000
0010
0100
0001
1000
0001
0010
0100
,  // measure 50
0010
0000
0001
0000
0000
0001
0000
0000
1000
0100
0010
0000
0000
0010
0000
0000
,  // measure 51
0001
0000
0100
0000
0000
0100
0000
0000
0001
0000
1000
0100
1000
0000
0001
0100
,  // measure 52
0001
0000
0010
0100
1000
0001
0000
0000
1000
0100
0010
0001
0000
0010
0001
0000
,  // measure 53
0000
0000
0000
0000
1000
0000
0001
0000
0100
0000
0010
0100
0001
0000
1000
0000
,  // measure 54
0001
0000
0010
0100
0000
0010
0100
0000
1000
0000
0010
0100
0000
0010
0100
0000
,  // measure 55
0001
0010
0100
0010
0001
1000
0100
0010
0001
1000
0001
0100
0010
1000
0001
0100
,  // measure 56
0002
2003
3200
0300
,  // measure 57
0020
0032
2003
3000
,  // measure 58
0002
0203
0320
0030
,  // measure 59
2000
3200
0000
0000
,  // measure 60
1300
0010
0001
0010
1000
0001
0100
0010
,  // measure 61
1000
0100
0001
0100
0010
0001
0100
0001
,  // measure 62
1000
0010
0100
0010
0001
0010
1000
0001
,  // measure 63
0010
1000
0010
0100
1000
0100
0010
0001
,  // measure 64
0100
0000
0001
1000
0001
0100
0010
1000
0100
0010
0000
0001
1000
0000
1000
0000
,  // measure 65
0001
0000
0100
0010
1000
0010
0100
0010
1000
0001
0000
0100
0001
0000
0001
0000
,  // measure 66
1000
0000
0001
0010
0001
1000
0100
1000
0001
1000
0000
0100
1000
0000
1000
0000
,  // measure 67
0001
0000
1000
0010
0100
0010
1000
0001
0100
0001
0000
1000
0001
0000
0001
0000
,  // measure 68
1000
0000
0010
0100
0010
1000
0100
0010
0001
0100
0000
0100
0010
0000
0010
0000
,  // measure 69
1000
0000
0001
1000
0100
0010
0100
1000
0010
0100
0000
0100
0001
0000
0001
0000
,  // measure 70
1000
0100
0010
0001
0100
0001
0010
0100
1000
0010
1000
0001
1000
0010
0100
0010
,  // measure 71
1000
0001
0010
0001
1000
0010
0100
0001
1000
0100
1000
0010
1000
0001
0100
0010
,  // measure 72
2000
0000
0000
3000
;

//---------------dance-single - ----------------
#NOTEDATA:;
#CHARTNAME:Jog Falls;
#STEPSTYPE:dance-single;
#DESCRIPTION:;
#CHARTSTYLE:;
#DIFFICULTY:Hard;
#METER:6;
#RADARVALUES:0.412186,0.457854,0.029977,0.337243,0.179863,385.000000,381.000000,4.000000,45.000000,0.000000,0.000000,0.000000,0.000000,0.000000,0.412186,0.457854,0.029977,0.337243,0.179863,385.000000,381.000000,4.000000,45.000000,0.000000,0.000000,0.000000,0.000000,0.000000;
#CREDIT:Phil Lee;
#NOTES:
// measure 0
0000
0000
0000
0000
,  // measure 1
0000
0000
0000
0000
,  // measure 2
0000
0000
0000
0000
,  // measure 3
0000
0000
0000
0000
,  // measure 4
1000
0000
0001
0000
1000
0000
0100
0000
0000
0010
0000
0000
0001
0000
0000
0000
,  // measure 5
1000
0000
0100
0000
1000
0000
0010
0000
0000
0100
0000
0000
0001
0000
0000
0000
,  // measure 6
1000
0000
0010
0000
1000
0000
0001
0000
0000
0100
0000
0000
0010
0000
0000
0000
,  // measure 7
1000
0000
0100
0000
1000
0000
0001
0000
0000
0010
0000
0000
0001
0000
0000
0000
,  // measure 8
1000
0000
0010
0000
1000
0000
0001
0000
0000
0100
0000
0000
0010
0000
0000
0000
,  // measure 9
1000
0000
0100
0000
1000
0000
0001
0000
0000
0100
0000
0000
0001
0000
0000
0000
,  // measure 10
0010
0000
0100
0000
1000
0000
0010
0000
0000
1000
0000
0000
0001
0000
0000
0000
,  // measure 11
1000
0000
0010
0000
0100
0000
0010
0000
0000
1000
0000
0000
0001
0000
0000
0000
,  // measure 12
1002
2003
3200
0300
,  // measure 13
2000
3002
0203
0300
,  // measure 14
0002
2003
3200
0300
,  // measure 15
0020
0032
0000
0000
,  // measure 16
1003
0100
1000
0000
0001
0100
0001
0000
,  // measure 17
1000
0010
1000
0000
0001
0010
0001
0000
,  // measure 18
1000
0100
0010
0000
0100
1000
0001
0000
,  // measure 19
1000
0001
0100
0010
1000
0001
0010
0100
,  // measure 20
1000
0000
0000
0010
0000
0000
0010
0000
0100
0000
0000
0010
0000
0000
0010
0000
,  // measure 21
1000
0000
0000
0001
0000
0000
0001
0000
0010
0000
0000
0001
0000
0000
0001
0000
,  // measure 22
0100
0000
0000
0010
0000
0000
0010
0000
1000
0000
0000
0010
0000
0000
0010
0000
,  // measure 23
1000
1000
0100
1000
0001
0100
0001
0010
,  // measure 24
0001
0000
0000
0000
1000
0000
0100
0000
1000
0000
0000
0001
0000
0000
0100
0000
,  // measure 25
0010
0000
0000
0000
1000
0000
0100
0000
1000
0000
0000
0001
0000
0000
0010
0000
,  // measure 26
0100
0000
1000
0000
0010
0000
1000
0000
0001
0000
0000
0100
0000
0000
0010
0000
,  // measure 27
1000
0001
0010
0001
0100
0010
1000
0000
,  // measure 28
0001
0000
0000
0000
1000
0000
0010
0000
1000
0000
0000
0001
0000
0000
0010
0000
,  // measure 29
0100
0000
0000
0000
0010
0000
0001
0000
1000
0000
0000
0001
0000
0000
0100
0000
,  // measure 30
0010
0000
1000
0000
0100
0000
0010
0000
0001
0000
0000
0100
0000
0000
0010
0000
,  // measure 31
1000
0001
0100
0010
1000
0100
1000
0000
,  // measure 32
0001
0000
0000
0100
0000
0000
0100
0000
0001
0000
0000
1000
0000
0000
1000
0000
,  // measure 33
0001
0000
0000
0010
0000
0000
0010
0000
0001
0000
1000
0000
0100
0000
0010
0000
,  // measure 34
0001
0000
0000
0010
0000
0000
0010
0000
0100
0000
0000
1000
0000
0000
1000
0000
,  // measure 35
0001
0000
0000
0100
0000
0000
0100
0000
0010
0000
0000
0100
0000
0000
0100
0000
,  // measure 36
0001
0000
0000
1000
0000
0000
1000
0000
0010
0000
0000
0100
0000
0000
0100
0000
,  // measure 37
0001
1000
0100
0010
,  // measure 38
0002
0003
0020
0030
,  // measure 39
0200
0300
2000
3002
,  // measure 40
0103
0000
0000
0100
0000
0000
0000
0000
0001
0000
0000
0001
0000
0000
0000
0000
,  // measure 41
0000
0000
1000
0100
0010
0100
1000
0001
,  // measure 42
1000
0000
0000
0010
0000
0000
0010
0000
0100
0000
0000
0010
0000
0000
0010
0000
,  // measure 43
1000
0000
0000
0001
0000
0000
0001
0000
1001
0000
0000
0000
1010
0000
0000
0000
,  // measure 44
1000
0000
0000
1000
0000
0000
0000
0000
0010
0000
0000
0010
0000
0000
0010
0000
,  // measure 45
0000
2000
3200
0320
,  // measure 46
0031
0000
0000
0100
0000
0000
0100
0000
0001
0000
0000
0010
0000
0000
0010
0000
,  // measure 47
0100
0000
0000
0010
0000
0000
0010
0000
0001
0000
1000
0000
0010
0000
0100
0000
,  // measure 48
0001
0000
0000
1000
0000
0000
1000
0000
0100
0000
0010
0000
0000
0010
0000
0000
,  // measure 49
0000
0001
0020
0130
2000
3100
0020
0031
,  // measure 50
1000
0000
0010
0000
0000
0010
0000
0000
1000
0000
0100
0000
0000
0100
0000
0000
,  // measure 51
1000
0000
0001
0000
0000
0001
0000
0000
1000
0000
0010
0000
1000
0000
0100
0000
,  // measure 52
1000
0000
0010
0000
0100
0000
0000
0000
0001
0000
0000
0010
0000
0000
0010
0000
,  // measure 53
0000
0000
0001
0100
0010
0100
0001
1000
,  // measure 54
0001
0000
0100
0000
0000
0100
0000
0000
0010
0000
1000
0000
0000
1000
0000
0000
,  // measure 55
0001
0000
0010
0000
0000
0010
0000
0000
0100
0000
0010
0000
0000
0000
0010
0000
,  // measure 56
0022
0033
0002
0000
0203
0000
0300
0000
,  // measure 57
0002
0023
0230
0300
,  // measure 58
2000
3002
0203
0300
,  // measure 59
0020
2030
0000
0000
,  // measure 60
3001
0100
0001
1000
0010
0100
0001
1000
,  // measure 61
0001
0100
0010
1000
0001
1000
0100
0010
,  // measure 62
0001
1000
0010
0100
0001
0010
0001
1000
,  // measure 63
0001
0100
0010
1000
0001
1000
0100
0010
,  // measure 64
0002
0203
0320
0030
,  // measure 65
2000
3020
0230
0300
,  // measure 66
0002
2003
3200
0300
,  // measure 67
0020
0032
0000
0000
,  // measure 68
1003
0100
0010
0100
1000
0001
0100
0001
,  // measure 69
1000
0100
0010
0001
1000
0001
0100
0010
,  // measure 70
1000
0100
0010
0100
1000
0001
0010
0100
,  // measure 71
1000
0100
0010
0001
1000
0001
0100
0010
;

//---------------dance-single - ----------------
#NOTEDATA:;
#CHARTNAME:Gullfoss;
#STEPSTYPE:dance-single;
#DESCRIPTION:;
#CHARTSTYLE:;
#DIFFICULTY:Medium;
#METER:4;
#RADARVALUES:0.224829,0.268858,0.007494,0.029977,0.000000,210.000000,209.000000,1.000000,4.000000,0.000000,0.000000,0.000000,0.000000,0.000000,0.224829,0.268858,0.007494,0.029977,0.000000,210.000000,209.000000,1.000000,4.000000,0.000000,0.000000,0.000000,0.000000,0.000000;
#CREDIT:Phil Lee;
#NOTES:
// measure 0
0000
0000
0000
0000
,  // measure 1
0000
0000
0000
0000
,  // measure 2
0000
0000
0000
0000
,  // measure 3
0000
0000
0000
0000
,  // measure 4
1000
0001
0000
1000
,  // measure 5
0010
0100
0000
0001
,  // measure 6
0010
0100
0000
1000
,  // measure 7
0010
1000
0000
0001
,  // measure 8
1000
0100
0000
0010
,  // measure 9
0001
0010
0000
0100
,  // measure 10
1000
0001
0000
0100
,  // measure 11
0010
1000
0000
0001
,  // measure 12
1000
0100
0010
0001
,  // measure 13
1000
0001
0100
0010
,  // measure 14
1000
0001
0010
0001
,  // measure 15
0100
0010
1000
0001
,  // measure 16
1000
0100
0010
0001
,  // measure 17
1000
0001
0100
0010
,  // measure 18
1000
0001
0010
0100
,  // measure 19
1000
0100
0010
0001
,  // measure 20
1001
0000
1000
0000
,  // measure 21
0010
0000
1000
0000
,  // measure 22
0001
0000
0010
0000
,  // measure 23
0100
0100
0100
1000
,  // measure 24
0001
1000
0010
0000
,  // measure 25
0100
0001
1000
0000
,  // measure 26
0001
0010
0100
0000
,  // measure 27
1000
0001
0100
0001
,  // measure 28
1000
0100
0010
0000
,  // measure 29
0001
0010
0100
0000
,  // measure 30
1000
0001
0100
0000
,  // measure 31
0010
1000
0001
0010
,  // measure 32
0001
0000
0001
0000
,  // measure 33
0100
0000
0100
0000
,  // measure 34
0001
0000
0010
0000
,  // measure 35
0100
0000
1000
0001
,  // measure 36
0001
0000
0100
0000
,  // measure 37
0000
0010
1000
0100
,  // measure 38
1000
0000
0010
0000
,  // measure 39
1000
0000
0100
1000
,  // measure 40
0010
0000
0100
0000
,  // measure 41
0000
0001
0100
0010
,  // measure 42
1000
0000
0100
0000
,  // measure 43
0010
0000
0100
1000
,  // measure 44
0001
0000
0010
0000
,  // measure 45
0000
0001
0100
0010
,  // measure 46
1000
0000
0100
0000
,  // measure 47
0010
0000
0001
1000
,  // measure 48
0001
0000
0010
0000
,  // measure 49
0000
0001
0100
0010
,  // measure 50
1000
0000
0010
0000
,  // measure 51
0100
0000
0001
1000
,  // measure 52
0001
0000
0010
0000
,  // measure 53
0000
0100
0010
0001
,  // measure 54
2000
0000
3002
0000
,  // measure 55
0203
0000
0320
0000
,  // measure 56
1030
0001
1000
0000
,  // measure 57
0010
0100
0010
0000
,  // measure 58
1000
0100
0010
0000
,  // measure 59
0001
0100
0000
0000
,  // measure 60
0001
1000
0100
0010
,  // measure 61
0001
0100
0010
1000
,  // measure 62
0001
1000
0100
0010
,  // measure 63
0100
1000
0001
0100
,  // measure 64
0010
0100
0001
1000
,  // measure 65
0001
0100
0010
1000
,  // measure 66
0001
1000
0100
0010
,  // measure 67
0100
1000
0010
0100
,  // measure 68
0001
1000
0100
1000
,  // measure 69
0001
0100
0010
1000
,  // measure 70
0001
1000
0010
0100
,  // measure 71
0001
1000
0001
0100
;

//---------------dance-single - ----------------
#NOTEDATA:;
#CHARTNAME:Dettifoss;
#STEPSTYPE:dance-single;
#DESCRIPTION:;
#CHARTSTYLE:;
#DIFFICULTY:Easy;
#METER:3;
#RADARVALUES:0.202346,0.241972,0.007494,0.007494,0.000000,189.000000,188.000000,1.000000,1.000000,0.000000,0.000000,0.000000,0.000000,0.000000,0.202346,0.241972,0.007494,0.007494,0.000000,189.000000,188.000000,1.000000,1.000000,0.000000,0.000000,0.000000,0.000000,0.000000;
#CREDIT:Phil Lee;
#NOTES:
// measure 0
0000
0000
0000
0000
,  // measure 1
0000
0000
0000
0000
,  // measure 2
0000
0000
0000
0000
,  // measure 3
0000
0000
0000
0000
,  // measure 4
0001
0100
0000
0010
,  // measure 5
0100
0001
0000
1000
,  // measure 6
0001
0100
0000
0010
,  // measure 7
1000
0001
0000
1000
,  // measure 8
0001
1000
0000
0001
,  // measure 9
0010
0001
0000
1000
,  // measure 10
0100
1000
0000
0001
,  // measure 11
0100
0001
0000
1000
,  // measure 12
0100
0010
0001
0000
,  // measure 13
1000
0010
0100
0000
,  // measure 14
0001
0010
0001
0000
,  // measure 15
1000
0010
0000
0000
,  // measure 16
1000
0100
0010
0000
,  // measure 17
0001
0010
0100
0000
,  // measure 18
1000
0001
0100
0000
,  // measure 19
0010
1000
0002
0000
,  // measure 20
1003
0000
1000
0000
,  // measure 21
0001
0000
0001
0000
,  // measure 22
0100
0000
0100
0000
,  // measure 23
0010
0000
0010
0010
,  // measure 24
1000
0100
0010
0000
,  // measure 25
0001
0010
0100
0000
,  // measure 26
1000
0001
0100
0000
,  // measure 27
0010
1000
0001
0000
,  // measure 28
1000
0001
1000
0000
,  // measure 29
0010
0100
0010
0000
,  // measure 30
1000
0100
1000
0000
,  // measure 31
0001
0100
0001
0000
,  // measure 32
1000
0000
1000
0000
,  // measure 33
0001
0000
0001
0100
,  // measure 34
0001
0000
0010
0000
,  // measure 35
0100
0000
1000
0001
,  // measure 36
0001
0000
0100
0000
,  // measure 37
0000
0001
1000
0001
,  // measure 38
1000
0000
0100
0000
,  // measure 39
0010
0000
0001
1000
,  // measure 40
0001
0000
0100
0000
,  // measure 41
0000
0001
0010
0001
,  // measure 42
0010
0000
0100
0000
,  // measure 43
1000
0000
0001
0010
,  // measure 44
0001
0000
1000
0000
,  // measure 45
0000
0010
0100
0010
,  // measure 46
0100
0000
0001
0000
,  // measure 47
0010
0000
0001
0010
,  // measure 48
0100
0000
1000
0000
,  // measure 49
0000
0001
1000
0001
,  // measure 50
1000
0000
0010
0000
,  // measure 51
0100
0000
0001
1000
,  // measure 52
0100
0000
1000
0000
,  // measure 53
0000
0100
0010
0100
,  // measure 54
0010
0000
0001
0000
,  // measure 55
0100
0000
0010
1000
,  // measure 56
1001
1000
0001
0000
,  // measure 57
1000
0100
0010
0000
,  // measure 58
0001
0010
0100
0000
,  // measure 59
1000
1000
0000
0000
,  // measure 60
0010
0100
0001
0000
,  // measure 61
1000
0100
0010
0000
,  // measure 62
0001
0010
0100
0000
,  // measure 63
1000
0001
0100
0000
,  // measure 64
0010
1000
0001
0000
,  // measure 65
1000
0100
0010
0000
,  // measure 66
0001
0010
0100
0000
,  // measure 67
1000
0010
1000
0000
,  // measure 68
0001
0100
0010
0000
,  // measure 69
1000
0100
1000
0000
,  // measure 70
0001
0010
0100
0000
,  // measure 71
1000
0010
1000
0010
;

//---------------dance-single - ----------------
#NOTEDATA:;
#CHARTNAME:Great Falls;
#STEPSTYPE:dance-single;
#DESCRIPTION:;
#CHARTSTYLE:;
#DIFFICULTY:Beginner;
#METER:1;
#RADARVALUES:0.080296,0.134897,0.014989,0.007494,0.000000,75.000000,73.000000,2.000000,1.000000,0.000000,0.000000,0.000000,0.000000,0.000000,0.080296,0.134897,0.014989,0.007494,0.000000,75.000000,73.000000,2.000000,1.000000,0.000000,0.000000,0.000000,0.000000,0.000000;
#CREDIT:Phil Lee;
#NOTES:
0000
0000
0000
0000
,
0000
0000
0000
0000
,
0000
0000
0000
0000
,
0000
0000
0000
0000
,
1000
0000
0000
0000
,
0001
0000
0000
0000
,
0100
0000
0000
0000
,
0010
0000
0000
0000
,
1000
0000
0000
0000
,
0001
0000
0000
0000
,
0010
0000
0000
0000
,
0100
0000
0000
0000
,
1000
0000
0000
0000
,
0010
0000
0000
0000
,
0100
0000
0000
0000
,
0001
0000
0000
0000
,
1000
0000
0000
0000
,
0001
0000
0000
0000
,
0010
0000
0000
0000
,
0100
0000
0000
0000
,
1000
0000
0000
0000
,
0001
0000
0000
0000
,
0100
0000
0000
0000
,
0010
0000
0000
0000
,
1000
0000
0000
0000
,
0001
0000
0000
0000
,
1000
0000
0000
0000
,
0100
0000
0000
0000
,
0010
0000
0000
0000
,
0001
0000
0000
0000
,
1000
0000
0000
0000
,
0010
0000
0000
0000
,
0100
0000
0000
0000
,
0000
0000
0000
0010
,
1000
0000
0000
0000
,
0001
0000
0000
0000
,
0010
0000
0000
0000
,
0000
0100
0000
0100
,
1000
0000
0000
0000
,
0001
0000
0000
0000
,
1001
0000
0000
0000
,
0000
1000
0000
1000
,
0100
0000
0000
0000
,
0010
0000
0000
0000
,
0001
0000
0000
0000
,
0000
0010
0000
0010
,
0100
0000
0000
0000
,
1000
0000
0000
0000
,
0001
0000
0000
0000
,
0000
1000
0000
1000
,
0100
0000
0000
0000
,
0010
0000
0000
0000
,
0001
0000
0000
0000
,
0000
1000
0000
1000
,
0001
0000
0000
0000
,
0100
0000
0000
0000
,
1001
0000
0000
0000
,
1000
0000
0000
0000
,
0001
0000
0000
0000
,
0100
0000
0000
0000
,
0010
0000
0000
0000
,
1000
0000
0000
0000
,
0001
0000
0000
0000
,
0010
0000
0000
0000
,
0100
0000
0000
0000
,
1000
0000
0000
0000
,
0001
0000
0000
0000
,
1000
0000
0000
0000
,
0010
0000
0000
0000
,
0100
0000
0000
0000
,
0010
0000
0000
0000
,
2000
0000
0000
0000
,
3000
0000
0000
0000
;
