#VERSION:0.83;
#TITLE:Unity;
#SUBTITLE:;
#ARTIST:TheFatRat;
#TITLETRANSLIT:Unity;
#SUBTITLETRANSLIT:A Glitch Hop track;
#ARTISTTRANSLIT:TheFatRat;
#GENRE:Electro;
#ORIGIN:;
#CREDIT:Itsugo15;
#BANNER:Unity-bn.png;
#BACKGROUND:Unity-bg.png;
#PREVIEWVID:;
#JACKET:Unity-Jacket.png;
#CDIMAGE:;
#DISCIMAGE:Unity-bg1.jpg;
#LYRICSPATH:Unity.lrc;
#CDTITLE:;
#MUSIC:TheFatRat - Unity.ogg;
#OFFSET:0.001369;
#SAMPLESTART:31.333300;
#SAMPLELENGTH:20.000000;
#SELECTABLE:YES;
#BPMS:0.000=105.000;
#STOPS:206.000=2.643;
#DELAYS:;
#WARPS:;
#TIMESIGNATURES:0.000=4=4;
#TICKCOUNTS:0.000=4;
#COMBOS:0.000=1;
#SPEEDS:0.000=1.000=0.000=0;
#SCROLLS:0.000=1.000;
#FAKES:;
#LABELS:0.000=Song Start;
#BGCHANGES:0.000=Unity-bg.png=1.000=1=0=0=StretchNoLoop==CrossFade==,
14.833=Unity-bg1.jpg=1.000=1=0=0=StretchNoLoop==CrossFade==,
48.000=Unity-bg2.jpg=1.000=1=0=0=StretchNoLoop==CrossFade==,
80.000=Unity-bg3.jpg=1.000=1=0=0=StretchNoLoop==CrossFade==,
112.000=Unity-bg4.jpg=1.000=1=0=0=StretchNoLoop==CrossFade==,
144.000=Unity-bg5.jpg=1.000=1=0=0=StretchNoLoop==CrossFade==,
176.000=Unity-bg6.jpg=1.000=1=0=0=StretchNoLoop==CrossFade==,
206.000=Unity-bg7.jpg=1.000=0=0=0=StretchNoLoop====,
99999=-nosongbg-=1.000=0=0=0 // don't automatically add -songbackground-
;
#KEYSOUNDS:;
#ATTACKS:
;

//---------------dance-single - Itsugo15----------------
#NOTEDATA:;
#CHARTNAME:I'm lost.;
#STEPSTYPE:dance-single;
#DESCRIPTION:Itsugo15;
#CHARTSTYLE:;
#DIFFICULTY:Beginner;
#METER:2;
#RADARVALUES:0.097237,0.106872,0.000000,0.107910,0.000000,82.000000,82.000000,0.000000,13.000000,0.000000,0.000000,0.000000,0.000000,0.000000,0.097237,0.106872,0.000000,0.107910,0.000000,82.000000,82.000000,0.000000,13.000000,0.000000,0.000000,0.000000,0.000000,0.000000;
#CREDIT:Joel Paucar Rivera;
#NOTES:
0000
0000
0000
0000
,
0000
0000
0000
0000
,
0000
0000
0000
0000
,
0002
0000
0003
0000
,
1000
0000
0010
0000
,
0100
0000
0010
0000
,
1000
0000
0001
0000
,
0010
0000
0100
0000
,
1000
0000
1000
0000
,
0100
0000
0100
0000
,
0010
0000
0010
0000
,
0002
0000
0003
0000
,
1000
0000
0010
0000
,
0200
0000
0300
0000
,
0001
0000
0010
0000
,
0200
0000
0300
0000
,
1000
0000
0001
0000
,
0200
0000
0300
0000
,
0001
0000
1000
0000
,
0200
0000
0300
0000
,
0010
0000
0001
0000
,
0010
0000
0100
0000
,
1000
0000
0100
0000
,
1000
0000
0010
0000
,
0100
0000
0001
0000
,
0100
0000
0010
0000
,
1000
0000
0001
0000
,
0020
0000
0030
0000
,
0100
0000
0000
0000
,
1000
0000
0000
0000
,
0001
0000
0000
0000
,
0100
0000
0000
0000
,
0010
0000
0010
0000
,
1000
0000
1000
0000
,
0001
0000
0010
0000
,
0200
0000
0300
0000
,
1000
0000
0100
0000
,
0020
0000
0030
0000
,
0001
0000
1000
0000
,
0020
0000
0030
0000
,
0100
0000
0001
0000
,
0020
0000
0030
0000
,
0100
0000
1000
0000
,
0020
0000
0030
0000
,
0100
0000
0100
0000
,
0001
0000
0001
0000
,
1000
0000
1000
0000
,
0100
0000
0100
0000
,
0010
0000
0001
0000
,
1000
0000
0010
0000
,
0100
0000
0001
0000
,
0200
0000
0310
0000
;

//---------------dance-single - Itsugo15----------------
#NOTEDATA:;
#CHARTNAME:United once again!;
#STEPSTYPE:dance-single;
#DESCRIPTION:Itsugo15;
#CHARTSTYLE:;
#DIFFICULTY:Edit;
#METER:10;
#RADARVALUES:0.706750,0.684190,0.713865,1.128902,0.672361,596.000000,510.000000,86.000000,136.000000,5.000000,0.000000,0.000000,0.000000,0.000000,0.706750,0.684190,0.713865,1.128902,0.672361,596.000000,510.000000,86.000000,136.000000,5.000000,0.000000,0.000000,0.000000,0.000000;
#CREDIT:Joel Paucar Rivera;
#NOTES:
// measure 0
0000
0000
0000
0000
,  // measure 1
0000
0000
0000
0000
,  // measure 2
0000
0000
0000
0000
,  // measure 3
0101
0000
0000
1010
0000
0000
0011
0000
0000
1100
0000
0000
1001
0000
0000
0000
0000
1000
0001
0000
0001
0100
0000
0100
,  // measure 4
0010
0000
0000
0000
0000
0010
1000
0000
1000
0001
0000
0001
0010
0000
0000
0000
0000
0010
0001
0000
0001
1000
0000
1000
,  // measure 5
0200
0000
0000
1000
0000
0000
0010
0000
0000
0001
0000
0000
1300
0000
0000
0000
0000
1000
0100
0000
0100
1000
0000
1000
,  // measure 6
0001
0000
0000
0000
0000
0100
0010
0000
0010
0100
0000
0100
0001
0000
0000
0000
0000
0100
0010
0000
0010
1000
0000
1000
,  // measure 7
0200
0000
0000
1000
0000
0000
0001
0000
0000
0010
0000
0000
1300
0000
0000
0000
0000
1000
0001
0000
0001
0010
0000
0010
,  // measure 8
0002
0000
0000
0000
0000
0000
0000
0000
0000
0000
0000
0000
0000
0000
0000
0000
0000
0000
0000
0000
0000
0000
0000
0000
1003
0000
0000
0000
0000
0000
0000
0000
0000
0000
0000
0000
0000
0000
0000
0000
0000
0000
0000
0000
0000
0000
0000
0000
0100
0000
0000
0000
0000
0000
0000
0000
0000
0000
0000
0000
0000
0000
0000
0000
0000
0000
0000
0000
0000
0000
0000
0000
0010
0000
0000
0000
0000
0000
0000
0000
0000
0000
0000
0000
0000
0000
0000
0000
0010
0000
0000
0000
0000
0000
0000
0000
0001
0000
0000
0000
0000
0000
0000
0000
0000
0000
0000
0000
0000
0000
0000
0000
0001
0000
0000
0000
0000
0000
0000
0000
0100
0000
0000
0000
0000
0000
0000
0000
0000
0000
0000
0000
0000
0000
0000
0000
0000
0000
0000
0000
0000
0000
0000
0000
0020
0000
0000
0000
0000
0000
0000
0000
0000
0000
0000
0000
0000
0000
0000
0000
0000
0000
0000
0000
0000
0000
0000
0000
0130
0000
0000
0000
0000
0000
0000
0000
0000
0000
0000
0000
0000
0000
0000
0000
0000
0000
0100
0000
0000
0000
0000
0000
,  // measure 9
0002
0000
0000
0000
0000
0000
0000
0000
0000
0000
0000
0000
0000
0000
0000
0000
0000
0000
0000
0000
0000
0000
0000
0000
1003
0000
0000
0000
0000
0000
0000
0000
0000
0000
0000
0000
0000
0000
0000
0000
0000
0000
0000
0000
0000
0000
0000
0000
0100
0000
0000
0000
0000
0000
0000
0000
0000
0000
0000
0000
0000
0000
0000
0000
0000
0000
0000
0000
0000
0000
0000
0000
0010
0000
0000
0000
0000
0000
0000
0000
0000
0000
0000
0000
0000
0000
0000
0000
0010
0000
0000
0000
0000
0000
0000
0000
0100
0000
0000
0000
0000
0000
0000
0000
0000
0000
0000
0000
0000
0000
0000
0000
0100
0000
0000
0000
0000
0000
0000
0000
2000
0000
0000
0000
0000
0000
0000
0000
0000
0000
0000
0000
0000
0000
0000
0000
0000
0000
0000
0000
0000
0000
0000
0000
3020
0000
0000
0000
0000
0000
0000
0000
0000
0000
0000
0000
0000
0000
0000
0000
0000
0000
0000
0000
0000
0000
0000
0000
0130
0000
0000
0000
0000
0000
0000
0000
0000
0000
0000
0000
0000
0000
0000
0000
0000
0000
0100
0000
0000
0000
0000
0000
,  // measure 10
0001
0000
0000
0001
0000
0000
1000
0000
0100
0010
0000
0001
1000
0000
0000
0010
0000
0000
0100
0000
0001
1000
0000
0100
,  // measure 11
0010
0000
0000
0110
0000
0000
0110
0000
0000
0110
0000
0000
1001
0000
0000
0000
0000
000M
M000
0000
M000
000M
0000
0M00
,  // measure 12
2002
0000
0000
3003
0000
1000
0100
0000
0100
0010
0000
0010
0002
0000
0000
0003
0000
0010
0100
0000
0100
1000
0000
1000
,  // measure 13
0002
0000
0000
0203
0000
0000
2300
0000
0000
3200
0000
0000
0302
0000
0000
0003
0000
1000
0001
0000
0001
0100
0000
0010
,  // measure 14
2000
0000
0000
3000
0000
0010
0100
0000
0100
0001
0000
1000
0200
0000
0000
0300
0000
0010
0001
0000
0001
0010
0000
0100
,  // measure 15
2000
0000
0000
3020
0000
0000
0032
0000
0000
0023
0000
0000
2030
0000
0000
3000
0000
0100
0010
0000
0001
1000
0000
0010
,  // measure 16
0200
0000
0000
0300
0000
0001
0100
0000
0010
1000
0000
0001
0020
0000
0000
0030
0000
0100
1000
0000
0001
0100
0000
0010
,  // measure 17
2000
0000
0000
3200
0000
0000
0302
0000
0000
0203
0000
0000
0320
0000
0000
0030
0000
0001
1000
0000
0100
0010
0000
0001
,  // measure 18
2000
0000
0000
3000
0000
0001
1000
0000
0010
0100
0000
0001
2000
0000
0000
3000
0000
0100
0010
0000
0001
1000
0000
0010
,  // measure 19
0200
0000
0000
0302
0000
0000
0203
0000
0000
2300
0000
0000
3200
0000
0000
0300
0000
0001
1000
0000
0000
0010
0000
0000
,  // measure 20
1001
0000
0000
0011
0000
0000
1001
0000
0000
0011
0000
0010
0001
0000
0001
2000
0000
3000
0020
0000
0030
0200
0000
0300
,  // measure 21
0110
0000
0000
1010
0000
0000
1001
0000
0000
1010
0000
0010
1000
0000
0001
0020
0000
0030
0200
0000
0300
2000
0000
3000
,  // measure 22
1100
0000
0000
1001
0000
0000
1100
0000
0000
0110
0000
1000
0001
0000
0001
2000
0000
3000
0020
0000
0030
0200
0000
0300
,  // measure 23
0110
0000
0000
0101
0000
0000
1001
0000
0000
1100
0000
0100
1000
0000
0001
0200
0000
0300
0020
0000
0030
0200
0000
0300
,  // measure 24
1001
0000
0000
1100
0000
0000
1001
0000
0000
1100
0000
0100
1000
0000
1000
0002
0000
0003
0200
0000
0300
0020
0000
0030
,  // measure 25
0110
0000
0000
0101
0000
0000
1001
0000
0000
0101
0000
0100
0001
0000
1000
0200
0000
0300
0020
0000
0030
0002
0000
0003
,  // measure 26
0011
0000
0000
1001
0000
0000
0011
0000
0010
0100
0000
0100
1000
0000
0000
1100
0000
0000
1001
0000
0001
0100
0000
0010
,  // measure 27
1000
0000
0000
1001
0000
0000
0110
0000
0000
1001
0000
0000
0110
0000
0000
0000
0000
0001
1000
0000
1000
0001
0000
0001
,  // measure 28
0010
0000
0000
0000
0000
0000
0000
0000
0000
0000
0000
0000
0000
0000
0000
0000
0000
0000
0000
0000
0000
0000
0000
0000
0100
0000
0000
0000
0000
0000
0000
0000
0000
0000
0000
0000
0000
0000
0000
0000
0000
0000
0000
0000
0000
0000
0000
0000
1000
0000
0000
0000
0000
0000
0000
0000
0000
0000
0000
0000
0000
0000
0000
0000
0000
0000
0000
0000
0000
0000
0000
0000
0100
0000
0000
0000
0000
0000
0000
0000
0000
0000
0000
0000
0000
0000
0000
0000
0100
0000
0000
0000
0000
0000
0000
0000
0010
0000
0000
0000
0000
0000
0000
0000
0000
0000
0000
0000
0000
0000
0000
0000
0010
0000
0000
0000
0000
0000
0000
0000
0002
0000
0000
0000
0000
0000
0000
0000
0000
0000
0000
0000
0000
0000
0000
0000
0000
0000
0000
0000
0000
0000
0000
0000
0203
0000
0000
0000
0000
0000
0000
0000
0000
0000
0000
0000
0000
0000
0000
0000
0300
0000
0000
0000
0000
0000
0000
0000
0020
0000
0000
0000
0000
0000
0000
0000
0000
0000
0000
0000
0000
0000
0000
0000
0000
0000
0030
0000
0000
0000
0000
0000
,  // measure 29
1010
0000
0000
0010
0000
0000
1000
0000
0000
0100
0000
0100
0010
0000
0010
0002
0000
0003
0200
0000
0300
0020
0000
0030
,  // measure 30
0110
0000
0000
0000
0000
0000
0000
0000
0000
0000
0000
0000
0000
0000
0000
0000
0000
0000
0000
0000
0000
0000
0000
0000
0010
0000
0000
0000
0000
0000
0000
0000
0000
0000
0000
0000
0000
0000
0000
0000
0000
0000
0000
0000
0000
0000
0000
0000
1000
0000
0000
0000
0000
0000
0000
0000
0000
0000
0000
0000
0000
0000
0000
0000
0000
0000
0000
0000
0000
0000
0000
0000
0001
0000
0000
0000
0000
0000
0000
0000
0000
0000
0000
0000
0000
0000
0000
0000
0001
0000
0000
0000
0000
0000
0000
0000
0100
0000
0000
0000
0000
0000
0000
0000
0000
0000
0000
0000
0000
0000
0000
0000
0100
0000
0000
0000
0000
0000
0000
0000
0020
0000
0000
0000
0000
0000
0000
0000
0000
0000
0000
0000
0000
0000
0000
0000
0000
0000
0000
0000
0000
0000
0000
0000
1030
0000
0000
0000
0000
0000
0000
0000
0000
0000
0000
0000
0000
0000
0000
0000
0000
0000
0000
0000
0000
0000
0000
0000
0002
0000
0000
0000
0000
0000
0000
0000
0000
0000
0000
0000
0000
0000
0000
0000
0000
0000
0003
0000
0000
0000
0000
0000
,  // measure 31
0110
0000
0000
1000
0000
0000
0001
0000
0000
0010
0000
0010
0100
0000
0100
2000
0000
3000
0002
0000
0003
0200
0000
0300
,  // measure 32
0101
0000
0000
0100
0000
0010
0000
0000
1000
0001
0000
0000
0010
0000
0001
1000
0000
0100
0010
0000
0000
0001
0000
0000
,  // measure 33
0011
0000
0000
0010
0000
0100
0000
0000
1000
0001
0000
0000
0100
0000
0001
1000
0000
0010
0100
0000
0000
0001
0000
0000
,  // measure 34
0101
0000
0000
0100
0000
0010
1000
0000
0001
0010
0000
0100
1000
0000
0000
0100
0000
0010
0001
0000
1000
0010
0000
0100
,  // measure 35
0001
0000
0000
0011
0000
0000
1100
0000
0000
1010
0000
0000
2001
0000
0000
0000
0000
3010
0100
0000
0100
0010
0000
0010
,  // measure 36
2000
0000
0000
3000
0000
0010
0100
0000
0100
0001
0000
0001
0020
0000
0000
0030
0000
0001
0100
0000
0100
0010
0000
0010
,  // measure 37
0200
0000
0000
2300
0000
0000
3200
0000
0000
0302
0000
0000
2003
0000
0000
3000
0000
0001
0010
0000
0010
0100
0000
0100
,  // measure 38
2000
0000
0000
3000
0000
0010
0100
0000
0100
0001
0000
0001
0020
0000
0000
0030
0000
0100
1000
0000
1000
0010
0000
0010
,  // measure 39
0002
0000
0000
0023
0000
0000
2030
0000
0000
3200
0000
0000
2300
0000
0000
3000
0000
0010
0100
0000
0100
0010
0000
0010
,  // measure 40
2000
0000
0000
3000
0000
0001
1000
0000
1000
0100
0000
0100
0020
0000
0000
0030
0000
0001
1000
0000
1000
0010
0000
0010
,  // measure 41
0200
0000
0000
0320
0000
0000
0032
0000
0000
0023
0000
0000
2030
0000
0000
3000
0000
0001
1000
0000
1000
0100
0000
0100
,  // measure 42
0020
0000
0000
0030
0000
0001
1000
0000
1000
0010
0000
0010
2000
0000
0000
3000
0000
0001
0100
0000
0100
0001
0000
0001
,  // measure 43
2000
0000
0000
3200
0000
0000
0302
0000
0000
0203
0000
0000
2300
0000
0000
3000
0000
0001
1000
0000
0000
0001
0000
0000
,  // measure 44
0021
0000
0000
0000
0000
0000
0000
0000
0000
0000
0000
0000
0000
0000
0000
0000
0000
0000
0000
0000
0000
0030
0000
0000
0120
0000
0000
0000
0000
0000
0000
0000
0000
0000
0000
0000
0000
0000
0000
0000
0000
0000
0000
0000
0000
0030
0000
0000
0021
0000
0000
0000
0000
0000
0000
0000
0000
0000
0000
0000
0000
0000
0000
0000
0000
0000
0000
0000
0000
0030
0000
0000
0110
0000
0000
0000
0000
0000
0000
0000
0000
0000
0000
0000
0000
0000
0000
0000
0100
0000
0000
0000
0000
0000
0000
0000
1000
0000
0000
0000
0000
0000
0000
0000
0000
0000
0000
0000
0000
0000
0000
0000
1000
0000
0000
0000
0000
0000
0000
0000
0020
0000
0000
0000
0000
0000
0000
0000
0000
0000
0000
0000
0000
0000
0000
0000
0030
0000
0000
0000
0000
0000
0000
0000
0200
0000
0000
0000
0000
0000
0000
0000
0000
0000
0000
0000
0000
0000
0000
0000
0300
0000
0000
0000
0000
0000
0000
0000
0002
0000
0000
0000
0000
0000
0000
0000
0000
0000
0000
0000
0000
0000
0000
0000
0003
0000
0000
0000
0000
0000
0000
0000
,  // measure 45
0201
0000
0000
0000
0000
0000
0000
0000
0000
0000
0000
0000
0000
0000
0000
0000
0000
0000
0000
0000
0000
0300
0000
0000
0210
0000
0000
0000
0000
0000
0000
0000
0000
0000
0000
0000
0000
0000
0000
0000
0000
0000
0000
0000
0000
0300
0000
0000
0201
0000
0000
0000
0000
0000
0000
0000
0000
0000
0000
0000
0000
0000
0000
0000
0000
0000
0000
0000
0000
0300
0000
0000
0110
0000
0000
0000
0000
0000
0000
0000
0000
0000
0000
0000
0000
0000
0000
0000
0010
0000
0000
0000
0000
0000
0000
0000
1000
0000
0000
0000
0000
0000
0000
0000
0000
0000
0000
0000
0000
0000
0000
0000
1000
0000
0000
0000
0000
0000
0000
0000
0002
0000
0000
0000
0000
0000
0000
0000
0000
0000
0000
0000
0000
0000
0000
0000
0003
0000
0000
0000
0000
0000
0000
0000
0020
0000
0000
0000
0000
0000
0000
0000
0000
0000
0000
0000
0000
0000
0000
0000
0030
0000
0000
0000
0000
0000
0000
0000
0200
0000
0000
0000
0000
0000
0000
0000
0000
0000
0000
0000
0000
0000
0000
0000
0300
0000
0000
0000
0000
0000
0000
0000
,  // measure 46
2100
0000
0000
0000
0000
0000
0000
0000
0000
0000
0000
0000
0000
0000
0000
0000
0000
0000
0000
0000
0000
3000
0000
0000
2001
0000
0000
0000
0000
0000
0000
0000
0000
0000
0000
0000
0000
0000
0000
0000
0000
0000
0000
0000
0000
3000
0000
0000
2100
0000
0000
0000
0000
0000
0000
0000
0000
0000
0000
0000
0000
0000
0000
0000
0000
0000
0000
0000
0000
3000
0000
0000
1001
0000
0000
0000
0000
0000
0000
0000
0000
0000
0000
0000
0000
0000
0000
0000
0001
0000
0000
0000
0000
0000
0000
0000
1000
0000
0000
0000
0000
0000
0000
0000
0000
0000
0000
0000
0000
0000
0000
0000
1000
0000
0000
0000
0000
0000
0000
0000
0200
0000
0000
0000
0000
0000
0000
0000
0000
0000
0000
0000
0000
0000
0000
0000
0300
0000
0000
0000
0000
0000
0000
0000
0020
0000
0000
0000
0000
0000
0000
0000
0000
0000
0000
0000
0000
0000
0000
0000
0030
0000
0000
0000
0000
0000
0000
0000
0200
0000
0000
0000
0000
0000
0000
0000
0000
0000
0000
0000
0000
0000
0000
0000
0300
0000
0000
0000
0000
0000
0000
0000
,  // measure 47
2100
0000
0000
0000
0000
3000
2010
0000
0000
0000
0000
3000
2100
0000
0000
0000
0000
3000
1010
0000
0000
0000
1000
0000
0010
0000
0000
0000
0010
0000
0200
0000
0000
0000
0300
0000
0002
0000
0000
0000
0003
0000
0200
0000
0000
0000
0300
0000
,  // measure 48
0201
0000
0000
0000
0000
0000
0000
0000
0000
0000
0000
0000
0000
0000
0000
0000
0000
0000
0000
0000
0000
0300
0000
0000
0210
0000
0000
0000
0000
0000
0000
0000
0000
0000
0000
0000
0000
0000
0000
0000
0000
0000
0000
0000
0000
0300
0000
0000
0201
0000
0000
0000
0000
0000
0000
0000
0000
0000
0000
0000
0000
0000
0000
0000
0000
0000
0000
0000
0000
0300
0000
0000
0110
0000
0000
0000
0000
0000
0000
0000
0000
0000
0000
0000
0000
0000
0000
0000
0010
0000
0000
0000
0000
0000
0000
0000
1000
0000
0000
0000
0000
0000
0000
0000
0000
0000
0000
0000
0000
0000
0000
0000
1000
0000
0000
0000
0000
0000
0000
0000
0200
0000
0000
0000
0000
0000
0000
0000
0000
0000
0000
0000
0000
0000
0000
0000
0300
0000
0000
0000
0000
0000
0000
0000
0020
0000
0000
0000
0000
0000
0000
0000
0000
0000
0000
0000
0000
0000
0000
0000
0030
0000
0000
0000
0000
0000
0000
0000
0002
0000
0000
0000
0000
0000
0000
0000
0000
0000
0000
0000
0000
0000
0000
0000
0003
0000
0000
0000
0000
0000
0000
0000
,  // measure 49
0021
0000
0000
0000
0000
0000
0000
0000
0000
0000
0000
0000
0000
0000
0000
0000
0000
0000
0000
0000
0000
0030
0000
0000
0120
0000
0000
0000
0000
0000
0000
0000
0000
0000
0000
0000
0000
0000
0000
0000
0000
0000
0000
0000
0000
0030
0000
0000
0021
0000
0000
0000
0000
0000
0000
0000
0000
0000
0000
0000
0000
0000
0000
0000
0000
0000
0000
0000
0000
0030
0000
0000
0110
0000
0000
0000
0000
0000
0000
0000
0000
0000
0000
0000
0000
0000
0000
0000
0100
0000
0000
0000
0000
0000
0000
0000
1000
0000
0000
0000
0000
0000
0000
0000
0000
0000
0000
0000
0000
0000
0000
0000
1000
0000
0000
0000
0000
0000
0000
0000
0002
0000
0000
0000
0000
0000
0000
0000
0000
0000
0000
0000
0000
0000
0000
0000
0003
0000
0000
0000
0000
0000
0000
0000
0200
0000
0000
0000
0000
0000
0000
0000
0000
0000
0000
0000
0000
0000
0000
0000
0300
0000
0000
0000
0000
0000
0000
0000
0020
0000
0000
0000
0000
0000
0000
0000
0000
0000
0000
0000
0000
0000
0000
0000
0030
0000
0000
0000
0000
0000
0000
0000
,  // measure 50
0210
0000
0000
0000
0000
0000
0000
0000
0000
0000
0000
0000
0000
0000
0000
0000
0000
0000
0000
0000
0000
0300
0000
0000
0201
0000
0000
0000
0000
0000
0000
0000
0000
0000
0000
0000
0000
0000
0000
0000
0000
0000
0000
0000
0000
0300
0000
0000
0110
0000
0000
0000
0000
0000
0000
0000
0000
0000
0000
0000
0000
0000
0000
0000
0010
0000
0000
0000
0000
0000
0000
0000
1000
0000
0000
0000
0000
0000
0000
0000
0000
0000
0000
0000
0000
0000
0000
0000
1000
0000
0000
0000
0000
0000
0000
0000
0020
0000
0000
0000
0000
0000
0000
0000
0000
0000
0000
0000
0000
0000
0000
0000
0000
0000
0000
0000
0000
0030
0000
0000
0120
0000
0000
0000
0000
0000
0000
0000
0000
0000
0000
0000
0000
0000
0000
0000
0000
0000
0000
0000
0000
0030
0000
0000
1010
0000
0000
0000
0000
0000
0000
0000
0000
0000
0000
0000
0000
0000
0000
0000
1000
0000
0000
0000
0000
0000
0000
0000
0100
0000
0000
0000
0000
0000
0000
0000
0000
0000
0000
0000
0000
0000
0000
0000
0100
0000
0000
0000
0000
0000
0000
0000
,  // measure 51
0010
0000
0000
0000
0000
0000
0000
0000
0011
0000
0000
0000
0000
0000
0000
0000
0101
0000
0000
0000
0000
0000
0000
0000
1100
0000
0000
0000
0000
0000
0000
0000
2020
3030
0000
0000
0000
0000
0000
0000
0000
0000
0000
0000
0000
0000
0000
0000
0000
0000
0000
0000
0000
0000
0000
0000
0000
0000
0000
0000
0000
0000
0000
0000
;

//---------------dance-single - Itsugo15----------------
#NOTEDATA:;
#CHARTNAME:On my way!;
#STEPSTYPE:dance-single;
#DESCRIPTION:Itsugo15;
#CHARTSTYLE:;
#DIFFICULTY:Challenge;
#METER:9;
#RADARVALUES:0.620185,0.619859,0.365233,0.879880,0.593504,523.000000,479.000000,44.000000,106.000000,0.000000,1.000000,0.000000,0.000000,0.000000,0.620185,0.619859,0.365233,0.879880,0.593504,523.000000,479.000000,44.000000,106.000000,0.000000,1.000000,0.000000,0.000000,0.000000;
#CREDIT:Joel Paucar Rivera;
#NOTES:
// measure 0
0000
0000
0000
0000
,  // measure 1
0000
0000
0000
0000
,  // measure 2
0000
0000
0000
0000
,  // measure 3
1001
0000
0000
1001
0000
0000
1001
0000
0000
1001
0000
0000
0110
0000
0000
0000
0000
0001
0100
0000
0100
0001
0000
0001
,  // measure 4
1000
0000
0000
0000
0000
0001
1000
0000
1000
0100
0000
0100
0010
0000
0000
0000
0000
0100
0010
0000
0010
0001
0000
0001
,  // measure 5
2000
0000
0000
3020
0000
0000
0032
0000
0000
0023
0000
0000
2030
0000
0000
3000
0000
0001
0010
0000
0010
0100
0000
0100
,  // measure 6
1000
0000
0000
0000
0000
1000
0010
0000
0010
0100
0000
0100
0001
0000
0000
0000
0000
0001
0010
0000
0010
0100
0000
0100
,  // measure 7
2000
0000
0000
3200
0000
0000
0302
0000
0000
0203
0000
0000
2300
0000
0000
3000
0000
0001
0100
0000
0100
0010
0000
0010
,  // measure 8
1000
0000
0000
0000
0000
0000
0000
0000
0000
0000
0000
0000
0000
0000
0000
0000
0000
0000
0000
0000
0000
0000
0000
0000
0001
0000
0000
0000
0000
0000
0000
0000
0000
0000
0000
0000
0000
0000
0000
0000
0000
0000
0000
0000
0000
0000
0000
0000
0010
0000
0000
0000
0000
0000
0000
0000
0000
0000
0000
0000
0000
0000
0000
0000
0000
0000
0000
0000
0000
0000
0000
0000
0100
0000
0000
0000
0000
0000
0000
0000
0000
0000
0000
0000
0000
0000
0000
0000
0100
0000
0000
0000
0000
0000
0000
0000
1000
0000
0000
0000
0000
0000
0000
0000
0000
0000
0000
0000
0000
0000
0000
0000
0001
0000
0000
0000
0000
0000
0000
0000
0200
0000
0000
0000
0000
0000
0000
0000
0000
0000
0000
0000
0000
0000
0000
0000
0000
0000
0000
0000
0000
0000
0000
0000
0320
0000
0000
0000
0000
0000
0000
0000
0000
0000
0000
0000
0000
0000
0000
0000
0000
0000
0000
0000
0000
0000
0000
0000
1030
0000
0000
0000
0000
0000
0000
0000
0000
0000
0000
0000
0000
0000
0000
0000
0000
0000
0010
0000
0000
0000
0000
0000
,  // measure 9
0100
0000
0000
0000
0000
0000
0000
0000
0000
0000
0000
0000
0000
0000
0000
0000
0000
0000
0000
0000
0000
0000
0000
0000
0001
0000
0000
0000
0000
0000
0000
0000
0000
0000
0000
0000
0000
0000
0000
0000
0000
0000
0000
0000
0000
0000
0000
0000
1000
0000
0000
0000
0000
0000
0000
0000
0000
0000
0000
0000
0000
0000
0000
0000
0000
0000
0000
0000
0000
0000
0000
0000
0100
0000
0000
0000
0000
0000
0000
0000
0000
0000
0000
0000
0000
0000
0000
0000
0100
0000
0000
0000
0000
0000
0000
0000
0010
0000
0000
0000
0000
0000
0000
0000
0000
0000
0000
0000
0000
0000
0000
0000
0001
0000
0000
0000
0000
0000
0000
0000
0020
0000
0000
0000
0000
0000
0000
0000
0000
0000
0000
0000
0000
0000
0000
0000
0000
0000
0000
0000
0000
0000
0000
0000
0230
0000
0000
0000
0000
0000
0000
0000
0000
0000
0000
0000
0000
0000
0000
0000
0000
0000
0000
0000
0000
0000
0000
0000
1300
0000
0000
0000
0000
0000
0000
0000
0000
0000
0000
0000
0000
0000
0000
0000
0000
0000
0100
0000
0000
0000
0000
0000
,  // measure 10
0010
0000
0000
0001
0000
0000
1000
0000
0010
1000
0000
0001
0010
0000
0000
0100
0000
0000
1000
0000
0001
0100
0000
0020
,  // measure 11
1000
0000
0000
0001
0000
0000
1000
0000
0000
0001
0000
0000
1030
0000
0000
0000
0000
0001
1000
0000
1000
0010
0000
0010
,  // measure 12
0100
0000
0000
0000
0000
0010
0100
0000
0100
0001
0000
0001
1000
0000
0000
0000
0000
0001
1000
0000
1000
0100
0000
0100
,  // measure 13
0020
0000
0000
0032
0000
0000
2003
0000
0000
3020
0000
0000
0230
0000
0000
0300
0000
0010
0100
0000
0100
0001
0000
0001
,  // measure 14
1000
0000
0000
0000
0000
0001
1000
0000
1000
0100
0000
0100
0010
0000
0000
0000
0000
0001
0100
0000
0100
0001
0000
0001
,  // measure 15
2000
0000
0000
3020
0000
0000
0230
0000
0000
0302
0000
0000
2003
0000
0000
3000
0000
0100
0010
0000
0010
0001
0000
0001
,  // measure 16
1000
0000
0000
0000
0000
0001
0100
0000
0100
0010
0000
0010
1000
0000
0000
0000
0000
0010
0100
0000
0100
0001
0000
0001
,  // measure 17
2000
0000
0000
3200
0000
0000
2300
0000
0000
3002
0000
0000
0023
0000
0000
0030
0000
0001
0100
0000
0100
0010
0000
0010
,  // measure 18
1000
0000
0000
0000
0000
0010
0100
0000
0100
0001
0000
0001
1000
0000
0000
0000
0000
0001
0010
0000
0010
0100
0000
0100
,  // measure 19
2000
3200
0320
0032
0203
0300
0101
1000
,  // measure 20
1200
0000
0000
1000
0000
0000
1000
0000
0000
1300
0000
1000
0001
0000
0001
0200
0000
0000
0320
0000
0000
1030
0000
0000
,  // measure 21
2010
0000
0000
0010
0000
0000
0010
0000
0000
3010
0000
1000
0001
0000
0001
0020
0000
0000
0230
0000
0000
0310
0000
0000
,  // measure 22
0210
0000
0000
0010
0000
0000
0010
0000
0000
0310
0000
0100
0010
0000
0010
0002
0000
0000
0023
0000
0000
0130
0000
0000
,  // measure 23
0120
0000
0000
0100
0000
0000
0100
0000
0000
0130
0000
0100
0010
0000
0010
0002
0000
0000
2003
0000
0000
3100
0000
0000
,  // measure 24
2100
0000
0000
0001
0000
0000
0100
0000
0000
3001
0000
0001
0100
0000
0100
0020
0000
0000
2030
0000
0000
3001
0000
0000
,  // measure 25
2001
0000
0000
0100
0000
0000
0001
0000
0000
3100
0000
0100
1000
0000
1000
0200
0000
0000
0320
0000
0000
0031
0000
0000
,  // measure 26
0012
0000
0000
1000
0000
0000
0103
0000
0100
0001
0000
0001
0200
0000
0000
0010
0000
0000
0301
0000
0001
1000
0000
1000
,  // measure 27
0001
0000
0000
1001
0000
0000
1001
0000
0000
1001
0000
0000
0110
0000
0000
0000
0000
0010
0100
0000
0100
0001
0000
0001
,  // measure 28
0200
0000
0000
0000
0300
0000
0000
0000
0000
0000
0000
0000
0000
0000
0000
0001
0000
0000
1000
0000
0000
0010
0000
0000
,  // measure 29
2020
0000
0000
0000
3030
0000
0000
0000
0000
0000
0000
0000
0000
0000
0000
1000
0000
0000
0001
0000
0000
0100
0000
0000
,  // measure 30
0202
0000
0000
0000
0303
0000
0000
0000
0000
0000
0000
0000
0000
0000
0000
0101
0000
0000
0000
0000
0000
1010
0000
0000
,  // measure 31
0202
0000
0000
0000
0303
0000
0000
0000
0000
0000
0000
0000
0000
0000
0000
0100
0000
0000
0010
0000
0000
1000
0000
0000
,  // measure 32
1010
0000
0000
0010
0000
0000
1000
0000
0000
0001
0000
0001
1000
0000
1000
0100
0000
0000
0010
0000
0000
0001
0000
0000
,  // measure 33
0011
0000
0000
0010
0000
0000
0001
0000
0000
0100
0000
0100
0001
0000
0001
1000
0000
0000
0100
0000
0000
0010
0000
0000
,  // measure 34
0110
0000
0000
1100
0000
0000
1000
0000
0001
0100
0000
0100
0010
0000
0000
0110
0000
0000
0100
0000
0001
1000
0000
1000
,  // measure 35
0100
0101
1100
0101
0220
0000
0000
0000
,  // measure 36
2332
0000
0000
3003
0000
0000
0000
0000
0000
0000
1000
0000
0010
0000
0000
0000
0010
0000
1000
0000
0000
0000
1000
0000
0001
0000
0000
0000
0000
0000
0000
0000
0000
0000
0100
0000
0001
0000
0000
0000
0001
0000
0010
0000
0000
0000
0010
0000
,  // measure 37
0200
0000
0000
2300
0000
0000
3002
0000
0000
0203
0000
0000
0320
0000
0000
0030
0000
1000
0100
0000
0100
1000
0000
1000
,  // measure 38
0001
0000
0000
0000
0000
0100
0001
0000
0001
0010
0000
0010
0100
0000
0000
0000
0000
0010
0001
0000
0001
1000
0000
1000
,  // measure 39
0002
0000
0000
0203
0000
0000
0320
0000
0000
2030
0000
0000
3002
0000
0000
0003
0000
0010
0100
0000
0100
1000
0000
1000
,  // measure 40
0001
0000
0000
0000
0000
1000
0010
0000
0010
0100
0000
0100
0001
0000
0000
0000
0000
0100
0010
0000
0010
1000
0000
1000
,  // measure 41
0002
0000
0000
0023
0000
0000
0032
0000
0000
2003
0000
0000
3020
0000
0000
0030
0000
1000
0001
0000
0001
0010
0000
0010
,  // measure 42
0001
0000
0000
0000
0000
0100
0010
0000
0010
1000
0000
1000
0001
0000
0000
0000
0000
1000
0100
0000
0100
0010
0000
0010
,  // measure 43
0002
0023
0230
2300
3020
0030
1010
0001
,  // measure 44
0021
0000
0000
0001
0000
0000
0100
0000
0000
0031
0000
0001
1000
0000
1000
0020
0000
0000
0230
0000
0000
0301
0000
0000
,  // measure 45
0102
0000
0000
0100
0000
0000
1000
0000
0000
0103
0000
0001
1000
0000
1000
0200
0000
0000
0320
0000
0000
0130
0000
0000
,  // measure 46
0120
0000
0000
0100
0000
0000
0001
0000
0000
0130
0000
0010
0100
0000
0100
2000
0000
0000
3200
0000
0000
0310
0000
0000
,  // measure 47
0210
0000
0000
0010
0000
0000
1000
0000
0000
0310
0000
0100
0010
0000
0010
0002
0000
0000
2003
0000
0000
3010
0000
0000
,  // measure 48
2010
0000
0000
0001
0000
0000
0010
0000
0000
3001
0000
0001
0010
0000
0010
0200
0000
0000
2300
0000
0000
3001
0000
0000
,  // measure 49
1002
0000
0000
0010
0000
0000
1000
0000
0000
0013
0000
0001
1000
0000
1000
0020
0000
0000
0230
0000
0000
0301
0000
0000
,  // measure 50
0102
0000
0000
1000
0000
0000
0013
0000
0001
1000
0000
1000
0020
0000
0000
0100
0000
0000
1030
0000
1000
0001
0000
0001
,  // measure 51
0010
1100
1010
0101
1001
0000
0000
0000
;

//---------------dance-single - Itsugo15----------------
#NOTEDATA:;
#CHARTNAME:Where am I?;
#STEPSTYPE:dance-single;
#DESCRIPTION:Itsugo15;
#CHARTSTYLE:;
#DIFFICULTY:Easy;
#METER:3;
#RADARVALUES:0.143484,0.192370,0.033203,0.049805,0.000000,121.000000,117.000000,4.000000,6.000000,0.000000,0.000000,0.000000,0.000000,0.000000,0.143484,0.192370,0.033203,0.049805,0.000000,121.000000,117.000000,4.000000,6.000000,0.000000,0.000000,0.000000,0.000000,0.000000;
#CREDIT:Joel Paucar Rivera;
#NOTES:
0000
0000
0000
0000
,
0000
0000
0000
0000
,
0000
0000
0000
0000
,
2000
0000
3000
0000
,
0010
0000
0010
0000
,
0020
0000
0030
0000
,
0100
0000
0100
0000
,
0200
0000
0300
0000
,
0001
0000
0010
0000
,
0100
0000
1000
0000
,
0100
0000
0010
0000
,
0002
0000
0003
0000
,
0011
0000
0001
0000
,
0100
0100
0100
0000
,
0010
0000
1000
0000
,
0001
0001
0001
0000
,
0010
0000
0100
0000
,
1000
1000
1000
0000
,
0100
0000
0010
0000
,
0001
0001
0001
1000
,
1001
0001
0000
0100
,
0000
0010
0000
1000
,
0000
0001
0000
0010
,
0000
0100
0000
1000
,
0100
0010
0000
0001
,
0000
1000
0000
0010
,
0000
0100
0000
0001
,
2000
0001
3001
0000
,
1001
0000
0000
0000
0000
0001
0000
0000
,
0010
0000
0000
0000
0000
0010
0000
0000
,
0100
0000
0000
0000
0000
0100
0000
0000
,
1000
0000
0000
0000
0000
1000
0000
0000
,
0001
0100
0100
0100
,
0010
0010
0010
0010
,
1000
1000
0001
0001
,
0020
0000
0030
0000
,
0100
0000
1000
0000
,
0001
0001
0001
0000
,
0100
0000
0010
0000
,
1000
1000
1000
0000
,
0001
0000
0010
0000
,
0100
0100
0100
0000
,
1000
0000
0001
0000
,
0100
0100
0100
0010
,
1000
0001
0000
0010
,
0000
0100
0000
1000
,
0000
0100
0000
0010
,
0000
0001
0000
1000
,
0010
0100
0000
0001
,
0000
1000
0000
0100
,
0000
0010
0000
0001
,
1000
0001
1000
0001
1001
0000
0000
0000
;

//---------------dance-single - Itsugo15----------------
#NOTEDATA:;
#CHARTNAME:Thank you!;
#STEPSTYPE:dance-single;
#DESCRIPTION:Itsugo15;
#CHARTSTYLE:;
#DIFFICULTY:Hard;
#METER:8;
#RADARVALUES:0.467214,0.491910,0.290526,0.406737,0.128662,394.000000,359.000000,35.000000,49.000000,0.000000,0.000000,0.000000,0.000000,0.000000,0.467214,0.491910,0.290526,0.406737,0.128662,394.000000,359.000000,35.000000,49.000000,0.000000,0.000000,0.000000,0.000000,0.000000;
#CREDIT:Joel Paucar Rivera;
#NOTES:
// measure 0
0000
0000
0000
0000
,  // measure 1
0000
0000
0000
0000
,  // measure 2
0000
0000
0000
0000
,  // measure 3
1000
0000
0000
0001
0000
0000
1000
0000
0000
0001
0000
0000
1000
0000
0000
0000
0000
0100
0010
0000
0000
0001
0000
0000
,  // measure 4
1000
0000
0000
0000
0000
0010
0100
0000
0000
0001
0000
0000
1000
0000
0000
0000
0000
0100
0010
0000
0000
0100
0000
0000
,  // measure 5
1000
0000
0000
1000
0000
0000
0001
0000
0000
0001
0000
0000
0100
0000
0000
0000
0000
0010
1000
0000
0000
0001
0000
0000
,  // measure 6
0010
0000
0000
0000
0000
0100
1000
0000
0000
0001
0000
0000
0100
0000
0000
0000
0000
0010
1000
0000
0000
0001
0000
0000
,  // measure 7
0010
0000
0000
0010
0000
0000
0100
0000
0000
0100
0000
0000
1000
0000
0000
0000
0000
0100
0010
0000
0000
0001
0000
0000
,  // measure 8
1000
0000
0000
0000
0000
0000
0000
0000
0000
0000
0000
0000
0000
0000
0000
0000
0000
0000
0000
0000
0000
0000
0000
0000
1000
0000
0000
0000
0000
0000
0000
0000
0000
0000
0000
0000
0000
0000
0000
0000
0000
0000
0000
0000
0000
0000
0000
0000
1000
0000
0000
0000
0000
0000
0000
0000
0000
0000
0000
0000
0000
0000
0000
0000
0000
0000
0000
0000
0000
0000
0000
0000
0010
0000
0000
0000
0000
0000
0000
0000
0000
0000
0000
0000
0000
0000
0000
0000
0100
0000
0000
0000
0000
0000
0000
0000
0001
0000
0000
0000
0000
0000
0000
0000
0000
0000
0000
0000
0000
0000
0000
0000
0000
0000
0000
0000
0000
0000
0000
0000
1000
0000
0000
0000
0000
0000
0000
0000
0000
0000
0000
0000
0000
0000
0000
0000
0000
0000
0000
0000
0000
0000
0000
0000
0001
0000
0000
0000
0000
0000
0000
0000
0000
0000
0000
0000
0000
0000
0000
0000
0000
0000
0000
0000
0000
0000
0000
0000
0010
0000
0000
0000
0000
0000
0000
0000
0000
0000
0000
0000
0000
0000
0000
0000
0000
0000
0100
0000
0000
0000
0000
0000
,  // measure 9
1000
0000
0000
0000
0000
0000
0000
0000
0000
0000
0000
0000
0000
0000
0000
0000
0000
0000
0000
0000
0000
0000
0000
0000
1000
0000
0000
0000
0000
0000
0000
0000
0000
0000
0000
0000
0000
0000
0000
0000
0000
0000
0000
0000
0000
0000
0000
0000
1000
0000
0000
0000
0000
0000
0000
0000
0000
0000
0000
0000
0000
0000
0000
0000
0000
0000
0000
0000
0000
0000
0000
0000
0100
0000
0000
0000
0000
0000
0000
0000
0000
0000
0000
0000
0000
0000
0000
0000
0010
0000
0000
0000
0000
0000
0000
0000
0001
0000
0000
0000
0000
0000
0000
0000
0000
0000
0000
0000
0000
0000
0000
0000
0000
0000
0000
0000
0000
0000
0000
0000
1000
0000
0000
0000
0000
0000
0000
0000
0000
0000
0000
0000
0000
0000
0000
0000
0000
0000
0000
0000
0000
0000
0000
0000
0010
0000
0000
0000
0000
0000
0000
0000
0000
0000
0000
0000
0000
0000
0000
0000
0000
0000
0000
0000
0000
0000
0000
0000
0100
0000
0000
0000
0000
0000
0000
0000
0000
0000
0000
0000
0000
0000
0000
0000
0000
0000
0001
0000
0000
0000
0000
0000
,  // measure 10
1000
0100
0010
0010
0001
1000
0010
0010
,  // measure 11
1010
1010
0101
0101
1001
0000
0000
0000
,  // measure 12
1100
0000
0100
0010
0011
0000
0001
1000
,  // measure 13
0020
0230
0302
2003
3200
0300
1000
0001
,  // measure 14
1001
0000
1000
0010
1010
0000
1000
0100
,  // measure 15
0020
0032
0203
0320
2030
3000
0010
0100
,  // measure 16
0110
0000
0010
1000
0002
0003
1001
1000
,  // measure 17
0200
0320
0032
0023
0230
0300
1000
0100
,  // measure 18
1100
0000
1000
0001
0200
0300
0101
0001
,  // measure 19
0020
0230
2300
3002
0203
0300
0000
0010
,  // measure 20
0110
0000
0000
0010
0000
0000
0100
0000
0000
0010
0000
0100
0001
0000
0000
1000
0000
0000
0100
0000
0000
0010
0000
0000
,  // measure 21
0001
0000
0000
0010
0000
0000
0001
0000
0000
0010
0000
0100
1000
0000
0000
0001
0000
0000
0100
0000
0000
0010
0000
0000
,  // measure 22
1000
0000
0000
0010
0000
0000
1000
0000
0000
0010
0000
0100
0001
0000
0000
1000
0000
0000
0100
0000
0000
0010
0000
0000
,  // measure 23
0001
0000
0000
0010
0000
0000
0001
0000
0000
1000
0000
0010
0100
0000
0000
0001
0000
0000
1000
0000
0000
0100
0000
0000
,  // measure 24
0010
0000
0000
0010
0000
0000
0010
0000
0000
0010
0000
0100
1000
0000
0000
0001
0000
0000
0100
0000
0000
0010
0000
0000
,  // measure 25
1000
0000
0000
1000
0000
0000
1000
0000
0000
1000
0000
0010
0100
0000
0000
0001
0000
0000
1000
0000
0000
0100
0000
0000
,  // measure 26
0010
0000
0000
0001
0000
0000
1000
0000
0001
1000
0000
0001
1000
0000
0000
0010
0000
0000
1000
0000
0001
1000
0000
0002
,  // measure 27
1000
0100
1000
0100
1003
0000
0010
0100
,  // measure 28
1001
0000
0000
0000
0000
0001
1000
0001
,  // measure 29
1001
0000
0000
0000
0000
1000
0010
0100
,  // measure 30
1001
0000
0000
0000
0000
0010
0000
0100
,  // measure 31
1001
0000
0000
0000
0000
0001
0010
0100
,  // measure 32
1001
1000
0000
0010
0000
0100
0001
1000
,  // measure 33
1001
0001
0000
0010
0000
0100
1000
0001
,  // measure 34
1001
1000
0010
0100
0001
0001
0100
0010
,  // measure 35
0110
0110
1001
1001
0220
0000
0000
0330
,  // measure 36
0011
0000
0010
0100
1100
0000
1000
0001
,  // measure 37
0200
0320
2030
3002
0023
0030
0001
1000
,  // measure 38
1001
0000
0001
0100
0101
0000
0001
0010
,  // measure 39
0200
2300
3020
0230
0302
0003
0100
0010
,  // measure 40
0110
0000
0100
0001
2000
3000
1001
0001
,  // measure 41
0020
0230
2300
3200
0320
0030
0001
0010
,  // measure 42
0011
0000
0001
1000
0020
0030
1010
1000
,  // measure 43
0200
0320
0032
2003
3020
0030
0100
0000
,  // measure 44
0110
0000
0000
0100
0000
0000
0001
0000
0000
0100
0000
0010
1000
0000
0000
0001
0000
0000
0010
0000
0000
0100
0000
0000
,  // measure 45
1000
0000
0000
0001
0000
0000
1000
0000
0000
0100
0000
0010
0001
0000
0000
1000
0000
0000
0010
0000
0000
0100
0000
0000
,  // measure 46
0001
0000
0000
0010
0000
0000
0001
0000
0000
0100
0000
0010
1000
0000
0000
0001
0000
0000
0010
0000
0000
0100
0000
0000
,  // measure 47
1000
0000
0000
0010
0000
0000
1000
0000
0000
0100
0000
0010
0001
0000
0000
1000
0000
0000
0001
0000
0000
0010
0000
0000
,  // measure 48
0100
0000
0000
0100
0000
0000
0010
0000
0000
0100
0000
0010
0001
0000
0000
1000
0000
0000
0010
0000
0000
0100
0000
0000
,  // measure 49
0001
0000
0000
0001
0000
0000
1000
0000
0000
0001
0000
0100
0010
0000
0000
1000
0000
0000
0001
0000
0000
0010
0000
0000
,  // measure 50
0100
0000
0000
1000
0000
0000
0001
0000
1000
0010
0000
1000
0001
0000
0000
0100
0000
0000
0001
0000
1000
0100
0000
2000
,  // measure 51
0001
0000
0000
0000
0010
0000
0000
0000
0100
0000
0000
0000
0010
0000
0000
0000
3002
0003
0000
0000
0000
0000
0000
0000
0000
0000
0000
0000
0000
0000
0000
0000
;

//---------------dance-single - ----------------
#NOTEDATA:;
#CHARTNAME:Which way is home?;
#STEPSTYPE:dance-single;
#DESCRIPTION:;
#CHARTSTYLE:;
#DIFFICULTY:Medium;
#METER:5;
#RADARVALUES:0.302385,0.320617,0.033203,0.024902,0.000000,255.000000,251.000000,4.000000,3.000000,0.000000,0.000000,0.000000,0.000000,0.000000,0.302385,0.320617,0.033203,0.024902,0.000000,255.000000,251.000000,4.000000,3.000000,0.000000,0.000000,0.000000,0.000000,0.000000;
#CREDIT:Phil Lee;
#NOTES:
// measure 0
0000
0000
0000
0000
,  // measure 1
0000
0000
0000
0000
,  // measure 2
0000
0000
0000
0000
,  // measure 3
1000
0100
1000
0100
1000
0000
0001
0010
,  // measure 4
0001
0000
1000
0010
1000
0000
0001
0010
,  // measure 5
0001
0000
0100
0000
0010
0000
1000
0100
,  // measure 6
1000
0000
0010
0100
0010
0000
1000
0001
,  // measure 7
1000
0100
0010
0001
,  // measure 8
1000
0100
1000
0000
0010
0000
1000
0000
,  // measure 9
0001
0010
0001
0000
0100
0000
0001
0000
,  // measure 10
1000
0100
1000
0000
0001
0100
0001
0000
,  // measure 11
1000
0001
1000
0001
1001
0000
1000
0010
,  // measure 12
1000
0000
0001
0010
0001
0000
1000
0010
,  // measure 13
1000
0000
0100
0000
0010
0000
0001
0100
,  // measure 14
0001
0000
0010
0100
0010
0000
0001
1000
,  // measure 15
0001
0000
0100
0000
0010
0000
1000
0100
,  // measure 16
0010
0000
0001
0100
0010
0000
1000
0001
,  // measure 17
0100
0000
0001
0000
0010
0000
0100
1000
,  // measure 18
0010
0000
1000
0100
0010
0000
0001
0100
,  // measure 19
0010
1000
0100
0000
,  // measure 20
1000
0001
1000
0000
0100
0000
0010
0000
,  // measure 21
0001
1000
0001
0000
0100
0000
0010
0000
,  // measure 22
1000
0100
1000
0000
0010
0000
0100
0000
,  // measure 23
0001
0010
0001
0000
1000
0000
0001
0000
,  // measure 24
0100
0010
0100
0000
0001
0000
0010
0000
,  // measure 25
0100
1000
0100
0000
0010
0000
0001
0000
,  // measure 26
1000
0010
1000
0000
0001
0100
0001
0000
,  // measure 27
0010
0100
0010
0000
0001
0000
1000
0000
,  // measure 28
1001
0000
0000
0000
0000
0001
0010
0001
,  // measure 29
0010
0000
0000
0000
0000
0100
1000
0100
,  // measure 30
1000
0000
0000
0000
0000
0010
0000
0010
,  // measure 31
0100
0000
0000
0000
0000
0001
1000
0001
,  // measure 32
2000
0010
0010
3010
,  // measure 33
0200
0001
0001
0301
,  // measure 34
0020
0100
0100
0100
,  // measure 35
0130
1000
0100
1000
1001
0000
1000
0001
,  // measure 36
1000
0000
0010
0100
0010
0000
1000
0100
,  // measure 37
1000
0000
0001
0000
0100
0000
0001
0010
,  // measure 38
0001
0000
1000
0010
1000
0000
0100
0010
,  // measure 39
0100
0000
1000
0000
0001
0000
0100
0010
,  // measure 40
1000
0000
0100
0010
0001
0000
1000
0001
,  // measure 41
0100
0000
0001
0000
0010
0000
0100
1000
,  // measure 42
0001
0000
1000
0010
0100
0000
0001
0010
,  // measure 43
0100
0010
0001
0000
,  // measure 44
1000
0010
1000
0000
0100
0000
0010
0000
,  // measure 45
0001
0100
0001
0000
0010
0000
0001
0000
,  // measure 46
1000
0010
1000
0000
0001
0000
0100
0000
,  // measure 47
0001
0010
0001
0000
1000
0000
0001
0000
,  // measure 48
0100
0010
0100
0000
0001
0000
1000
0000
,  // measure 49
0001
0010
0001
0000
0100
0000
0010
0000
,  // measure 50
1000
0100
1000
0000
0010
0100
0010
0000
,  // measure 51
1000
0001
1000
0001
1001
0000
0000
0000
;
