#VERSION:0.83;
#TITLE:Tuturne Land;
#SUBTITLE:;
#ARTIST:Maf;
#TITLETRANSLIT:;
#SUBTITLETRANSLIT:;
#ARTISTTRANSLIT:;
#GENRE:;
#ORIGIN:;
#CREDIT:;
#BANNER:tuturneland-banner.png;
#BACKGROUND:tuturneland-bg.png;
#PREVIEWVID:;
#JACKET:;
#CDIMAGE:;
#DISCIMAGE:;
#LYRICSPATH:;
#CDTITLE:;
#MUSIC:tuturne land! cut.ogg;
#OFFSET:0.000000;
#SAMPLESTART:7.680000;
#SAMPLELENGTH:17.279999;
#SELECTABLE:YES;
#BPMS:0.000=125.000,
186.000=95.000,
187.000=90.000,
188.000=83.000,
203.000=75.000,
203.500=65.000,
204.000=75.000;
#STOPS:;
#DELAYS:;
#WARPS:;
#TIMESIGNATURES:0.000=4=4;
#TICKCOUNTS:0.000=4;
#COMBOS:0.000=1;
#SPEEDS:0.000=1.000=0.000=0;
#SCROLLS:0.000=1.000;
#FAKES:;
#LABELS:0.000=Song Start;
#BGCHANGES:;
#KEYSOUNDS:;
#ATTACKS:
;

//---------------dance-single - Blank----------------
#NOTEDATA:;
#CHARTNAME:Realistic Fiction;
#STEPSTYPE:dance-single;
#DESCRIPTION:Blank;
#CHARTSTYLE:;
#DIFFICULTY:Challenge;
#METER:9;
#RADARVALUES:0.656398,0.810876,0.221088,0.144188,0.663264,478.000000,455.000000,23.000000,15.000000,0.000000,0.000000,15.000000,1.000000,0.000000,0.656398,0.810876,0.221088,0.144188,0.663264,478.000000,455.000000,23.000000,15.000000,0.000000,0.000000,15.000000,1.000000,0.000000;
#CREDIT:Phil Lee;
#OFFSET:0.000000;
#BPMS:0.000000=124.999992
,186.000000=95.000000
,187.000000=90.000000
,188.000000=83.000000
,203.000000=75.000000
,203.500000=65.000000
,204.000000=75.000000
;
#STOPS:;
#DELAYS:;
#WARPS:;
#TIMESIGNATURES:0.000000=4=4
;
#TICKCOUNTS:0.000000=4
;
#COMBOS:0.000000=1
;
#SPEEDS:0.000000=1.400000=0.000000=0
,13.000000=1.000000=3.000000=0
,51.000000=0.750000=0.500000=0
,51.500000=1.000000=0.500000=0
,135.000000=0.750000=0.500000=0
,135.500000=1.000000=0.500000=0
;
#SCROLLS:0.000000=1.000000
;
#FAKES:;
#LABELS:0.000000=Song Start
;
#ATTACKS:TIME=47.079197:LEN=0.720001:MODS=Confusion:TIME=47.799198:LEN=2.160000:MODS=,*100 0% Confusion:TIME=47.079197:LEN=0.480000:MODS=44% Stealth:TIME=102.722366:LEN=3.199997:MODS=*7 Dark,*7 Stealth;
#NOTES:
0000
0000
0000
0000
,
0000
0000
0000
0000
0000
0000
0000
0000
0000
0000
0000
0000
0000
0000
0000
0000
0000
0000
0000
0000
0000
0000
0000
0002
,
0000
0000
0000
1003
0100
1000
0100
0000
0000
0010
0000
0000
0001
0000
0000
0100
0000
0000
0010
0000
0000
1000
0000
0100
,
0000
0000
0100
1000
0000
0000
0010
0000
0000
0100
0000
0000
0001
0000
0000
0010
0000
0000
0100
0000
1000
0000
0000
0020
,
0000
0000
0000
1030
0001
1000
0001
0000
0000
0100
0000
0000
0010
0000
0000
1000
0000
0100
0000
0000
1000
0100
0000
0000
,
0010
0000
0001
0010
0000
0000
0100
0000
0000
1000
0000
0000
0010
0000
0000
0100
0000
0000
0001
0000
0010
0000
0000
0002
,
0000
0000
0000
0103
0010
0100
0010
0000
0000
1000
0000
0000
0100
0000
0000
1000
0000
0000
0010
0000
0000
0100
0000
0001
,
0000
0000
0001
0100
0000
0000
0010
0000
0000
0100
0000
0000
0001
0000
0000
0001
0000
0000
1000
0000
0100
0000
0000
2000
,
0000
0000
0000
3010
0000
0000
1010
0000
0000
0010
0000
0010
0100
0000
0100
0001
0000
0001
1000
0000
1000
0100
0000
0000
,
1010
0010
1000
0001
1001
0001
0010
0100
,
0110
0100
1000
0010
0001
0010
1010
1000
,
1100
0100
0010
0001
0101
0001
0010
0100
,
1100
1000
0010
0100
1000
0100
0001
0010
,
0011
0000
0000
0001
1000
0001
1000
0000
0000
0010
0000
0000
0100
0000
0000
0001
0000
0010
0000
0000
0001
0010
0000
0000
,
0100
0000
1000
0010
0000
0000
0100
0000
0000
0001
0000
0000
0010
0000
0000
0100
0000
0000
1000
0000
0010
0000
0000
2000
,
0000
0000
0000
3001
0010
0001
0010
0000
0000
0100
0000
0000
1000
0000
0000
0010
0000
0000
0100
0000
0000
0001
0000
0010
,
0000
0000
0010
0001
0000
0000
1000
0000
0000
0010
0000
0000
0100
0000
0000
0001
0000
0000
0010
0000
0100
0000
0000
0020
,
0000
0030
0004
0000
0000
0000
4003
0000
,
3010
0000
0000
0000
0000
0000
1000
0000
0000
0000
0000
0000
0004
0000
0000
0003
0000
0000
0010
0000
0000
0000
0100
0000
0000
0000
0000
0000
0100
0000
0010
0000
0000
0000
0000
0000
0001
0000
0000
0000
0000
0000
1000
0000
0000
0000
0000
0000
,
0010
1000
0400
0000
0000
0000
0340
0000
,
0034
0003
0000
0000
0004
0000
0003
0000
0010
0000
0100
0000
0400
0000
0300
0000
,
1001
4000
0000
3040
,
0130
0000
0000
0100
0000
0000
0001
0000
0000
1000
0000
0400
0300
0000
0000
0100
0000
0000
0010
0000
0000
0004
0000
0000
,
0013
0000
0000
0001
0000
0000
0001
0000
0000
4000
0000
3100
0000
0000
1000
0001
0000
0000
1000
0000
0000
0001
0000
0000
,
0100
0000
0040
0030
0210
0001
0004
0303
,
1001
0000
0000
0001
0010
0001
0010
0000
0000
0100
0000
0000
1000
0000
0000
0010
0000
0100
0000
0000
0010
0100
0000
0000
,
0001
0000
1000
0010
0000
0000
0100
0000
0000
0001
0000
0000
0010
0000
0000
0100
0000
0000
1000
0000
0100
0000
0000
0020
,
0000
0000
0000
0130
1000
0100
1000
0000
0000
0001
0000
0000
0100
0000
0000
0010
0000
0000
0100
0000
0000
0001
0000
0010
,
0000
0000
0010
0100
0000
0000
1000
0000
0000
0100
0000
0000
0010
0000
0000
0010
0000
0000
0001
0000
1000
0000
0000
0002
,
0000
0000
0000
0103
0000
0000
0110
0000
0000
0010
0000
0010
1000
0000
1000
0100
0000
0100
0010
0000
0010
0100
0000
0000
,
1001
0000
0000
0000
0000
0000
0000
0000
0000
0000
0000
0000
0002
0000
0000
0000
0000
0000
0000
0000
0000
0000
0000
0000
0103
0000
0000
0010
0000
0000
0000
0000
0000
0010
0000
0000
0000
0000
0000
0000
1000
0000
0100
0000
0000
0000
0010
0000
,
0001
0000
0000
0001
0000
0000
0010
0000
0000
0100
0000
0000
0010
0000
0000
0001
0000
0001
0000
0000
0001
0100
0000
0001
,
0010
0000
0000
0010
0000
0000
0100
0000
0000
1000
0000
0000
0010
0000
0000
0100
0000
0001
0000
0000
0001
0010
0000
0100
,
0020
0000
0000
0000
0000
0000
0031
0000
0000
0100
0000
0000
0010
0000
0000
1000
0000
0100
0000
0000
0000
0000
0000
0000
,
1010
0000
0000
0010
0000
0000
0000
0000
0100
0001
0000
0010
0001
0000
0000
0100
0000
0000
0010
0000
1000
0010
0000
1000
,
0100
0000
0010
0100
0000
0000
1000
0000
0000
0001
0000
0000
0100
0000
0000
0010
0000
0000
2000
0000
0001
0000
0000
3001
,
0000
0000
0000
0001
0000
0000
0000
0000
1000
0100
0000
0010
0001
0000
0000
0100
0000
0000
0010
0000
1000
0010
0000
0010
,
0100
0000
0010
1000
0000
0000
0100
0000
0000
0010
0000
0000
0001
0000
1000
0001
0000
0000
0100
0000
0010
0000
0000
2000
,
0000
0000
0000
0000
0000
0000
0000
0000
0000
0000
0000
0000
0000
0000
0000
0000
0000
0000
3000
0000
0000
0000
0000
0000
L000
0000
0000
0000
0000
0000
0000
0000
0000
0000
0000
0000
0000
0000
0000
0000
0000
0000
0000
0000
0000
0000
0000
0000
0000
0000
0000
0000
0000
0000
0000
0000
0000
0000
0000
0000
0000
0000
0000
0000
1000
0000
0000
0000
0000
0000
0000
0000
0100
0000
0000
0000
0000
0000
0000
0000
0000
0000
0000
0000
0000
0000
0000
0000
1000
0000
0000
0000
0000
0000
0000
0000
0010
0000
0000
0000
0000
0000
0000
0000
0000
0000
0000
0000
0000
0000
0000
0000
0000
0000
0000
0000
0000
0000
0000
0000
1000
0000
0000
0000
0000
0000
0000
0000
0000
0000
0000
0000
0000
0000
0000
0000
0000
0000
0000
0000
0000
0000
0000
0000
0001
0000
0000
0000
0000
0000
0000
0000
0000
0000
0000
0000
0000
0000
0000
0000
0010
0000
0000
0000
0000
0000
0000
0000
0100
0000
0000
0000
0000
0000
0000
0000
0000
0000
0000
0000
0000
0000
0000
0000
1000
0000
0000
0000
0000
0000
0000
0000
,
0100
0000
0000
0100
0000
0000
0010
0000
0000
0001
0000
0000
1000
0000
0000
0010
0000
0000
2000
0000
0100
0000
0000
3100
,
0000
0000
0000
0100
0000
0000
0000
0000
0010
0001
0000
1000
0010
0000
0000
0100
0000
0000
0010
0000
1000
0001
0000
0001
,
0010
0000
0001
1000
0000
0000
0100
0000
0000
0010
0000
0000
0001
0000
0000
0000
0000
0000
0100
0000
0010
0000
0000
0200
,
0000
0300
0000
0000
0000
0000
0001
1000
0001
1000
0000
0000
0000
0000
0010
0100
0000
0000
0001
0000
0001
0010
0000
0000
,
0101
0100
0001
1000
1001
1000
0010
0100
,
0110
0100
0001
0010
1000
0010
0011
0001
,
0101
0100
0010
1000
1100
1000
0010
0100
,
0101
0001
0010
0100
0001
0100
1000
0010
,
1000
0000
0000
0000
0100
0000
0010
0000
0000
0000
0000
0010
0001
0000
0000
0000
1000
0000
0001
0000
0000
0000
0100
0000
0010
0000
0000
0000
0100
0000
0000
0000
0000
0000
0001
0000
0000
0000
0000
0000
0001
0000
1000
0000
0100
0000
0000
0000
,
1000
0000
0000
0000
0010
0000
0100
0000
0000
0000
0000
0100
0001
0000
0000
0000
0010
0000
0001
0000
0000
0000
1000
0000
0010
0000
0000
0000
0100
0000
0000
0000
0000
0000
0010
0000
0000
0000
0000
0000
1000
0000
0100
0000
1000
0000
0001
0000
,
0100
0000
0000
0000
0010
0000
1000
0000
0000
0000
0000
1000
0100
0000
0000
0000
0010
0000
0001
0000
0000
0000
0010
0000
0100
0000
0000
0000
0100
0000
1000
0000
0000
0000
1000
0000
0000
0000
0000
0010
1000
0000
0100
0000
0010
0000
0001
0000
,
0100
0000
0000
0000
0010
0000
1000
0000
0000
0000
0000
1000
0001
0000
0000
0000
0100
0000
0001
0000
0000
0000
0010
0000
0100
0000
0000
0000
1000
0000
0000
0000
0000
0000
0100
0000
0000
0000
0000
0000
0010
0000
0001
0000
0100
0000
0010
0000
,
0000
1001
0000
0000
0000
0000
0000
0000
;

//---------------dance-single - Blank----------------
#NOTEDATA:;
#CHARTNAME:Science Fiction;
#STEPSTYPE:dance-single;
#DESCRIPTION:Blank;
#CHARTSTYLE:;
#DIFFICULTY:Hard;
#METER:7;
#RADARVALUES:0.616574,0.737160,0.221088,0.211475,0.509464,449.000000,426.000000,23.000000,22.000000,0.000000,0.000000,13.000000,1.000000,0.000000,0.616574,0.737160,0.221088,0.211475,0.509464,449.000000,426.000000,23.000000,22.000000,0.000000,0.000000,13.000000,1.000000,0.000000;
#CREDIT:Phil Lee;
#OFFSET:0.000000;
#BPMS:0.000000=124.999992
,186.000000=95.000000
,187.000000=90.000000
,188.000000=83.000000
,203.000000=75.000000
,203.500000=65.000000
,204.000000=75.000000
;
#STOPS:;
#DELAYS:;
#WARPS:;
#TIMESIGNATURES:0.000000=4=4
;
#TICKCOUNTS:0.000000=4
;
#COMBOS:0.000000=1
;
#SPEEDS:0.000000=1.400000=0.000000=0
,13.000000=1.000000=3.000000=0
,51.000000=0.750000=0.500000=0
,51.500000=1.000000=0.500000=0
,135.000000=0.750000=0.500000=0
,135.500000=1.000000=0.500000=0
;
#SCROLLS:0.000000=1.000000
;
#FAKES:;
#LABELS:0.000000=Song Start
;
#ATTACKS:TIME=47.079197:LEN=0.720001:MODS=Confusion:TIME=47.799198:LEN=2.160000:MODS=,*100 0% Confusion:TIME=47.079197:LEN=0.480000:MODS=44% Stealth:TIME=102.722366:LEN=3.199997:MODS=*7 Dark,*7 Stealth;
#NOTES:
// measure 0
0000
0000
0000
0000
,  // measure 1
0000
0000
0000
0000
0000
0000
0000
0000
0000
0000
0000
0000
0000
0000
0000
0000
0000
0000
0000
0000
0000
0000
0000
0002
,  // measure 2
0000
0000
0000
2003
0000
0000
3100
0000
0000
0010
0000
0000
0001
0000
0000
0100
0000
0000
0010
0000
0000
0100
0000
0001
,  // measure 3
0000
0000
0001
0100
0000
0000
0010
0000
0000
1000
0000
0000
0100
0000
0000
1000
0000
0000
0010
0000
0100
0000
0000
0020
,  // measure 4
0000
0000
0000
2030
0000
0000
3100
0000
0000
0010
0000
0000
0100
0000
0000
1000
0000
0010
0000
0000
1000
0010
0000
0000
,  // measure 5
0100
0000
0001
0100
0000
0000
0010
0000
0000
1000
0000
0000
0100
0000
0000
0010
0000
0000
0100
0000
1000
0000
0000
0002
,  // measure 6
0000
0000
0000
0203
0000
0000
0310
0000
0000
0100
0000
0000
0001
0000
0000
0010
0000
0000
0100
0000
0000
1000
0000
0001
,  // measure 7
0000
0000
1000
0001
0000
0000
0100
0000
0000
0010
0000
0000
0100
0000
0000
0100
0000
0000
0001
0000
0000
0010
0000
0200
,  // measure 8
0000
1300
1010
0010
0100
0001
0011
0010
,  // measure 9
0110
0100
1000
0001
1001
0001
1000
0100
,  // measure 10
0110
0010
0100
1000
0001
0100
0110
0010
,  // measure 11
1010
1000
0100
0010
0011
0001
1000
0010
,  // measure 12
1010
0010
0100
0001
1000
0010
0100
0001
,  // measure 13
1001
0000
0000
0002
0000
0000
0103
0000
0000
0010
0000
0000
0100
0000
0000
0001
0000
0010
0000
0000
0001
0010
0000
0000
,  // measure 14
0100
0000
1000
0100
0000
0000
0010
0000
0000
0001
0000
0000
0100
0000
0000
0010
0000
0000
0100
0000
0001
0000
0000
2000
,  // measure 15
0000
0000
0000
3200
0000
0000
0310
0000
0000
0100
0000
0000
1000
0000
0000
0010
0000
0000
0100
0000
0000
0001
0000
1000
,  // measure 16
0000
0000
1000
0001
0000
0000
0010
0000
0000
0100
0000
0000
0010
0000
0000
0001
0000
0000
0100
0000
0000
0010
0000
0200
,  // measure 17
0000
0300
0004
0000
0000
0000
0043
0000
,  // measure 18
0130
0000
0000
0010
0000
0000
0001
0000
0000
0100
0000
0010
0000
0000
0100
0010
0000
0000
1000
0000
0000
0100
0000
0000
,  // measure 19
0010
0100
4000
0000
0000
0000
3040
0000
,  // measure 20
4030
3000
0000
0000
4000
0000
3000
0000
0100
0000
0010
0000
0040
0000
0030
0000
,  // measure 21
1001
0004
0000
0403
,  // measure 22
0310
0000
0000
0010
0000
0000
1000
0000
0000
0100
0000
0040
0030
0000
0000
0010
0000
0000
0100
0000
0000
1000
0000
0000
,  // measure 23
0100
0000
0000
1000
0000
0000
1000
0000
0000
0040
0000
0130
0000
0000
0010
0100
0000
0000
0001
0000
0000
1000
0000
0000
,  // measure 24
0100
0000
0040
0030
0002
1000
4003
3000
,  // measure 25
1001
0000
0000
2000
0000
0000
3100
0000
0000
0010
0000
0000
0001
0000
0000
0100
0000
0010
0000
0000
0100
0010
0000
0000
,  // measure 26
1000
0000
0100
1000
0000
0000
0010
0000
0000
0100
0000
0000
0001
0000
0000
0010
0000
0000
0100
0000
0010
0000
0000
0002
,  // measure 27
0000
0000
0000
2003
0000
0000
3010
0000
0000
0100
0000
0000
0010
0000
0000
1000
0000
0000
0100
0000
0000
0010
0000
0001
,  // measure 28
0000
0000
0010
0001
0000
0000
0100
0000
0000
0001
0000
0000
1000
0000
0000
1000
0000
0000
0100
0000
0010
0000
0000
0200
,  // measure 29
0000
0000
0000
1300
0000
0000
1001
0000
0000
0001
0000
0000
0100
0000
0020
0000
0000
0000
1030
0000
0000
0100
0000
0000
,  // measure 30
1001
0000
0000
0000
0000
0000
0000
0000
0000
0000
0000
0000
0002
0000
0000
0000
0000
0000
0000
0000
0000
0000
0000
0000
0013
0000
0000
0100
0000
0000
0000
0000
0000
0100
0000
0000
0000
0000
0000
0000
1000
0000
0001
0000
0000
0000
1000
0000
,  // measure 31
0001
0000
0000
0001
0000
0000
0010
0000
0000
0100
0000
0000
0010
0000
0000
0001
0000
0001
0000
0000
0001
0100
0000
0001
,  // measure 32
0100
0000
0000
0100
0000
0000
0010
0000
0000
1000
0000
0000
0001
0000
0000
0010
0000
0100
0000
0000
0100
1000
0000
0100
,  // measure 33
2000
0000
0000
0000
0000
0000
3001
0000
0000
0010
0000
0000
0001
0000
0000
0100
0000
0010
0000
0000
0000
0000
0000
0000
,  // measure 34
1001
0000
0000
1000
0000
0000
0000
0000
0010
0100
0000
0010
0100
0000
0000
0001
0000
0000
1000
0000
0100
0010
0000
0100
,  // measure 35
0010
0000
0001
0100
0000
0000
0001
0000
0000
0010
0000
0000
0100
0000
0000
1000
0000
0000
0010
0000
0100
0000
0000
0010
,  // measure 36
0000
0000
0000
0010
0000
0000
0000
0000
1000
0100
0000
1000
0100
0000
0000
0010
0000
0000
0001
0000
0100
0010
0000
0010
,  // measure 37
0100
0000
0100
0001
0000
0000
1000
0000
0000
0010
0000
0000
1000
0000
0100
1000
0000
0000
0010
0000
0100
0000
0000
0002
,  // measure 38
0000
0000
0000
0000
0000
0000
0000
0000
0000
0000
0000
0000
0000
0000
0000
0000
0000
0000
0003
0000
0000
0000
0000
0000
000L
0000
0000
0000
0000
0000
0000
0000
0000
0000
0000
0000
0000
0000
0000
0000
0000
0000
0000
0000
0000
0000
0000
0000
0000
0000
0000
0000
0000
0000
0000
0000
0000
0000
0000
0000
0000
0000
0000
0000
0001
0000
0000
0000
0000
0000
0000
0000
1000
0000
0000
0000
0000
0000
0000
0000
0000
0000
0000
0000
0000
0000
0000
0000
0001
0000
0000
0000
0000
0000
0000
0000
1000
0000
0000
0000
0000
0000
0000
0000
0000
0000
0000
0000
0000
0000
0000
0000
0000
0000
0000
0000
0000
0000
0000
0000
0100
0000
0000
0000
0000
0000
0000
0000
0000
0000
0000
0000
0000
0000
0000
0000
0000
0000
0000
0000
0000
0000
0000
0000
0010
0000
0000
0000
0000
0000
0000
0000
0000
0000
0000
0000
0000
0000
0000
0000
0001
0000
0000
0000
0000
0000
0000
0000
0100
0000
0000
0000
0000
0000
0000
0000
0000
0000
0000
0000
0000
0000
0000
0000
0001
0000
0000
0000
0000
0000
0000
0000
,  // measure 39
0100
0000
0000
0100
0000
0000
0010
0000
0000
1000
0000
0000
0100
0000
0000
0010
0000
0000
0100
0000
1000
0000
0000
0010
,  // measure 40
0000
0000
0000
0010
0000
0000
0000
0000
0100
0001
0000
0100
0001
0000
0000
0010
0000
0000
0100
0000
1000
0100
0000
0100
,  // measure 41
0010
0000
0010
0100
0000
0000
1000
0000
0000
0010
0000
0000
0100
0000
0000
0000
0000
0000
0001
0000
0010
0000
0000
0002
,  // measure 42
0000
0000
0000
0103
0000
0000
0020
0000
0000
1030
0000
0000
0100
0000
0010
0100
0000
0000
1000
0000
0001
1000
0000
0000
,  // measure 43
1010
0010
0100
0001
0011
0001
0010
0100
,  // measure 44
1100
1000
0010
1000
0100
0010
0011
0001
,  // measure 45
1001
1000
0100
0010
0110
0010
0001
0100
,  // measure 46
0110
0010
1000
0100
1000
0010
0100
0001
,  // measure 47
1000
0000
0100
0010
0000
0000
0010
0000
0000
0010
0000
0001
0100
0000
0010
0000
0000
1000
0000
0000
1000
0100
1000
0000
,  // measure 48
0001
0000
0100
0010
0000
0000
0010
0000
0000
0010
0000
1000
0100
0000
1000
0000
0000
0100
0000
0000
0010
0001
0010
0001
,  // measure 49
0010
0000
0100
0010
0000
0100
1000
0000
0100
1000
0000
0001
0100
0000
0100
0010
0000
0010
0000
0000
0100
0001
0100
0001
,  // measure 50
0100
0000
0010
1000
0000
0000
1000
0000
0000
1000
0000
0010
0100
0000
0010
0000
0000
1000
0000
0000
0100
0010
0100
0010
,  // measure 51
0000
1001
0000
0000
0000
0000
0000
0000
;

//---------------dance-single - Blank----------------
#NOTEDATA:;
#CHARTNAME:Fantasy;
#STEPSTYPE:dance-single;
#DESCRIPTION:Blank;
#CHARTSTYLE:;
#DIFFICULTY:Medium;
#METER:6;
#RADARVALUES:0.410592,0.368580,0.009613,0.115350,0.144188,299.000000,298.000000,1.000000,12.000000,0.000000,0.000000,0.000000,0.000000,0.000000,0.410592,0.368580,0.009613,0.115350,0.144188,299.000000,298.000000,1.000000,12.000000,0.000000,0.000000,0.000000,0.000000,0.000000;
#CREDIT:Phil Lee;
#OFFSET:0.000000;
#BPMS:0.000000=124.999992
,186.000000=95.000000
,187.000000=90.000000
,188.000000=83.000000
,203.000000=75.000000
,203.500000=65.000000
,204.000000=75.000000
;
#STOPS:;
#DELAYS:;
#WARPS:;
#TIMESIGNATURES:0.000000=4=4
;
#TICKCOUNTS:0.000000=4
;
#COMBOS:0.000000=1
;
#SPEEDS:0.000000=1.400000=0.000000=0
,13.000000=1.000000=3.000000=0
,51.000000=0.750000=0.500000=0
,51.500000=1.000000=0.500000=0
,135.000000=0.750000=0.500000=0
,135.500000=1.000000=0.500000=0
;
#SCROLLS:0.000000=1.000000
;
#FAKES:;
#LABELS:0.000000=Song Start
;
#ATTACKS:TIME=47.079197:LEN=0.720001:MODS=Confusion:TIME=47.799198:LEN=2.160000:MODS=,*100 0% Confusion:TIME=47.079197:LEN=0.480000:MODS=44% Stealth:TIME=102.722366:LEN=3.199997:MODS=*7 Dark,*7 Stealth;
#NOTES:
0000
0000
0000
0000
,
0000
0000
0000
0000
,
0000
0000
0000
1000
0000
0000
0100
0000
0000
1000
0000
0000
0100
0000
0000
0000
0000
0000
0010
0000
0000
0000
0000
0010
,
0000
0000
0000
0001
0000
0000
0100
0000
0000
0001
0000
0000
0100
0000
0000
0000
0000
0000
0010
0000
0000
0000
0000
0010
,
0000
0000
0000
1000
0000
0000
0100
0000
0000
1000
0000
0000
0100
0000
0000
0000
0000
0100
0000
0000
0000
0100
0000
0000
,
0010
0000
0000
0001
0000
0000
0010
0000
0000
0001
0000
0000
0010
0000
0000
0000
0000
0000
0100
0000
0000
0000
0000
0100
,
0000
0000
0000
1000
0000
0000
0001
0000
0000
1000
0000
0000
0001
0000
0000
0000
0000
0000
0010
0000
0000
0000
0000
0010
,
0000
0000
0000
0100
0000
0000
0010
0000
0000
0100
0000
0000
0010
0000
0000
0000
0000
0000
0001
0000
0000
0000
0000
0001
,
0000
0000
1000
0000
0001
0100
0001
0100
,
0000
0001
1000
0001
0000
0100
0010
0100
,
0000
0001
0010
0001
0000
1000
0100
1000
,
0000
0010
0100
0010
0000
1000
0100
1000
,
0000
0001
0100
0001
0000
1000
0100
1000
,
0000
0000
0000
0001
0000
0000
0100
0000
0000
0001
0000
0000
0100
0000
0000
0000
0000
0100
0000
0000
0000
0100
0000
0000
,
0010
0000
0000
1000
0000
0000
0010
0000
0000
1000
0000
0000
0010
0000
0000
0000
0000
0000
0100
0000
0000
0000
0000
0100
,
0000
0000
0000
0001
0000
0000
1000
0000
0000
0001
0000
0000
1000
0000
0000
0000
0000
0000
0010
0000
0000
0000
0000
0010
,
0000
0000
0000
0100
0000
0000
0010
0000
0000
0100
0000
0000
0010
0000
0000
0000
0000
0000
1000
0000
0000
0000
0000
1000
,
0000
0002
0000
0203
,
0310
0000
0000
1000
0000
0000
0010
0000
0000
0000
0000
0010
0000
0000
0000
1000
0000
0000
0100
0000
0000
1000
0000
0000
,
0100
1000
0200
0000
0000
0000
0320
0000
,
0031
0000
0002
0000
0013
0100
0200
0300
,
0000
2000
0000
3020
,
0130
0000
0000
0100
0000
0000
0001
0000
0000
0000
0000
0001
0000
0000
0000
0001
0000
0000
0010
0000
0000
0001
0000
0000
,
0010
0000
0000
0001
0000
0000
0001
0000
0000
0000
0000
0001
0000
0000
0000
0010
0000
0000
0100
0000
0000
0010
0000
0000
,
0100
0000
2000
3000
0010
0100
0100
0000
,
0000
0000
0000
0001
0000
0000
0010
0000
0000
0001
0000
0000
0010
0000
0000
0000
0000
0010
0000
0000
0000
0010
0000
0000
,
0100
0000
0000
1000
0000
0000
0100
0000
0000
1000
0000
0000
0100
0000
0000
0000
0000
0000
0010
0000
0000
0000
0000
0010
,
0000
0000
0000
0001
0000
0000
0100
0000
0000
0001
0000
0000
0100
0000
0000
0000
0000
0000
0010
0000
0000
0000
0000
0010
,
0000
0000
0000
1000
0000
0000
0010
0000
0000
1000
0000
0000
0010
0000
0000
0000
0000
0000
0100
0000
0000
0000
0000
0100
,
0000
0000
0000
0000
0000
0000
0001
0000
0000
0000
0000
0000
0000
0000
2000
0000
0000
0000
3100
0000
0000
0010
0000
0000
,
0000
0000
0000
0000
0002
0000
0000
0000
0103
0000
0000
0100
0000
0000
0010
0000
,
1000
0000
0000
1000
0000
0000
0010
0000
0000
1000
0000
0000
0010
0000
0000
0000
0000
0010
0000
0000
0000
1000
0000
0000
,
0100
0000
0000
0100
0000
0000
1000
0000
0000
0100
0000
0000
1000
0000
0000
0000
0000
1000
0000
0000
0000
0010
0000
0000
,
0020
0000
0000
0000
0000
0000
0130
0000
0000
0001
0000
0000
0100
0000
0000
0000
0000
0100
0000
0000
0000
0000
0000
0000
,
0010
0100
0000
0001
1000
0001
1000
0001
,
1000
0000
0000
1000
0000
0000
0100
0000
0000
0010
0000
0000
0001
0000
0000
0010
0000
0000
0001
0000
0000
0000
0000
0001
,
0000
0001
0000
0010
0100
0010
0100
1000
,
0100
0000
0000
1000
0000
0000
0100
0000
0000
0010
0000
0000
0001
0000
0000
0001
0000
0000
0010
0000
0000
0000
0000
0010
,
0000
0010
0000
0001
0100
0001
0100
0010
,
1000
0000
0000
1000
0000
0000
0100
0000
0000
1000
0000
0000
0010
0000
0000
0100
0000
0000
0010
0000
0000
0000
0000
0010
,
0000
0010
0000
1000
0001
1000
0001
0100
,
0010
0000
0000
0100
0000
0000
0010
0000
0000
1000
0000
0000
0001
0000
0000
0001
0000
0000
0010
0000
0000
0000
0000
0010
,
0000
0000
0001
1000
0001
1000
0001
1000
,
0000
0010
0100
0010
0000
1000
0100
1000
,
0000
0001
0100
0001
0000
0010
0100
0010
,
0000
0001
1000
0001
0000
0100
0010
0100
,
0000
0001
0010
0001
0000
1000
0100
1000
,
0100
0000
0000
0010
0000
0000
0001
0000
0000
0010
0000
0000
0001
0000
0000
0000
0000
0001
0000
0000
0000
0001
0000
0000
,
1000
0000
0000
0010
0000
0000
1000
0000
0000
0010
0000
0000
1000
0000
0000
0000
0000
1000
0000
0000
0000
1000
0000
0000
,
0100
0000
0000
0010
0000
0000
0100
0000
0000
0010
0000
0000
0100
0000
0000
0000
0000
0100
0000
0000
0000
0100
0000
0000
,
0010
0000
0000
0001
0000
0000
0010
0000
0000
0001
0000
0000
0010
0000
0000
0000
0000
0010
0000
0000
0000
0010
0000
0000
,
0000
1001
0000
0000
0000
0000
0000
0000
;

//---------------dance-single - Blank----------------
#NOTEDATA:;
#CHARTNAME:Fairy Tale;
#STEPSTYPE:dance-single;
#DESCRIPTION:Blank;
#CHARTSTYLE:;
#DIFFICULTY:Easy;
#METER:4;
#RADARVALUES:0.211475,0.221148,0.009613,0.067288,0.019225,154.000000,153.000000,1.000000,7.000000,0.000000,0.000000,0.000000,0.000000,0.000000,0.211475,0.221148,0.009613,0.067288,0.019225,154.000000,153.000000,1.000000,7.000000,0.000000,0.000000,0.000000,0.000000,0.000000;
#CREDIT:Phil Lee;
#NOTES:
0000
0000
0000
0000
,
0000
0000
0000
0000
,
0000
1000
0100
1000
,
0100
0010
0001
0010
,
0001
1000
0001
1000
,
0010
0100
0010
0100
,
0001
0010
0001
0010
,
0100
1000
0100
1000
,
0000
0001
1000
0001
,
1000
0000
0010
0000
,
0100
0000
0000
0001
,
0010
0000
0100
0000
,
1000
0000
1000
0000
,
1000
0010
1000
0010
,
0100
0001
0100
0001
,
0010
0001
0010
0001
,
1000
0010
1000
0010
,
0000
0200
0000
0302
,
0013
0100
0000
1000
,
0010
0200
0000
0302
,
0013
0020
0130
1000
,
0000
0020
0000
0130
,
0010
1000
0000
0100
,
0010
0100
0000
1000
,
0001
1000
0010
1000
,
0001
0010
0001
0010
,
0100
1000
0100
1000
,
0010
0100
0010
0100
,
0001
1000
0001
1000
,
0000
0100
0010
0100
,
0000
0020
0031
0000
,
0010
0100
1000
0000
,
0010
0100
0010
0000
,
1000
0001
1000
0000
,
0100
0000
0010
0000
,
0001
0000
0000
0000
0000
0000
0000
0000
0000
0000
0000
0000
0100
0000
0000
0000
0000
0000
0100
0000
0000
0000
0000
0100
,
0000
0000
0010
0000
,
1000
0000
0000
0000
0000
0000
0000
0000
0000
0000
0000
0000
0100
0000
0000
0000
0000
0000
0100
0000
0000
0000
0000
0100
,
0000
0000
0010
0000
,
0001
0000
0000
0000
0000
0000
0000
0000
0000
0000
0000
0000
0010
0000
0000
0000
0000
0000
0010
0000
0000
0000
0000
0010
,
0000
0000
0100
0000
,
1000
0000
0000
0000
0000
0000
0000
0000
0000
0000
0000
0000
0010
0000
0000
0000
0000
0000
0010
0000
0000
0000
0000
0010
,
0000
0100
0001
0100
,
0001
0000
0010
0000
,
0100
0000
0000
1000
,
0010
0000
0100
0000
,
0001
0000
0001
0000
,
1000
0100
0010
0100
,
1000
0001
0100
0001
,
0010
0100
0010
0001
,
1000
0010
1000
0100
,
0000
1001
0000
0000
0000
0000
0000
0000
;

//---------------dance-single - Blank----------------
#NOTEDATA:;
#CHARTNAME:Abstract;
#STEPSTYPE:dance-single;
#DESCRIPTION:Blank;
#CHARTSTYLE:;
#DIFFICULTY:Beginner;
#METER:1;
#RADARVALUES:0.085139,0.122860,0.067288,0.000000,0.067288,62.000000,55.000000,7.000000,0.000000,0.000000,0.000000,0.000000,0.000000,0.000000,0.085139,0.122860,0.067288,0.000000,0.067288,62.000000,55.000000,7.000000,0.000000,0.000000,0.000000,0.000000,0.000000,0.000000;
#CREDIT:Phil Lee;
#NOTES:
0000
0000
0000
0000
,
0000
0000
0000
0000
0000
0000
0000
0000
0000
0000
0000
0000
0000
0000
0000
0000
0000
0000
0000
0000
0000
0000
0000
1000
,
0000
0000
0000
0000
0000
0000
0000
0000
0000
0000
0000
0000
0000
0000
0000
0000
0000
0000
0000
0000
0000
0000
0000
0001
,
0000
0000
0000
0000
,
1001
0000
0000
0000
,
1000
0000
0000
0000
0000
0000
0000
0000
0000
0000
0000
0000
0000
0000
0000
0000
0000
0000
0000
0000
0000
0000
0000
0100
,
0000
0000
0000
0000
0000
0000
0000
0000
0000
0000
0000
0000
0000
0000
0000
0000
0000
0000
0000
0000
0000
0000
0000
1000
,
0000
0000
0000
0000
0000
0000
0000
0000
0000
0000
0000
0000
0000
0000
0000
0000
0000
0000
0000
0000
0000
0000
0000
0001
,
0000
0000
0000
0000
,
0100
0000
0000
0000
,
0010
0000
0000
0000
,
0100
0000
0000
0000
,
0001
0000
0000
0000
,
1001
0000
0000
0000
,
1000
0000
0000
0000
0000
0000
0000
0000
0000
0000
0000
0000
0000
0000
0000
0000
0000
0000
0000
0000
0000
0000
0000
0010
,
0000
0000
0000
0000
0000
0000
0000
0000
0000
0000
0000
0000
0000
0000
0000
0000
0000
0000
0000
0000
0000
0000
0000
1000
,
0000
0000
0000
0000
0000
0000
0000
0000
0000
0000
0000
0000
0000
0000
0000
0000
0000
0000
0000
0000
0000
0000
0000
0001
,
0000
0001
0000
0001
,
0001
0000
0000
0000
,
0000
0010
0000
0010
,
0010
0000
0000
0000
,
0000
0100
0000
0100
,
0100
0000
0000
0000
,
0000
1000
0000
1000
,
1000
0000
0000
0000
,
1001
0000
0000
0000
,
0001
0000
0000
0000
0000
0000
0000
0000
0000
0000
0000
0000
0000
0000
0000
0000
0000
0000
0000
0000
0000
0000
0000
0100
,
0000
0000
0000
0000
0000
0000
0000
0000
0000
0000
0000
0000
0000
0000
0000
0000
0000
0000
0000
0000
0000
0000
0000
0001
,
0000
0000
0000
0000
0000
0000
0000
0000
0000
0000
0000
0000
0000
0000
0000
0000
0000
0000
0000
0000
0000
0000
0000
1000
,
0000
0000
0000
0000
,
1001
0000
0000
0000
,
1000
0000
0000
0000
,
0100
0000
0000
0000
,
1000
0000
0000
0000
,
1001
0000
0000
0000
,
0001
0000
0000
0000
0000
0000
0000
0000
0000
0000
0000
0000
0000
0000
0000
0000
0000
0000
0000
0000
0000
0000
0000
0100
,
0000
0000
0000
0000
,
0001
0000
0000
0000
0000
0000
0000
0000
0000
0000
0000
0000
0000
0000
0000
0000
0000
0000
0000
0000
0000
0000
0000
0010
,
0000
0000
0000
0000
,
0100
0000
0000
0000
0000
0000
0000
0000
0000
0000
0000
0000
0000
0000
0000
0000
0000
0000
0000
0000
0000
0000
0000
0010
,
0000
0000
0000
0000
,
0001
0000
0000
0000
,
1000
0000
0000
0000
,
1001
0000
0000
0000
,
0001
0000
0000
0000
,
0100
0000
0000
0000
,
0010
0000
0000
0000
,
0100
0000
0000
0000
,
0001
0000
0000
0000
,
0010
0000
0000
0000
,
0001
0000
0000
0000
,
0000
1001
0000
0000
0000
0000
0000
0000
;
