#VERSION:0.83;
#TITLE:Submarine;
#SUBTITLE:;
#ARTIST:Xenomorph;
#TITLETRANSLIT:;
#SUBTITLETRANSLIT:;
#ARTISTTRANSLIT:;
#GENRE:;
#ORIGIN:;
#CREDIT:;
#BANNER:submarine-banner.png;
#BACKGROUND:submarine-bg.png;
#PREVIEWVID:;
#JACKET:;
#CDIMAGE:;
#DISCIMAGE:;
#LYRICSPATH:;
#CDTITLE:;
#MUSIC:Submarine.ogg;
#OFFSET:-0.000649;
#SAMPLESTART:30.476400;
#SAMPLELENGTH:17.142857;
#SELECTABLE:YES;
#BPMS:0.000=126.000;
#STOPS:;
#DELAYS:;
#WARPS:;
#TIMESIGNATURES:0.000=4=4;
#TICKCOUNTS:0.000=4;
#COMBOS:0.000=1;
#SPEEDS:0.000=1.000=0.000=0;
#SCROLLS:0.000=1.000;
#FAKES:;
#LABELS:0.000=Song Start;
#BGCHANGES:;
#KEYSOUNDS:;
#ATTACKS:
;

//---------------dance-single - ----------------
#NOTEDATA:;
#CHARTNAME:Pirate Ship;
#STEPSTYPE:dance-single;
#DESCRIPTION:;
#CHARTSTYLE:;
#DIFFICULTY:Challenge;
#METER:10;
#RADARVALUES:0.722641,0.779347,0.269662,0.046493,0.994960,544.000000,515.000000,29.000000,5.000000,29.000000,0.000000,5.000000,0.000000,0.000000,0.722641,0.779347,0.269662,0.046493,0.994960,544.000000,515.000000,29.000000,5.000000,29.000000,0.000000,5.000000,0.000000,0.000000;
#CREDIT:Thomas Wilczynski;
#NOTES:
// measure 0
0000
0000
0000
0000
,  // measure 1
1000
0000
0000
0000
0000
0000
0000
0000
0000
0000
0000
0000
0000
0000
0000
0000
0010
0100
0000
0000
0000
0000
0000
0000
0000
0000
0000
0000
0000
0000
0000
0000
0001
0000
0000
0000
0000
0000
0000
0000
0000
0000
0000
0000
0000
0000
0000
0000
0100
0010
0000
0000
0000
0000
0000
0000
0000
0000
0000
0000
0000
0000
0000
0000
,  // measure 2
1000
0000
0000
0000
0000
0000
0000
0000
0000
0000
0000
0000
0000
0000
0000
0000
0001
0010
0000
0000
0000
0000
0000
0000
0000
0000
0000
0000
0000
0000
0000
0000
0100
0000
0000
0000
0000
0000
0000
0000
0000
0000
0000
0000
0000
0000
0000
0000
1000
0002
0000
0000
0000
0000
0000
0000
0000
0000
0000
0000
0000
0000
0000
0000
,  // measure 3
0103
0100
0100
0100
,  // measure 4
0010
0000
0000
0000
0100
0000
0001
0010
0000
0010
0000
0000
0100
0000
0000
0000
,  // measure 5
1000
0000
0010
0000
1010
0000
0001
0100
0000
0100
0010
0000
1010
0000
0000
0000
,  // measure 6
1000
0000
0100
0000
1100
0000
0001
0010
0000
0010
0100
0000
1100
0000
0000
0000
,  // measure 7
1000
0000
0001
0000
1001
0000
1000
0010
0000
0010
1000
0000
1001
0000
0000
0000
,  // measure 8
0001
0000
0100
0000
0101
0000
0001
1000
0000
1000
0010
0000
0101
0000
0000
0000
,  // measure 9
1000
0000
0100
0010
0001
0000
1000
0001
0000
0001
1000
0100
0010
0000
0100
0000
,  // measure 10
1000
0000
0001
0100
0010
0000
1000
0100
0000
0100
1000
0001
0010
0000
0100
0000
,  // measure 11
1000
0000
0010
1000
0100
0000
0010
0100
1000
0000
0001
1000
0100
0000
1000
0000
,  // measure 12
0001
0000
0000
0100
0001
1000
0001
0100
0001
0100
0000
0010
1000
0001
1000
0100
,  // measure 13
0010
0000
0000
0001
0100
0001
1000
0100
1000
0100
0000
0010
0001
0010
0100
1000
,  // measure 14
0001
0000
0000
0100
0001
0010
0001
1000
0001
1000
0000
0010
0100
0010
1000
0001
,  // measure 15
1000
0000
0000
0100
0010
0001
0100
0010
0100
0010
0000
1000
0010
0100
0001
1000
,  // measure 16
0010
0000
0000
1000
0100
0010
0100
1000
0100
1000
0000
0001
10M0
0100
1000
0001
,  // measure 17
01M0
0000
0000
0001
10M0
0100
1000
0001
10M0
0001
0000
1000
01M0
1000
0100
1000
,  // measure 18
00M1
0000
0000
0100
0001
1000
0100
0010
0100
0010
0000
0001
1000
0001
1000
0010
,  // measure 19
0100
0000
0001
0000
1000
0100
M010
0000
0010
0000
0010
0100
10M0
0000
1000
0000
,  // measure 20
1000
0001
M100
0000
0100
0000
0100
0000
001M
0000
0010
1000
01M0
0000
0100
0000
,  // measure 21
1000
0001
1000
0000
1020
0000
0100
0000
0100
0000
0100
0000
0100
0000
0100
0000
,  // measure 22
1030
0010
1000
0000
0000
0001
0000
0001
0000
0000
0010
0000
0001
0100
0010
1000
,  // measure 23
0100
0010
0100
0000
1000
0010
0000
0010
1000
0000
0001
0000
0100
0010
0100
0010
,  // measure 24
1000
0001
1000
0000
0001
0010
0000
0010
0001
0000
0100
0000
0010
1000
0100
1000
,  // measure 25
0001
0010
0001
0010
0000
0000
0100
1000
0100
1000
0000
0000
0010
0100
0010
0100
,  // measure 26
0000
0000
0001
1000
0001
1000
0000
0010
0000
0010
0000
1000
0100
0000
1000
0000
,  // measure 27
0001
0100
0001
0100
0000
0000
0010
0100
0010
0100
0000
0000
0001
1000
0001
1000
,  // measure 28
0000
0000
0100
0010
0100
0010
0000
0001
0000
0001
0000
1000
0010
0000
1000
0000
,  // measure 29
0001
0000
0010
0001
0000
0010
0001
0000
0401
0000
0000
0000
0000
0000
0000
0000
,  // measure 30
0301
0000
1000
0001
0000
1000
0001
0000
0041
0000
0000
0000
0000
0000
0000
0000
,  // measure 31
0031
0000
1000
0010
0000
1000
0010
0000
0100
0000
0001
1000
0000
1000
0001
0010
,  // measure 32
0100
0000
1000
0010
0000
1000
0010
0000
0100
0000
0001
0100
0000
0001
0100
0010
,  // measure 33
1000
0001
0010
0000
0001
0100
0000
0100
0000
0001
0010
0000
0001
0100
0000
0100
,  // measure 34
0001
1000
0010
0000
1000
0100
0000
0100
0000
1000
0010
0000
1000
0100
0010
0100
,  // measure 35
1000
0001
0100
0000
0010
1000
0000
1000
0000
0001
0010
0000
0001
0100
0000
0100
,  // measure 36
0010
0000
1001
0000
1000
0001
0010
0100
1000
0000
1001
0000
1000
0001
0010
0100
,  // measure 37
1000
0000
1001
0000
1000
0001
0010
0100
1000
0000
0010
0000
0100
0001
1000
0000
,  // measure 38
0001
0000
1010
0000
0001
0100
0010
1000
0001
0000
1010
0000
0001
0100
0010
1000
,  // measure 39
0001
0000
1010
0000
0001
0100
0010
1000
0001
0000
1000
0000
0100
0010
0001
0000
,  // measure 40
1000
0000
0011
0000
1000
0100
0010
0001
1000
0000
0011
0000
1000
0100
0010
0001
,  // measure 41
1000
0000
0011
0000
1000
0100
0010
0001
1000
0000
0010
0000
1000
0001
0010
0000
,  // measure 42
0001
0000
1001
0000
0001
1000
0010
0100
0001
0000
1001
0000
0001
1000
0010
0100
,  // measure 43
0001
0000
1001
0000
0001
1000
0010
0100
0001
0000
0010
0000
0100
1000
0010
0000
,  // measure 44
0100
0000
0101
0000
1000
0100
1000
0010
1000
0000
1010
0000
0001
0010
0001
0100
,  // measure 45
0001
0000
0101
0000
1000
0100
1000
0010
1000
0100
0010
0001
0010
0100
1000
0001
,  // measure 46
2000
0010
3010
1000
1004
0000
0000
0000
,  // measure 47
0203
0010
0310
0100
4001
0000
0000
0000
,  // measure 48
3200
0010
0310
0001
0401
0000
0000
0000
,  // measure 49
0310
0000
0000
1000
0000
0001
0100
0001
0000
1000
0000
0100
0000
0010
0001
0010
,  // measure 50
0000
0000
000M
0000
0000
0M00
0000
0M00
0000
0000
00M0
0000
0000
M000
0000
M000
,  // measure 51
0000
0000
000M
0000
0000
0M00
0000
0M00
0000
0000
00M0
0000
0000
M000
0000
M000
,  // measure 52
0000
0000
000M
0000
0000
0M00
0000
0M00
0000
0000
00M0
0000
0000
0M00
0000
0M00
,  // measure 53
1000
0000
0000
0100
0000
0000
1000
0000
0000
0010
0000
0100
0010
0000
0010
0000
,  // measure 54
1000
0000
0000
0001
0000
0000
0010
0000
0000
0001
0000
0100
0001
0000
0001
0000
,  // measure 55
0010
0000
0000
0100
0000
0000
1000
0000
0000
0001
0000
0010
0001
0000
0001
0000
;

//---------------dance-single - ----------------
#NOTEDATA:;
#CHARTNAME:Submarine;
#STEPSTYPE:dance-single;
#DESCRIPTION:;
#CHARTSTYLE:;
#DIFFICULTY:Hard;
#METER:7;
#RADARVALUES:0.482204,0.493586,0.232467,0.083688,0.306857,363.000000,338.000000,25.000000,9.000000,25.000000,0.000000,0.000000,0.000000,0.000000,0.482204,0.493586,0.232467,0.083688,0.306857,363.000000,338.000000,25.000000,9.000000,25.000000,0.000000,0.000000,0.000000,0.000000;
#CREDIT:Thomas Wilczynski;
#NOTES:
// measure 0
0000
0000
0000
0000
,  // measure 1
1000
0110
0001
0110
,  // measure 2
1000
0110
0001
1020
,  // measure 3
0130
0100
0100
0100
,  // measure 4
0010
0000
0000
0000
0100
0000
0001
0010
0000
0010
0000
0000
0100
0000
0000
0000
,  // measure 5
1000
0000
0000
0000
1001
0000
0001
0100
0000
0100
0000
0000
0101
0000
0000
0000
,  // measure 6
1000
0000
0000
0000
1001
0000
0001
0010
0000
0010
0000
0000
0011
0000
0000
0000
,  // measure 7
1000
0000
0000
0000
1001
0000
0001
0100
0000
0100
0000
0000
0101
0000
0000
0000
,  // measure 8
1000
0000
0000
0000
1001
0000
0001
0010
0000
0010
0000
0000
0011
0000
0000
0000
,  // measure 9
1000
0000
0000
0000
1100
0000
0100
0010
0000
0001
0000
0000
0101
0000
0000
0000
,  // measure 10
1000
0000
0000
0000
1001
0000
0001
0010
0000
0100
0000
0000
0110
0000
0000
0000
,  // measure 11
1000
0010
0100
0010
1000
0010
0100
0000
,  // measure 12
0001
1000
0100
1000
0001
1000
0010
0000
,  // measure 13
0100
0010
1000
0010
0100
0001
0010
0000
,  // measure 14
0001
1000
0010
1000
0100
1000
0001
0000
,  // measure 15
0010
0100
0010
0001
1000
0001
0100
0000
,  // measure 16
0001
1000
0100
0010
0100
1000
0110
0000
,  // measure 17
0110
0110
0110
0110
,  // measure 18
0001
0010
0001
1000
0010
1000
0001
0010
,  // measure 19
0001
1000
0100
0010
0010
0010
0001
0001
,  // measure 20
0001
0100
0100
0100
0010
0010
1000
1000
,  // measure 21
0001
0010
0001
0000
0M00
0010
0M00
0010
0M00
0000
0M01
0000
0M00
0000
0M00
0000
,  // measure 22
1M00
0001
1000
0000
0000
0001
0000
0001
0000
0000
1000
0000
0000
0000
0010
0000
,  // measure 23
1000
0010
1000
0000
0001
0000
0010
0000
0100
0000
0010
0000
0001
0000
0000
0000
,  // measure 24
0100
0001
0100
0000
0010
0000
1000
0000
0001
0000
0100
0000
0010
0000
0000
0000
,  // measure 25
0100
0100
0000
0001
0001
0000
0010
0010
,  // measure 26
0000
0000
0100
0000
0100
0000
0000
1000
0000
1000
0000
0010
0000
0000
0100
0000
,  // measure 27
0100
0100
0000
0010
0010
0000
1000
1000
,  // measure 28
0000
0000
0100
0000
0100
0000
0000
0010
0000
0010
0000
0100
0000
0000
1000
0000
,  // measure 29
1000
0000
0000
1000
0000
0000
1000
0000
0020
0000
0000
0000
0000
0000
0000
0000
,  // measure 30
0130
0000
0000
0100
0000
0000
0100
0000
0002
0000
0000
0000
0000
0000
0000
0000
,  // measure 31
1003
0000
0000
1000
0000
0000
1000
0000
0001
0000
0000
0010
0000
0000
0001
0000
,  // measure 32
0100
0000
0000
0100
0000
0000
0100
0000
0010
0000
1000
0000
1010
0000
0000
0000
,  // measure 33
0001
0000
0000
0001
0000
0000
0001
0000
0010
0000
0001
0000
0101
0000
0000
0000
,  // measure 34
1000
0000
0000
1000
0000
0000
1000
0000
0100
0000
0010
0000
0011
0000
0000
0000
,  // measure 35
0001
0000
0000
0001
0000
0000
0001
0000
0100
0000
0001
0000
1001
0000
0000
0000
,  // measure 36
1000
0000
0100
0000
1000
0000
0001
0000
1000
0000
0100
0000
1000
0001
1000
0001
,  // measure 37
1000
0100
1000
0001
0010
0100
1000
0010
,  // measure 38
0100
0000
0001
0000
1000
0000
0001
0000
0100
0000
0001
0000
1000
0001
1000
0001
,  // measure 39
1000
0001
0100
0001
0010
0100
0010
0001
,  // measure 40
1000
0000
0001
0000
0010
0000
0001
0000
1000
0000
0001
0000
0010
0001
0010
0001
,  // measure 41
0010
0001
1000
0001
0100
0010
1000
0001
,  // measure 42
0010
0000
0001
0000
1000
0000
0001
0000
0010
0000
0001
0000
1000
0001
1000
0001
,  // measure 43
1000
0001
0010
0001
0100
0010
0100
0001
,  // measure 44
1000
0000
0100
0000
0010
0000
0001
0000
0010
0000
0100
0000
1000
0100
1000
0100
,  // measure 45
0010
0001
0010
0100
1000
0010
1000
0001
,  // measure 46
2000
0100
3020
0000
,  // measure 47
2030
0010
3200
0000
,  // measure 48
0320
0001
0230
0000
,  // measure 49
1300
0000
0000
0001
0000
0000
1000
0000
0010
0000
0000
0100
0000
0000
0010
0000
,  // measure 50
0000
0000
000M
0000
0000
0M00
0000
0M00
0000
0000
00M0
0000
0000
M000
0000
M000
,  // measure 51
0000
0000
000M
0000
0000
0M00
0000
0M00
0000
0000
00M0
0000
0000
M000
0000
M000
,  // measure 52
0000
0000
000M
0000
0000
0M00
0000
0M00
0000
0000
00M0
0000
0000
M000
0000
M000
,  // measure 53
1000
0000
0000
0100
0000
0000
1000
0000
0000
0010
0000
0000
1000
0000
1000
0000
,  // measure 54
0001
0000
0000
0010
0000
0000
0001
0000
0000
0100
0000
0000
0001
0000
0001
0000
,  // measure 55
1000
0000
0000
0010
0000
0000
1000
0000
0000
0001
0000
0000
1000
0000
1000
0000
;

//---------------dance-single - ----------------
#NOTEDATA:;
#CHARTNAME:Fish;
#STEPSTYPE:dance-single;
#DESCRIPTION:;
#CHARTSTYLE:;
#DIFFICULTY:Easy;
#METER:3;
#RADARVALUES:0.249736,0.311041,0.158078,0.111584,0.000000,188.000000,171.000000,17.000000,12.000000,0.000000,0.000000,0.000000,0.000000,0.000000,0.249736,0.311041,0.158078,0.111584,0.000000,188.000000,171.000000,17.000000,12.000000,0.000000,0.000000,0.000000,0.000000,0.000000;
#CREDIT:Thomas Wilczynski;
#NOTES:
// measure 0
0000
0000
0000
0000
,  // measure 1
0000
1100
0000
0101
,  // measure 2
0000
1100
0000
1002
,  // measure 3
0103
0100
0100
0100
,  // measure 4
0100
0100
0100
0100
,  // measure 5
0100
0001
0100
0001
,  // measure 6
1000
0001
1000
0001
,  // measure 7
0010
0001
0010
0001
,  // measure 8
1000
0001
1000
0001
,  // measure 9
0100
0010
0100
0001
,  // measure 10
0010
0100
0010
0001
,  // measure 11
1000
1100
0000
1100
,  // measure 12
0001
0101
0000
0101
,  // measure 13
1000
1001
0000
1001
,  // measure 14
0001
0101
0000
0101
,  // measure 15
2000
0000
3001
0001
,  // measure 16
0020
0000
0031
0001
,  // measure 17
2000
0000
3010
0010
,  // measure 18
0200
0000
0310
0010
,  // measure 19
2000
0000
3001
0001
,  // measure 20
0100
0100
0010
0010
,  // measure 21
1000
0100
1000
0100
,  // measure 22
1000
0001
1000
0001
,  // measure 23
0100
0010
0100
0001
,  // measure 24
0010
0100
0010
0001
,  // measure 25
1000
0100
0010
0001
,  // measure 26
0100
0010
1000
0001
,  // measure 27
1000
0100
0010
0100
,  // measure 28
1000
0001
0100
0001
,  // measure 29
1000
0000
1200
0000
,  // measure 30
0310
0000
0012
0000
,  // measure 31
1003
0001
0100
0000
,  // measure 32
0001
1000
0100
0000
,  // measure 33
1000
0010
0100
0000
,  // measure 34
0001
0010
0100
0000
,  // measure 35
0010
0001
0100
0000
,  // measure 36
0001
1000
0010
1000
,  // measure 37
0001
1000
0010
0010
,  // measure 38
0100
0001
0010
0001
,  // measure 39
1000
0100
0010
0010
,  // measure 40
0100
1000
0010
0100
,  // measure 41
0001
1000
0001
0001
,  // measure 42
0100
0010
1000
0010
,  // measure 43
0100
0001
0010
0010
,  // measure 44
0001
0010
0100
1000
,  // measure 45
0010
0100
0001
0001
,  // measure 46
1000
0000
1020
0000
,  // measure 47
0130
0000
0102
0000
,  // measure 48
1003
0000
1020
0000
,  // measure 49
0230
0000
0000
0000
,  // measure 50
0000
0000
0000
0000
,  // measure 51
0000
0000
0000
0000
,  // measure 52
0000
0000
0000
0000
,  // measure 53
0301
0000
0000
0010
,  // measure 54
0001
0000
0000
0100
,  // measure 55
0001
0000
0000
0010
;

//---------------dance-single - ----------------
#NOTEDATA:;
#CHARTNAME:Seaweed;
#STEPSTYPE:dance-single;
#DESCRIPTION:;
#CHARTSTYLE:;
#DIFFICULTY:Beginner;
#METER:1;
#RADARVALUES:0.155421,0.233281,0.037195,0.074390,0.000000,117.000000,113.000000,4.000000,8.000000,0.000000,0.000000,0.000000,0.000000,0.000000,0.155421,0.233281,0.037195,0.074390,0.000000,117.000000,113.000000,4.000000,8.000000,0.000000,0.000000,0.000000,0.000000,0.000000;
#CREDIT:Thomas Wilczynski;
#NOTES:
// measure 0
0000
0000
0000
0000
,  // measure 1
0000
1100
0000
1100
,  // measure 2
0000
1100
0000
1010
,  // measure 3
0010
0000
0010
0000
,  // measure 4
0010
0000
0010
0000
,  // measure 5
1000
0000
1000
0000
,  // measure 6
0100
0000
0100
0000
,  // measure 7
1000
0000
1000
0000
,  // measure 8
0100
0000
0100
0000
,  // measure 9
0010
0000
0010
0000
,  // measure 10
0001
0000
0001
0000
,  // measure 11
0100
0000
0010
0000
,  // measure 12
1000
0000
0010
0000
,  // measure 13
0100
0000
0001
0000
,  // measure 14
0010
0000
0100
0000
,  // measure 15
2000
0000
3001
0000
,  // measure 16
0002
0000
1003
1000
,  // measure 17
1000
1000
1000
0000
,  // measure 18
0010
0000
0010
0000
,  // measure 19
1000
1000
0001
0001
,  // measure 20
0100
0100
0010
0010
,  // measure 21
1000
0000
0100
0000
,  // measure 22
0010
0000
0100
0000
,  // measure 23
1000
0000
0010
0000
,  // measure 24
0100
0000
0001
0000
,  // measure 25
1000
0000
0001
0000
,  // measure 26
0010
0000
0001
0000
,  // measure 27
1000
0000
0001
0000
,  // measure 28
0100
0000
0001
0000
,  // measure 29
1000
0000
0200
0000
,  // measure 30
0310
0000
0200
0000
,  // measure 31
1300
0000
0001
0000
,  // measure 32
1000
1000
1000
0000
,  // measure 33
0010
0010
0010
0000
,  // measure 34
0100
0100
0100
0000
,  // measure 35
0010
0010
0010
0000
,  // measure 36
1000
0000
0001
0000
,  // measure 37
1000
0000
0100
0000
,  // measure 38
0010
0000
0001
0000
,  // measure 39
0010
0000
0100
0000
,  // measure 40
1000
0000
0010
0000
,  // measure 41
1000
0000
0001
0000
,  // measure 42
0100
0000
0010
0000
,  // measure 43
0100
0000
0010
0000
,  // measure 44
1000
0000
0010
0000
,  // measure 45
1000
0000
0001
0000
,  // measure 46
1000
0000
0020
0000
,  // measure 47
0130
0000
0002
0000
,  // measure 48
1003
0000
0020
0000
,  // measure 49
0230
0000
0000
0000
,  // measure 50
0000
0000
0000
0000
,  // measure 51
0000
0000
0000
0000
,  // measure 52
0000
0000
0000
0000
,  // measure 53
0301
0000
0000
0010
,  // measure 54
0001
0000
0000
0100
,  // measure 55
0001
0000
0000
0010
;

//---------------dance-single - ----------------
#NOTEDATA:;
#CHARTNAME:Scuba Diver;
#STEPSTYPE:dance-single;
#DESCRIPTION:;
#CHARTSTYLE:;
#DIFFICULTY:Medium;
#METER:6;
#RADARVALUES:0.383903,0.389673,0.027896,0.288259,0.274311,289.000000,286.000000,3.000000,31.000000,2.000000,0.000000,0.000000,0.000000,17.000000,0.383903,0.389673,0.027896,0.288259,0.274311,289.000000,286.000000,3.000000,31.000000,2.000000,0.000000,0.000000,0.000000,17.000000;
#CREDIT:Phil Lee;
#OFFSET:-0.000649;
#BPMS:0.000000=125.999992
;
#STOPS:;
#DELAYS:;
#WARPS:;
#TIMESIGNATURES:0.000000=4=4
;
#TICKCOUNTS:0.000000=4
;
#COMBOS:0.000000=1
;
#SPEEDS:0.000000=1.000000=0.000000=0
;
#SCROLLS:0.000000=1.000000
;
#FAKES:200.500000=11.000000
;
#LABELS:0.000000=Song Start
;
#NOTES:
// measure 0
0000
0000
0000
0000
,  // measure 1
1000
0200
0310
0002
,  // measure 2
0013
0200
1300
1002
,  // measure 3
1003
0001
0100
0010
,  // measure 4
1000
0000
0000
0000
0000
0000
0000
0100
0000
0100
0000
0000
0000
0000
0000
0000
,  // measure 5
1000
0000
0001
0000
0100
0000
0000
0001
0000
0001
0000
0000
1001
0000
0000
0000
,  // measure 6
0001
0000
1000
0000
0100
0000
0000
1000
0000
1000
0000
0000
1001
0000
0000
0000
,  // measure 7
1000
0000
0001
0000
0000
0000
0000
0010
0000
0000
0100
0000
1000
0000
0000
0000
,  // measure 8
0001
0000
0100
0000
0000
0000
0000
0010
0000
0000
0100
0000
0001
0000
0000
0000
,  // measure 9
1000
0002
0003
0200
0300
0002
0003
2000
,  // measure 10
3000
0002
0003
0020
0030
0200
0300
2000
,  // measure 11
3001
0100
0001
0000
1000
0010
1000
0000
,  // measure 12
0001
0010
0001
0000
1000
0010
1000
0000
,  // measure 13
0001
0100
0001
0000
1000
0100
1000
0000
,  // measure 14
0001
0010
0100
0000
0010
0100
1000
0000
,  // measure 15
0001
0100
0010
0000
1000
0010
0100
0000
,  // measure 16
0001
1000
0001
0000
0100
0010
0200
0300
,  // measure 17
0200
0300
0200
0300
0200
0300
0200
0300
,  // measure 18
0001
0010
0001
0000
1000
0010
1000
0000
,  // measure 19
0001
0000
0000
0100
0000
0000
0001
0000
,  // measure 20
0000
1000
0000
0000
0001
0000
0010
0010
,  // measure 21
0100
0000
2000
3200
0320
0032
2003
3002
,  // measure 22
0013
0000
0000
0000
0000
0001
0000
0001
0000
0000
0100
0000
0000
0010
0000
0010
,  // measure 23
1000
0001
0100
0000
0010
1000
0001
0000
,  // measure 24
0010
0000
0000
0100
0000
0000
1000
0000
0001
0000
0000
0100
0000
0000
0010
0000
,  // measure 25
1000
0001
0000
0100
0010
0000
1000
0100
,  // measure 26
0000
0000
0010
0000
0100
0000
0000
1000
0000
0001
0000
0100
0000
0000
0010
0000
,  // measure 27
1000
0001
0000
0100
0020
0030
1000
0001
,  // measure 28
0000
0000
0010
0000
0100
0000
0000
1000
0000
0001
0000
0100
0000
0000
0010
0000
,  // measure 29
1000
0000
0000
0100
0000
0000
0010
0000
0100
0000
0000
1000
0000
0000
0001
0000
,  // measure 30
0100
0000
0000
0010
0000
0000
0100
0000
0001
0000
0000
0010
0000
0000
0100
0000
,  // measure 31
1000
0000
0000
0001
0000
0000
0100
0000
0010
0000
0000
0100
0000
0000
0001
0000
,  // measure 32
1000
0000
0000
0100
0000
0000
0010
0000
0100
0000
0000
1000
0000
0000
0001
0000
,  // measure 33
1000
0000
0010
0000
0000
1000
0000
1000
0000
0000
0001
0000
0000
0010
0000
0010
,  // measure 34
0001
0000
0100
0000
0000
0010
0000
0010
0000
0000
0100
0000
0000
0001
0000
0001
,  // measure 35
1000
0000
0100
0000
0000
1000
0000
1000
0000
0000
0010
0000
0000
0100
0000
0100
,  // measure 36
0001
0010
0001
0000
1000
0010
1000
0000
,  // measure 37
0001
0100
0001
0000
1000
0100
1000
0000
,  // measure 38
0001
0100
0010
0000
1000
0010
0100
0000
,  // measure 39
0001
1000
0100
0000
0010
0001
1000
0000
,  // measure 40
0001
0100
0001
0000
0010
0100
0010
0000
,  // measure 41
0001
0100
0001
0000
1000
0100
1000
0000
,  // measure 42
0001
1000
0010
0000
0100
0001
1000
0000
,  // measure 43
0001
0010
0100
0000
1000
0001
0010
0000
,  // measure 44
0001
1000
0010
0000
0100
0001
1000
0000
,  // measure 45
0001
0100
0010
0000
1000
0010
0100
0000
,  // measure 46
0002
0003
2000
3000
,  // measure 47
0200
0300
0020
0030
,  // measure 48
0002
0003
0200
0300
,  // measure 49
0001
0000
0000
1000
0000
1000
0000
0100
0000
1000
0000
1000
0000
0001
0000
0100
,  // measure 50
M002
0000
M000
0000
0000
0M00
0000
0000
00M0
0000
00M0
0000
0000
0M00
0000
0000
,  // measure 51
M000
0000
M000
0000
0000
00M0
0000
0000
0M00
0000
0M00
0000
0000
00M0
0000
0000
,  // measure 52
M000
0000
M000
0000
0000
00M0
0000
0000
0M00
0000
0M00
0000
0000
M000
0000
0000
,  // measure 53
1003
0000
0000
0100
0000
0000
0010
0000
0000
0001
0000
0000
1000
0000
0010
0000
,  // measure 54
1000
0000
0000
0001
0M00
0000
0010
0000
0000
0001
0000
0000
1000
0000
0010
0000
,  // measure 55
1000
0000
0000
0001
0000
0000
0010
0000
0000
0100
0000
0000
1000
0000
0001
0000
;
