#VERSION:0.83;
#TITLE:Space;
#SUBTITLE:;
#ARTIST:])a])])yJeff;
#TITLETRANSLIT:;
#SUBTITLETRANSLIT:;
#ARTISTTRANSLIT:;
#GENRE:;
#ORIGIN:;
#CREDIT:;
#BANNER:space-banner.png;
#BACKGROUND:space-bg.png;
#PREVIEWVID:;
#JACKET:;
#CDIMAGE:;
#DISCIMAGE:;
#LYRICSPATH:;
#CDTITLE:;
#MUSIC:39 Daddy jeff - space.ogg;
#OFFSET:-0.007520;
#SAMPLESTART:74.667000;
#SAMPLELENGTH:16.000000;
#SELECTABLE:YES;
#BPMS:0.000=90.000;
#STOPS:;
#DELAYS:;
#WARPS:;
#TIMESIGNATURES:0.000=4=4;
#TICKCOUNTS:0.000=4;
#COMBOS:0.000=1;
#SPEEDS:0.000=1.000=0.000=0;
#SCROLLS:0.000=1.000;
#FAKES:;
#LABELS:0.000=Song Start;
#BGCHANGES:;
#KEYSOUNDS:;
#ATTACKS:
;

//---------------dance-single - ----------------
#NOTEDATA:;
#CHARTNAME:Other Dimension;
#STEPSTYPE:dance-single;
#DESCRIPTION:;
#CHARTSTYLE:;
#DIFFICULTY:Challenge;
#METER:8;
#RADARVALUES:0.412653,0.391427,0.000000,0.136334,0.421783,339.000000,339.000000,0.000000,16.000000,21.000000,0.000000,0.000000,0.000000,0.000000,0.412653,0.391427,0.000000,0.136334,0.421783,339.000000,339.000000,0.000000,16.000000,21.000000,0.000000,0.000000,0.000000,0.000000;
#CREDIT:Xsabiel Zayas;
#OFFSET:-0.007520;
#BPMS:0.000000=90.000000
;
#STOPS:;
#DELAYS:;
#WARPS:;
#TIMESIGNATURES:0.000000=4=4
;
#TICKCOUNTS:0.000000=4
;
#COMBOS:0.000000=1
;
#SPEEDS:0.000000=1.000000=0.000000=0
;
#SCROLLS:0.000000=1.000000
,29.750000=0.500000
,32.000000=1.000000
,61.500000=0.500000
,64.000000=1.000000
,77.500000=0.500000
,80.000000=1.000000
,94.000000=0.500000
,96.000000=1.000000
,125.750000=0.500000
,128.000000=1.000000
,157.500000=0.500000
,160.000000=1.000000
,173.500000=0.500000
;
#FAKES:;
#LABELS:0.000000=Song Start
;
#NOTES:
// measure 0
0000
0000
0000
0000
,  // measure 1
0000
0000
0000
0000
,  // measure 2
0001
0000
0000
0010
0000
0000
0100
0000
0000
0000
0000
0010
0001
0000
0000
0000
0000
0000
1000
0000
0000
0010
0000
0000
0100
0000
0000
0000
0000
0000
0001
0000
0000
0000
0000
0010
0001
0000
0000
0000
0000
0000
1000
0000
0000
0000
0100
0000
,  // measure 3
0010
0000
0100
0000
1000
0001
0000
0010
0000
0000
0100
0000
1000
0000
0000
0000
,  // measure 4
0001
0000
0000
0100
0000
0000
0010
0000
0000
0000
0000
1000
0001
0000
0000
0000
0000
0000
1000
0000
0000
0010
0000
0000
0100
0000
0000
0000
0000
0000
0001
0000
0000
0000
0000
0010
0001
0000
0000
0000
0000
0000
0100
0000
0000
0000
0010
0000
,  // measure 5
0100
0000
0001
0000
1000
0001
0000
0010
0000
0000
0100
0000
1000
0000
0000
0000
,  // measure 6
0010
0000
0000
0100
0000
0000
0001
0000
0000
0000
0000
1000
0010
0000
0000
0000
0000
0000
0100
0000
0000
0001
0000
0000
1000
0000
0000
0000
0000
0000
0010
0000
0000
0000
0000
1000
0100
0000
0000
0000
0000
0000
1000
0000
0000
0000
0010
0000
,  // measure 7
0100
0000
0001
0000
0100
0010
0000
1000
0000
0000
00M0
0000
0M00
0000
0000
0000
,  // measure 8
0002
0000
0000
0000
0000
0000
0000
0000
0000
0003
0000
0000
0010
0000
0000
0000
0000
0000
0001
0000
0000
0000
0000
0000
0100
0000
0000
0000
0000
0000
0001
0000
0000
0000
0000
0000
0010
0000
0000
0000
0000
0000
0100
0000
0000
0000
2000
0000
,  // measure 9
0000
0000
0000
3000
0001
0000
1000
0000
0010
0000
0100
0000
0001
0000
1000
0000
,  // measure 10
0200
0000
0000
0000
0000
0000
0000
0000
0000
0300
0000
0000
0010
0000
0000
0000
0000
0000
0001
0000
0000
0000
0000
0000
1000
0000
0000
0000
0000
0000
0100
0000
0000
0000
0000
0000
1000
0000
0000
0000
0000
0000
0001
0000
0000
0000
0200
0000
,  // measure 11
0000
0000
0000
0300
0010
0000
1000
0000
0001
0000
1000
0000
0010
0000
1000
0000
,  // measure 12
0200
0000
0000
0000
0000
0000
0000
0000
0000
0300
0000
0000
1000
0000
0000
0000
0000
0000
0001
0000
0000
0000
0000
0000
0010
0000
0000
0000
0000
0000
0100
0000
0000
0000
0000
0000
1000
0000
0000
0000
0000
0000
0001
0000
0000
0000
0200
0000
,  // measure 13
0000
0000
0000
0300
0001
0000
0010
0000
0001
0000
1000
0000
0100
0000
1000
0000
,  // measure 14
0020
0000
0000
0000
0000
0000
0000
0000
0000
0030
0000
0000
0100
0000
0000
0000
0000
0000
0001
0000
0000
0000
0000
0000
1000
0000
0000
0000
0000
0000
0001
0000
0000
0000
0000
0000
0010
0000
0000
0000
0000
0000
0001
0000
0000
0000
2000
0000
,  // measure 15
0000
0000
0000
3000
0010
0000
1000
0000
0M00
0000
M000
0000
000M
0000
M000
0000
,  // measure 16
0010
0000
0000
1000
0100
0000
1000
0001
0010
0100
1000
0000
0000
0001
1000
0000
,  // measure 17
0010
0100
0000
0100
0001
0000
0010
0000
0000
0010
0001
0000
1000
0000
0000
0000
,  // measure 18
0001
0000
0000
0100
0010
0000
1000
0100
0010
0001
0010
0000
0000
0001
0100
0000
,  // measure 19
0010
0100
0000
0100
0010
0000
1000
0000
0000
M000
000M
0000
0M00
0000
0000
0000
,  // measure 20
0001
0000
0000
0010
0100
0000
1000
0001
0010
0100
1000
0000
0000
0001
0100
0000
,  // measure 21
0001
1000
0000
1000
0001
0000
0100
0000
0000
0100
0001
0000
0010
0000
0000
0000
,  // measure 22
0001
0000
0000
0100
0001
0000
0010
0100
1000
0001
0010
0000
0000
0001
0100
0000
,  // measure 23
0001
0010
0000
0010
0001
0000
0100
0000
0000
0M00
000M
0000
M000
0000
0000
0000
,  // measure 24
0010
0000
0000
1000
0000
0000
0001
0000
0000
0000
0000
0100
0001
0000
0000
0000
0000
0000
0010
0000
0000
0100
0000
0000
1000
0000
0000
0000
0000
0000
0001
0000
0000
0000
0000
0010
0001
0000
0000
0000
0000
0000
0100
0000
0000
0000
0001
0000
,  // measure 25
1000
0000
0010
0000
0100
0001
0000
0010
0000
0000
0001
0000
0100
0000
0000
0000
,  // measure 26
0001
0000
0000
0010
0000
0000
0001
0000
0000
0000
0000
1000
0100
0000
0000
0000
0000
0000
1000
0000
0000
0010
0000
0000
0100
0000
0000
0000
0000
0000
0001
0000
0000
0000
0000
0010
0001
0000
0000
0000
0000
0000
0100
0000
0000
0000
0001
0000
,  // measure 27
0010
0000
0100
0000
1000
0010
0000
0100
0000
0000
0010
0000
1000
0000
0000
0000
,  // measure 28
0001
0000
0000
0010
0000
0000
0001
0000
0000
0000
0000
0100
0001
0000
0000
0000
0000
0000
1000
0000
0000
0010
0000
0000
0100
0000
0000
0000
0000
0000
0001
0000
0000
0000
0000
0010
0001
0000
0000
0000
0000
0000
1000
0000
0000
0000
0100
0000
,  // measure 29
0010
0000
0001
0000
0100
0010
0000
1000
0000
0000
0001
0000
0100
0000
0000
0000
,  // measure 30
0010
0000
0000
1000
0000
0000
0001
0000
0000
0000
0000
0010
0001
0000
0000
0000
0000
0000
1000
0000
0000
0010
0000
0000
1000
0000
0000
0000
0000
0000
0100
0000
0000
0000
0000
0010
0001
0000
0000
0000
0000
0000
0100
0000
0000
0000
0010
0000
,  // measure 31
0100
0000
0001
0000
1000
0010
0000
1000
0000
0000
0M00
0000
00M0
0000
0000
0000
,  // measure 32
0002
0000
0000
0000
0000
0000
0000
0000
0000
0003
0000
0000
0100
0000
0000
0000
0000
0000
0001
0000
0000
0000
0000
0000
0010
0000
0000
0000
0000
0000
0001
0000
0000
0000
0000
0000
1000
0000
0000
0000
0000
0000
0001
0000
0000
0000
0200
0000
,  // measure 33
0000
0000
0000
0300
0001
0000
0010
0000
0001
0000
1000
0000
0100
0000
0010
0000
,  // measure 34
0002
0000
0000
0000
0000
0000
0000
0000
0000
0003
0000
0000
0100
0000
0000
0000
0000
0000
0010
0000
0000
0000
0000
0000
1000
0000
0000
0000
0000
0000
0100
0000
0000
0000
0000
0000
0010
0000
0000
0000
0000
0000
0001
0000
0000
0000
0020
0000
,  // measure 35
0000
0000
0000
0030
0100
0000
1000
0000
0001
0000
0010
0000
0001
0000
0100
0000
,  // measure 36
0020
0000
0000
0000
0000
0000
0000
0000
0000
0030
0000
0000
1000
0000
0000
0000
0000
0000
0100
0000
0000
0000
0000
0000
1000
0000
0000
0000
0000
0000
0010
0000
0000
0000
0000
0000
1000
0000
0000
0000
0000
0000
0100
0000
0000
0000
2000
0000
,  // measure 37
0000
0000
0000
3000
0010
0000
0100
0000
0001
0000
0010
0000
0001
0000
1000
0000
,  // measure 38
0002
0000
0000
0000
0000
0000
0000
0000
0000
0003
0000
0000
0010
0000
0000
0000
0000
0000
0001
0000
0000
0000
0000
0000
0100
0000
0000
0000
0000
0000
0010
0000
0000
0000
0000
0000
1000
0000
0000
0000
0000
0000
0001
0000
0000
0000
0200
0000
,  // measure 39
0000
0000
0000
0300
0010
0000
1000
0000
00M0
0000
0M00
0000
000M
0000
00M0
0000
,  // measure 40
0001
0000
0000
0010
0001
0000
0100
0010
1000
0001
0100
0000
0000
0010
1000
0000
,  // measure 41
0001
0010
0000
0010
0100
0000
1000
0000
0000
1000
0001
0000
1000
0000
0000
0000
,  // measure 42
0010
0000
0000
0100
0010
0000
1000
0010
0100
0001
1000
0000
0000
0001
0010
0000
,  // measure 43
0001
0100
0000
0100
0001
0000
0010
0000
0000
00M0
000M
0000
0M00
0000
0000
0000
;

//---------------dance-single - ----------------
#NOTEDATA:;
#CHARTNAME:Asteroid Belt;
#STEPSTYPE:dance-single;
#DESCRIPTION:;
#CHARTSTYLE:;
#DIFFICULTY:Beginner;
#METER:1;
#RADARVALUES:0.052342,0.055918,0.000000,0.000000,0.034083,43.000000,43.000000,0.000000,0.000000,0.000000,0.000000,0.000000,0.000000,0.000000,0.052342,0.055918,0.000000,0.000000,0.034083,43.000000,43.000000,0.000000,0.000000,0.000000,0.000000,0.000000,0.000000,0.000000;
#CREDIT:Xsabiel Zayas;
#NOTES:
// measure 0
0000
0000
0000
0000
,  // measure 1
0000
0000
0000
0000
,  // measure 2
0001
0000
0000
0000
,  // measure 3
0001
0000
0000
0000
,  // measure 4
1000
0000
0000
0000
,  // measure 5
1000
0000
0000
0000
,  // measure 6
0100
0000
0000
0000
,  // measure 7
0100
0000
0000
0000
,  // measure 8
1000
0000
0000
0000
0000
0000
0000
0000
0000
0000
0000
0000
0000
0000
0000
0000
0000
0000
0000
0000
0000
0000
0000
1000
,  // measure 9
0000
0000
0000
0000
,  // measure 10
0100
0000
0000
0000
0000
0000
0000
0000
0000
0000
0000
0000
0000
0000
0000
0000
0000
0000
0000
0000
0000
0000
0000
0100
,  // measure 11
0000
0000
0000
0000
,  // measure 12
0010
0000
0000
0000
0000
0000
0000
0000
0000
0000
0000
0000
0000
0000
0000
0000
0000
0000
0000
0000
0000
0000
0000
0010
,  // measure 13
0000
0000
0000
0000
,  // measure 14
0001
0000
0000
0000
0000
0000
0000
0000
0000
0000
0000
0000
0000
0000
0000
0000
0000
0000
0000
0000
0000
0000
0000
0001
,  // measure 15
0000
0000
0000
0000
,  // measure 16
1000
0000
0000
0000
,  // measure 17
0001
0000
0000
0000
,  // measure 18
1000
0000
0000
0000
,  // measure 19
0100
0000
0000
0000
,  // measure 20
0010
0000
0000
0000
,  // measure 21
0100
0000
0000
0000
,  // measure 22
1000
0000
0000
0000
,  // measure 23
0001
0000
0000
0000
,  // measure 24
1000
0000
0000
0000
,  // measure 25
1000
0000
0000
0000
,  // measure 26
0001
0000
0000
0000
,  // measure 27
0001
0000
0000
0000
,  // measure 28
0100
0000
0000
0000
,  // measure 29
0100
0000
0000
0000
,  // measure 30
0001
0000
0000
0000
,  // measure 31
0001
0000
0000
0000
,  // measure 32
1000
0000
0000
0000
0000
0000
0000
0000
0000
0000
0000
0000
0000
0000
0000
0000
0000
0000
0000
0000
0000
0000
0000
1000
,  // measure 33
0000
0000
0000
0000
,  // measure 34
0001
0000
0000
0000
0000
0000
0000
0000
0000
0000
0000
0000
0000
0000
0000
0000
0000
0000
0000
0000
0000
0000
0000
0001
,  // measure 35
0000
0000
0000
0000
,  // measure 36
0100
0000
0000
0000
0000
0000
0000
0000
0000
0000
0000
0000
0000
0000
0000
0000
0000
0000
0000
0000
0000
0000
0000
0100
,  // measure 37
0000
0000
0000
0000
,  // measure 38
0010
0000
0000
0000
0000
0000
0000
0000
0000
0000
0000
0000
0000
0000
0000
0000
0000
0000
0000
0000
0000
0000
0000
0010
,  // measure 39
0000
0000
0000
0000
,  // measure 40
0100
0000
0000
0000
,  // measure 41
0001
0000
0000
0000
,  // measure 42
0010
0000
0000
0000
,  // measure 43
0100
0000
0000
1000
;

//---------------dance-single - ----------------
#NOTEDATA:;
#CHARTNAME:Solar System;
#STEPSTYPE:dance-single;
#DESCRIPTION:;
#CHARTSTYLE:;
#DIFFICULTY:Easy;
#METER:2;
#RADARVALUES:0.091295,0.093197,0.000000,0.136334,0.034083,75.000000,75.000000,0.000000,16.000000,0.000000,0.000000,0.000000,0.000000,0.000000,0.091295,0.093197,0.000000,0.136334,0.034083,75.000000,75.000000,0.000000,16.000000,0.000000,0.000000,0.000000,0.000000,0.000000;
#CREDIT:Xsabiel Zayas;
#NOTES:
// measure 0
0000
0000
0000
0000
,  // measure 1
0000
0000
0000
0000
,  // measure 2
1000
0100
0000
0010
,  // measure 3
0000
0001
0000
0100
,  // measure 4
0000
0010
0000
0100
,  // measure 5
0000
0001
0000
1000
,  // measure 6
0000
0001
0000
0010
,  // measure 7
0000
0100
0000
1000
,  // measure 8
0200
0000
0000
0000
0000
0000
0000
0000
0000
0300
0000
0000
0000
0000
0000
0000
0000
0000
0000
0000
0000
0000
0000
0000
0010
0000
0000
0000
0000
0000
0000
0000
0000
0000
0000
0000
0000
0000
0000
0000
0000
0000
0000
0000
0000
0000
0002
0000
,  // measure 9
0000
0000
0000
0003
0000
0000
0000
0000
0010
0000
0000
0000
0000
0000
0000
0000
,  // measure 10
0200
0000
0000
0000
0000
0000
0000
0000
0000
0300
0000
0000
0000
0000
0000
0000
0000
0000
0000
0000
0000
0000
0000
0000
1000
0000
0000
0000
0000
0000
0000
0000
0000
0000
0000
0000
0000
0000
0000
0000
0000
0000
0000
0000
0000
0000
0002
0000
,  // measure 11
0000
0000
0000
0003
0000
0000
0000
0000
0010
0000
0000
0000
0000
0000
0000
0000
,  // measure 12
0200
0000
0000
0000
0000
0000
0000
0000
0000
0300
0000
0000
0000
0000
0000
0000
0000
0000
0000
0000
0000
0000
0000
0000
1000
0000
0000
0000
0000
0000
0000
0000
0000
0000
0000
0000
0000
0000
0000
0000
0000
0000
0000
0000
0000
0000
0002
0000
,  // measure 13
0000
0000
0000
0003
0000
0000
0000
0000
0100
0000
0000
0000
0000
0000
0000
0000
,  // measure 14
0002
0000
0000
0000
0000
0000
0000
0000
0000
0003
0000
0000
0000
0000
0000
0000
0000
0000
0000
0000
0000
0000
0000
0000
1000
0000
0000
0000
0000
0000
0000
0000
0000
0000
0000
0000
0000
0000
0000
0000
0000
0000
0000
0000
0000
0000
0002
0000
,  // measure 15
0000
0000
0000
0003
0000
0000
0000
0000
0100
0000
0000
0000
0000
0000
0000
0000
,  // measure 16
0001
0000
0000
0000
0000
0000
0000
1000
,  // measure 17
0000
0000
0000
0000
,  // measure 18
0010
0000
0000
0000
0000
0000
0000
0100
,  // measure 19
0000
0000
0000
0000
,  // measure 20
0001
0000
0000
0000
0000
0000
0000
0100
,  // measure 21
0000
0000
0000
0000
,  // measure 22
0010
0000
0000
0000
0000
0000
0000
1000
,  // measure 23
0000
0000
0000
0000
,  // measure 24
0010
0100
0000
0001
,  // measure 25
0000
0100
0000
0010
,  // measure 26
0000
1000
0000
0100
,  // measure 27
0000
1000
0000
0010
,  // measure 28
0000
1000
0000
0001
,  // measure 29
0000
0010
0000
0001
,  // measure 30
0000
0100
0000
0010
,  // measure 31
0000
1000
0000
0001
,  // measure 32
0020
0000
0000
0000
0000
0000
0000
0000
0000
0030
0000
0000
0000
0000
0000
0000
0000
0000
0000
0000
0000
0000
0000
0000
0100
0000
0000
0000
0000
0000
0000
0000
0000
0000
0000
0000
0000
0000
0000
0000
0000
0000
0000
0000
0000
0000
0020
0000
,  // measure 33
0000
0000
0000
0030
0000
0000
0000
0000
0001
0000
0000
0000
0000
0000
0000
0000
,  // measure 34
0200
0000
0000
0000
0000
0000
0000
0000
0000
0300
0000
0000
0000
0000
0000
0000
0000
0000
0000
0000
0000
0000
0000
0000
0010
0000
0000
0000
0000
0000
0000
0000
0000
0000
0000
0000
0000
0000
0000
0000
0000
0000
0000
0000
0000
0000
2000
0000
,  // measure 35
0000
0000
0000
3000
0000
0000
0000
0000
0001
0000
0000
0000
0000
0000
0000
0000
,  // measure 36
0020
0000
0000
0000
0000
0000
0000
0000
0000
0030
0000
0000
0000
0000
0000
0000
0000
0000
0000
0000
0000
0000
0000
0000
0100
0000
0000
0000
0000
0000
0000
0000
0000
0000
0000
0000
0000
0000
0000
0000
0000
0000
0000
0000
0000
0000
0020
0000
,  // measure 37
0000
0000
0000
0030
0000
0000
0000
0000
0001
0000
0000
0000
0000
0000
0000
0000
,  // measure 38
2000
0000
0000
0000
0000
0000
0000
0000
0000
3000
0000
0000
0000
0000
0000
0000
0000
0000
0000
0000
0000
0000
0000
0000
0010
0000
0000
0000
0000
0000
0000
0000
0000
0000
0000
0000
0000
0000
0000
0000
0000
0000
0000
0000
0000
0000
2000
0000
,  // measure 39
0000
0000
0000
3000
0000
0000
0000
0000
0100
0000
0000
0000
0000
0000
0000
0000
,  // measure 40
1000
0000
0000
0000
0000
0000
0000
0010
,  // measure 41
0000
0000
0000
0000
,  // measure 42
0100
0000
0000
0000
0000
0000
0000
0001
,  // measure 43
0000
0000
0000
0100
;

//---------------dance-single - ----------------
#NOTEDATA:;
#CHARTNAME:Galaxy;
#STEPSTYPE:dance-single;
#DESCRIPTION:;
#CHARTSTYLE:;
#DIFFICULTY:Medium;
#METER:5;
#RADARVALUES:0.233715,0.205033,0.000000,0.136334,0.068167,192.000000,192.000000,0.000000,16.000000,0.000000,0.000000,0.000000,0.000000,0.000000,0.233715,0.205033,0.000000,0.136334,0.068167,192.000000,192.000000,0.000000,16.000000,0.000000,0.000000,0.000000,0.000000,0.000000;
#CREDIT:Xsabiel Zayas;
#NOTES:
// measure 0
0000
0000
0000
0000
,  // measure 1
0000
0000
0000
0000
,  // measure 2
0001
0100
0010
1000
,  // measure 3
0100
0000
1000
0000
0000
0010
0100
0000
,  // measure 4
0001
0010
0100
1000
,  // measure 5
0100
0000
0010
0000
0000
0100
1000
0000
,  // measure 6
0010
1000
0001
0100
,  // measure 7
0001
0000
1000
0000
0000
0010
1000
0000
,  // measure 8
0002
0000
0000
0000
0000
0000
0000
0000
0000
0003
0000
0000
1000
0000
0000
0000
0000
0000
0000
0000
0000
0000
0000
0000
0001
0000
0000
0000
0000
0000
1000
0000
0000
0000
0000
0000
0010
0000
0000
0000
0000
0000
0000
0000
0000
0000
0200
0000
,  // measure 9
0000
0000
0000
0300
0001
0000
0000
0000
1000
0000
0100
0000
1000
0000
0000
0000
,  // measure 10
0002
0000
0000
0000
0000
0000
0000
0000
0000
0003
0000
0000
1000
0000
0000
0000
0000
0000
0000
0000
0000
0000
0000
0000
0010
0000
0000
0000
0000
0000
1000
0000
0000
0000
0000
0000
0001
0000
0000
0000
0000
0000
0000
0000
0000
0000
0200
0000
,  // measure 11
0000
0000
0000
0300
0001
0000
0000
0000
0010
0000
0001
0000
0100
0000
0000
0000
,  // measure 12
0020
0000
0000
0000
0000
0000
0000
0000
0000
0030
0000
0000
0100
0000
0000
0000
0000
0000
0000
0000
0000
0000
0000
0000
0001
0000
0000
0000
0000
0000
0100
0000
0000
0000
0000
0000
0010
0000
0000
0000
0000
0000
0000
0000
0000
0000
2000
0000
,  // measure 13
0000
0000
0000
3000
0010
0000
0000
0000
0100
0000
0001
0000
1000
0000
0000
0000
,  // measure 14
0002
0000
0000
0000
0000
0000
0000
0000
0000
0003
0000
0000
0010
0000
0000
0000
0000
0000
0000
0000
0000
0000
0000
0000
0100
0000
0000
0000
0000
0000
1000
0000
0000
0000
0000
0000
0010
0000
0000
0000
0000
0000
0000
0000
0000
0000
2000
0000
,  // measure 15
0000
0000
0000
3000
0001
0000
0000
0000
0010
0000
0001
0000
0100
0000
0000
0000
,  // measure 16
0001
0000
0000
1000
0000
0000
0010
0000
0000
0000
0100
0000
0000
0000
0001
0000
,  // measure 17
1000
0000
0000
0100
0000
0010
0001
0000
,  // measure 18
1000
0000
0000
0100
0000
0000
0010
0000
0000
0000
0100
0000
0000
0000
1000
0000
,  // measure 19
0001
0000
0000
0010
0000
0100
1000
0000
,  // measure 20
0010
0000
0000
1000
0000
0000
0100
0000
0000
0000
1000
0000
0000
0000
0001
0000
,  // measure 21
1000
0000
0000
0010
0000
0100
0001
0000
,  // measure 22
0010
0000
0000
0001
0000
0000
0100
0000
0000
0000
0001
0000
0000
0000
0010
0000
,  // measure 23
0001
0000
0000
1000
0000
0010
0100
0000
,  // measure 24
0001
1000
0001
0100
,  // measure 25
0010
0000
1000
0000
0000
0100
1000
0000
,  // measure 26
0001
0100
0010
1000
,  // measure 27
0001
0000
0010
0000
0000
0001
1000
0000
,  // measure 28
0001
0100
0001
0010
,  // measure 29
0001
0000
0100
0000
0000
0010
1000
0000
,  // measure 30
0001
0010
0001
1000
,  // measure 31
0010
0000
0100
0000
0000
0001
1000
0000
,  // measure 32
0020
0000
0000
0000
0000
0000
0000
0000
0000
0030
0000
0000
1000
0000
0000
0000
0000
0000
0000
0000
0000
0000
0000
0000
0001
0000
0000
0000
0000
0000
0010
0000
0000
0000
0000
0000
0001
0000
0000
0000
0000
0000
0000
0000
0000
0000
0200
0000
,  // measure 33
0000
0000
0000
0300
0010
0000
0000
0000
1000
0000
0001
0000
0100
0000
0000
0000
,  // measure 34
0020
0000
0000
0000
0000
0000
0000
0000
0000
0030
0000
0000
1000
0000
0000
0000
0000
0000
0000
0000
0000
0000
0000
0000
0100
0000
0000
0000
0000
0000
1000
0000
0000
0000
0000
0000
0010
0000
0000
0000
0000
0000
0000
0000
0000
0000
0200
0000
,  // measure 35
0000
0000
0000
0300
0001
0000
0000
0000
0100
0000
0010
0000
1000
0000
0000
0000
,  // measure 36
0200
0000
0000
0000
0000
0000
0000
0000
0000
0300
0000
0000
0010
0000
0000
0000
0000
0000
0000
0000
0000
0000
0000
0000
0001
0000
0000
0000
0000
0000
1000
0000
0000
0000
0000
0000
0010
0000
0000
0000
0000
0000
0000
0000
0000
0000
0200
0000
,  // measure 37
0000
0000
0000
0300
0010
0000
0000
0000
1000
0000
0100
0000
0010
0000
0000
0000
,  // measure 38
0002
0000
0000
0000
0000
0000
0000
0000
0000
0003
0000
0000
0010
0000
0000
0000
0000
0000
0000
0000
0000
0000
0000
0000
0100
0000
0000
0000
0000
0000
1000
0000
0000
0000
0000
0000
0001
0000
0000
0000
0000
0000
0000
0000
0000
0000
2000
0000
,  // measure 39
0000
0000
0000
3000
0010
0000
0000
0000
1000
0000
0001
0000
0010
0000
0000
0000
,  // measure 40
0001
0000
0000
1000
0000
0000
0001
0000
0000
0000
0010
0000
0000
0000
0100
0000
,  // measure 41
0010
0000
0000
0001
0000
0000
1000
0000
0000
0000
0010
0000
0100
0000
0000
0000
,  // measure 42
0001
0000
0000
1000
0000
0000
0001
0000
0000
0000
0100
0000
0000
0000
0010
0000
,  // measure 43
1000
0000
0000
0001
0000
0000
1000
0000
0000
0000
0100
0000
0010
0000
0000
0000
;

//---------------dance-single - ----------------
#NOTEDATA:;
#CHARTNAME:Universe;
#STEPSTYPE:dance-single;
#DESCRIPTION:;
#CHARTSTYLE:;
#DIFFICULTY:Hard;
#METER:7;
#RADARVALUES:0.362745,0.354148,0.000000,0.136334,0.234324,298.000000,298.000000,0.000000,16.000000,2.000000,0.000000,0.000000,0.000000,0.000000,0.362745,0.354148,0.000000,0.136334,0.234324,298.000000,298.000000,0.000000,16.000000,2.000000,0.000000,0.000000,0.000000,0.000000;
#CREDIT:Xsabiel Zayas;
#NOTES:
// measure 0
0000
0000
0000
0000
,  // measure 1
0000
0000
0000
0000
,  // measure 2
0001
0100
0001
0000
1000
0000
0010
0100
0010
0000
1000
0000
0001
0000
0010
0100
,  // measure 3
0010
0000
0001
0000
0100
0010
0000
1000
0000
0000
0001
0000
0010
0000
0000
0000
,  // measure 4
0001
1000
0001
0000
0100
0000
0001
1000
0010
0000
0100
0000
0001
0000
1000
0010
,  // measure 5
0100
0000
0001
0000
1000
0100
0000
0010
0000
0000
0001
0000
1000
0000
0000
0000
,  // measure 6
0100
1000
0010
0000
0100
0000
0001
1000
0100
0000
0010
0000
0001
0000
1000
0010
,  // measure 7
0100
0000
0001
0000
1000
0100
0000
0010
0000
0000
0001
0000
1000
0000
0000
0000
,  // measure 8
0020
0000
0000
0000
0000
0000
0000
0000
0000
0030
0000
0000
0100
0000
0000
0000
0000
0000
0001
0000
0000
0000
0000
0000
1000
0000
0000
0000
0000
0000
0100
0000
0000
0000
0000
0000
1000
0000
0000
0000
0000
0000
0001
0000
0000
0000
0020
0000
,  // measure 9
0000
0000
0000
0030
0100
0000
0010
0000
0001
0000
1000
0000
0010
0000
1000
0000
,  // measure 10
0002
0000
0000
0000
0000
0000
0000
0000
0000
0003
0000
0000
1000
0000
0000
0000
0000
0000
0100
0000
0000
0000
0000
0000
0010
0000
0000
0000
0000
0000
0001
0000
0000
0000
0000
0000
1000
0000
0000
0000
0000
0000
0100
0000
0000
0000
2000
0000
,  // measure 11
0000
0000
0000
3000
0010
0000
1000
0000
0001
0000
0100
0000
0010
0000
1000
0000
,  // measure 12
0002
0000
0000
0000
0000
0000
0000
0000
0000
0003
0000
0000
0010
0000
0000
0000
0000
0000
0001
0000
0000
0000
0000
0000
1000
0000
0000
0000
0000
0000
0010
0000
0000
0000
0000
0000
0100
0000
0000
0000
0000
0000
0001
0000
0000
0000
2000
0000
,  // measure 13
0000
0000
0000
3000
0100
0000
0010
0000
0001
0000
0100
0000
0010
0000
1000
0000
,  // measure 14
0002
0000
0000
0000
0000
0000
0000
0000
0000
0003
0000
0000
0010
0000
0000
0000
0000
0000
0001
0000
0000
0000
0000
0000
1000
0000
0000
0000
0000
0000
0100
0000
0000
0000
0000
0000
0010
0000
0000
0000
0000
0000
0001
0000
0000
0000
0200
0000
,  // measure 15
0000
0000
0000
0300
0010
0000
1000
0000
0100
0000
0010
0000
0001
0000
0100
0000
,  // measure 16
0010
0000
0000
1000
0000
0000
0100
0000
0000
0000
1000
0000
0000
0000
0010
0000
,  // measure 17
0100
0000
0000
0001
0000
0000
1000
0000
0000
0000
0100
0000
0010
0000
0000
0000
,  // measure 18
0001
0000
0000
1000
0000
0000
0100
0000
0000
0000
0010
0000
0000
0000
0001
0000
,  // measure 19
1000
0000
0000
0010
0000
0000
1000
0000
0000
0000
0001
0000
0010
0000
0000
0000
,  // measure 20
0001
0000
0000
1000
0000
0000
0100
0000
0000
0000
1000
0000
0000
0000
0001
0000
,  // measure 21
0100
0000
0000
0010
0000
0000
1000
0000
0000
0000
0010
0000
1000
0000
0000
0000
,  // measure 22
0001
0000
0000
1000
0000
0000
0100
0000
0000
0000
0010
0000
0000
0000
0001
0000
,  // measure 23
0100
0000
0000
0001
0000
0000
0010
0000
0000
0000
0001
0000
0100
0000
0000
0000
,  // measure 24
0001
0010
0001
0000
0100
0000
0001
1000
0010
0000
0100
0000
0001
0000
1000
0001
,  // measure 25
0100
0000
0001
0000
1000
0010
0000
1000
0000
0000
0010
0000
0100
0000
0000
0000
,  // measure 26
0001
1000
0100
0000
1000
0000
0010
1000
0100
0000
0010
0000
0001
0000
0100
0010
,  // measure 27
1000
0000
0100
0000
1000
0001
0000
0100
0000
0000
0010
0000
1000
0000
0000
0000
,  // measure 28
0001
0100
0001
0000
1000
0000
0010
1000
0001
0000
0010
0000
0001
0000
0100
0010
,  // measure 29
1000
0000
0001
0000
0100
0010
0000
1000
0000
0000
0001
0000
0100
0000
0000
0000
,  // measure 30
0010
1000
0100
0000
1000
0000
0010
1000
0100
0000
0010
0000
0001
0000
1000
0010
,  // measure 31
1000
0000
0100
0000
1000
0001
0000
0010
0000
0000
0100
0000
1000
0000
0000
0000
,  // measure 32
0002
0000
0000
0000
0000
0000
0000
0000
0000
0003
0000
0000
1000
0000
0000
0000
0000
0000
0010
0000
0000
0000
0000
0000
1000
0000
0000
0000
0000
0000
0001
0000
0000
0000
0000
0000
0100
0000
0000
0000
0000
0000
0001
0000
0000
0000
2000
0000
,  // measure 33
0000
0000
0000
3000
0100
0000
1000
0000
0010
0000
1000
0000
0001
0000
0010
0000
,  // measure 34
0002
0000
0000
0000
0000
0000
0000
0000
0000
0003
0000
0000
0100
0000
0000
0000
0000
0000
0001
0000
0000
0000
0000
0000
1000
0000
0000
0000
0000
0000
0010
0000
0000
0000
0000
0000
0100
0000
0000
0000
0000
0000
0001
0000
0000
0000
2000
0000
,  // measure 35
0000
0000
0000
3000
0100
0000
1000
0000
0001
0000
0100
0000
0001
0000
1000
0000
,  // measure 36
0200
0000
0000
0000
0000
0000
0000
0000
0000
0300
0000
0000
1000
0000
0000
0000
0000
0000
0001
0000
0000
0000
0000
0000
1000
0000
0000
0000
0000
0000
0100
0000
0000
0000
0000
0000
0010
0000
0000
0000
0000
0000
0001
0000
0000
0000
2000
0000
,  // measure 37
0000
0000
0000
3000
0100
0000
0010
0000
0001
0000
0010
0000
0100
0000
1000
0000
,  // measure 38
0020
0000
0000
0000
0000
0000
0000
0000
0000
0030
0000
0000
0100
0000
0000
0000
0000
0000
0001
0000
0000
0000
0000
0000
0010
0000
0000
0000
0000
0000
0100
0000
0000
0000
0000
0000
1000
0000
0000
0000
0000
0000
0001
0000
0000
0000
0200
0000
,  // measure 39
0000
0000
0000
0300
0001
0000
1000
0000
0010
0000
1000
0000
0100
0000
0010
0000
,  // measure 40
0100
0000
0000
1000
0000
0000
0001
0000
0000
0000
0100
0000
0000
0000
0010
0000
,  // measure 41
1000
0000
0000
0100
0000
0000
0010
0000
0000
0000
0001
0000
1000
0000
0000
0000
,  // measure 42
0100
0000
0000
1000
0000
0000
0010
0000
0000
0000
1000
0000
0000
0000
0001
0000
,  // measure 43
0100
0000
0000
0001
0000
0000
1000
0000
0000
0000
0010
0000
1M0M
0000
0000
0000
;
