#VERSION:0.83;
#TITLE:Puzzled;
#SUBTITLE:(Remixed by VGKing1);
#ARTIST:Space Commander Ryan vs. VGKing1;
#TITLETRANSLIT:;
#SUBTITLETRANSLIT:;
#ARTISTTRANSLIT:;
#GENRE:;
#ORIGIN:;
#CREDIT:;
#BANNER:puzzled-banner.png;
#BACKGROUND:puzzled-bg.png;
#PREVIEWVID:;
#JACKET:;
#CDIMAGE:;
#DISCIMAGE:;
#LYRICSPATH:;
#CDTITLE:;
#MUSIC:Puzzled (VGKing1 Remix).ogg;
#OFFSET:-0.025800;
#SAMPLESTART:18.299999;
#SAMPLELENGTH:10.500000;
#SELECTABLE:YES;
#BPMS:0.000=100.000,
144.000=160.000;
#STOPS:;
#DELAYS:;
#WARPS:;
#TIMESIGNATURES:0.000=4=4;
#TICKCOUNTS:0.000=4;
#COMBOS:0.000=1;
#SPEEDS:0.000=1.000=0.000=0;
#SCROLLS:0.000=1.000;
#FAKES:;
#LABELS:0.000=Song Start;
#BGCHANGES:;
#KEYSOUNDS:;
#ATTACKS:
;

//---------------dance-single - ----------------
#NOTEDATA:;
#CHARTNAME:Dumb;
#STEPSTYPE:dance-single;
#DESCRIPTION:;
#CHARTSTYLE:;
#DIFFICULTY:Hard;
#METER:8;
#RADARVALUES:0.464182,0.533123,0.075176,1.587050,0.350821,389.000000,380.000000,9.000000,190.000000,4.000000,0.000000,0.000000,0.000000,0.000000,0.464182,0.533123,0.075176,1.587050,0.350821,389.000000,380.000000,9.000000,190.000000,4.000000,0.000000,0.000000,0.000000,0.000000;
#CREDIT:Jaymes "JAiZ" Hayward;
#OFFSET:-0.024501;
#BPMS:0.000000=100.000000
,144.000000=160.000000
;
#STOPS:;
#DELAYS:;
#WARPS:;
#TIMESIGNATURES:0.000000=4=4
;
#TICKCOUNTS:0.000000=4
;
#COMBOS:0.000000=1
;
#SPEEDS:0.000000=1.000000=0.000000=0
;
#SCROLLS:0.000000=1.000000
;
#FAKES:;
#LABELS:0.000000=Song Start
;
#NOTES:
// measure 0
0000
0000
0000
0000
,  // measure 1
0000
0000
0000
0000
,  // measure 2
1000
0000
0100
0000
0010
0000
0000
0001
0010
0000
0100
0000
1000
0000
0000
0001
,  // measure 3
0100
0010
1000
0100
1000
0001
0000
0000
,  // measure 4
0000
1000
0100
0010
0001
0000
0000
1000
0100
0000
0010
0000
0001
0000
0000
0100
,  // measure 5
0010
1000
0001
0010
0100
1000
0000
0000
,  // measure 6
0000
0001
0100
0010
1000
0000
0000
0001
0010
0000
0100
0000
1000
0000
0000
0010
,  // measure 7
0100
0000
0001
0000
1000
0000
0100
0000
0010
0000
0001
0100
0001
0100
0002
0000
,  // measure 8
2003
3000
0000
0000
0200
0300
0000
0000
0020
0030
0000
0000
0000
0000
0002
0003
0020
0030
0000
0000
0002
0003
0000
0000
0200
0300
0000
0000
0000
0000
0020
0030
,  // measure 9
2000
3000
0000
0000
0200
0300
0000
0000
0020
0030
0000
0000
0200
0300
0000
0000
2000
3000
0000
0000
0002
0003
0000
0000
0000
0000
0000
0000
0000
0000
0000
0000
,  // measure 10
2000
3000
0000
0000
0002
0003
0000
0000
0200
0300
0000
0000
0000
0000
0020
0030
0200
0300
0000
0000
0002
0003
0000
0000
2000
3000
0000
0000
0000
0000
0002
0003
,  // measure 11
0020
0030
0000
0000
0200
0300
0000
0000
2000
3000
0000
0000
0020
0030
0000
0000
0200
0300
0000
0000
0002
0003
0000
0000
0000
0000
0000
0000
0000
0000
0000
0000
,  // measure 12
0000
0000
2000
3000
0200
0300
0020
0030
0200
0300
0000
0000
0000
0000
2000
3000
0200
0300
0000
0000
0020
0030
0000
0000
0002
0003
0000
0000
0000
0000
2000
3000
,  // measure 13
0020
0030
0000
0000
0200
0300
0000
0000
0002
0003
0000
0000
0020
0030
0000
0000
0200
0300
0000
0000
2000
3000
0000
0000
0000
0000
0000
0000
0000
0000
0000
0000
,  // measure 14
0000
0000
0002
0003
2000
3000
0020
0030
0200
0300
0000
0000
0000
0000
0002
0003
0020
0030
0000
0000
0200
0300
0000
0000
2000
3000
0000
0000
0000
0000
0020
0030
,  // measure 15
0200
0300
0000
0000
0002
0003
0000
0000
0020
0030
0000
0000
0200
0300
0000
0000
0020
0030
0000
0000
0002
0003
0000
0000
1000
0000
0010
0000
0010
0000
0000
0000
,  // measure 16
1000
0001
0000
0100
0010
0000
1000
0100
0000
1000
0000
0010
1000
0000
0001
0000
,  // measure 17
1000
0100
0010
0000
0100
0010
0001
0100
0001
0000
0000
0000
1000
0000
0100
0000
,  // measure 18
0010
0001
0000
0100
0001
0000
1000
0001
0000
0010
0000
0100
1000
0000
0100
0000
,  // measure 19
0010
0001
1000
0000
0001
0010
0100
0010
0001
0000
0000
0000
1000
0000
0010
0000
,  // measure 20
2000
3000
0000
0000
0200
0300
0000
0000
0020
0030
0000
0000
0000
0000
0002
0003
0200
0300
0000
0000
0002
0003
0000
0000
2000
3000
0000
0000
0000
0000
0020
0030
,  // measure 21
0200
0300
0000
0000
0002
0003
0000
0000
2000
3000
0000
0000
0020
0030
0000
0000
0200
0300
0000
0000
0002
0003
0000
0000
0000
0000
0000
0000
0000
0000
0000
0000
,  // measure 22
2000
3000
0000
0000
0200
0300
0000
0000
0020
0030
0000
0000
0000
0000
0002
0003
0020
0030
0000
0000
0200
0300
0000
0000
2000
3000
0000
0000
0000
0000
0002
0003
,  // measure 23
0020
0030
0000
0000
0200
0300
0000
0000
2000
3000
0000
0000
0020
0030
0000
0000
2000
3000
0000
0000
0002
0003
0000
0000
0000
0000
0000
0000
0000
0000
0000
0000
,  // measure 24
0000
0000
2000
3000
0200
0300
0020
0030
0002
0003
0000
0000
0000
0000
2000
3000
0200
0300
0000
0000
0020
0030
0000
0000
0002
0003
0000
0000
0000
0000
0200
0300
,  // measure 25
0020
0030
0000
0000
2000
3000
0000
0000
0002
0003
0000
0000
0020
0030
0000
0000
0200
0300
0000
0000
2000
3000
0000
0000
0000
0000
0000
0000
0000
0000
0000
0000
,  // measure 26
0000
0000
0002
0003
0020
0030
0200
0300
2000
3000
0000
0000
0000
0000
0002
0003
0020
0030
0000
0000
0200
0300
0000
0000
2000
3000
0000
0000
0000
0000
0020
0030
,  // measure 27
0200
0300
0000
0000
0002
0003
0000
0000
2000
3000
0000
0000
0200
0300
0000
0000
0020
0030
0000
0000
0002
0003
0000
0000
0000
0000
0000
0000
0000
0000
0000
0000
,  // measure 28
1000
0010
0000
0100
0010
1000
0000
0001
0010
0100
0010
0001
1000
0000
0000
0001
,  // measure 29
0100
0000
0010
0000
1000
0001
1000
0000
0010
0000
0100
0000
0000
0000
0000
0000
,  // measure 30
0001
0010
0100
0000
1000
0000
0000
0001
0010
0000
0001
0100
0001
0000
0000
1000
,  // measure 31
0010
0000
0100
0000
0001
0000
1000
0010
0100
0000
0001
0000
0000
0000
0000
0000
,  // measure 32
1000
0100
0010
0001
0100
0001
0010
0100
0010
0000
0001
0000
1000
0000
0000
0001
,  // measure 33
0100
0010
1000
0100
1000
0010
0100
0010
0100
0000
0001
0000
0000
0000
0000
0000
,  // measure 34
1000
0100
0010
0100
1000
0000
0000
0001
0100
0000
0010
0000
1000
0000
0000
0001
,  // measure 35
0010
0100
0010
0000
0001
1000
0000
0001
0100
0010
1000
0000
0000
0000
0000
0000
,  // measure 36
0001
0010
0100
0010
0001
1000
0100
1000
,  // measure 37
0001
0100
0001
0010
0001
0100
0010
1000
,  // measure 38
0002
0003
0020
0030
0200
0300
2000
3000
0200
0300
0000
0000
0000
0000
0020
0030
,  // measure 39
0002
0003
0000
0000
0020
0030
0200
0300
0020
0030
0000
0000
0000
0000
0002
0003
,  // measure 40
0200
0300
0000
0000
0002
0003
2000
3000
0002
0003
0000
0000
0200
0300
0000
0000
,  // measure 41
1001
0110
0000
0000
,  // measure 42
2000
3000
0200
0300
0020
0030
0002
0003
2000
3000
0000
0000
0000
0000
0020
0030
,  // measure 43
0200
0300
0000
0000
0002
0003
0020
0030
0002
0003
0000
0000
0000
0000
0200
0300
,  // measure 44
0020
0030
0000
0000
2000
3000
0002
0003
2000
3000
0000
0000
0200
0300
0000
0000
,  // measure 45
0011
1100
0000
0000
,  // measure 46
0002
0003
0020
0030
0200
0300
2000
3000
0002
0003
0000
0000
0000
0000
2000
3000
,  // measure 47
0020
0030
0000
0000
2000
3000
0002
0003
2000
3000
0000
0000
0000
0000
0200
0300
,  // measure 48
0020
0030
0000
0000
0002
0003
0200
0300
0002
0003
0000
0000
0020
0030
0000
0000
,  // measure 49
0101
1010
0000
0000
,  // measure 50
0002
0003
0020
0030
0200
0300
0020
0030
0002
0003
0000
0000
0000
0000
2000
3000
,  // measure 51
0200
0300
0000
0000
2000
3000
0020
0030
2000
3000
0000
0000
0000
0000
0200
0300
,  // measure 52
0020
0030
0000
0000
0002
0003
0200
0300
0002
0003
0000
0000
2000
3000
0000
0000
,  // measure 53
0110
0101
0000
0000
,  // measure 54
0002
0003
0020
0030
0200
0300
2000
3000
0200
0300
0000
0000
0000
0000
0020
0030
,  // measure 55
0002
0000
0000
0003
0000
0000
0000
0000
0000
0000
0000
0000
2002
0000
0000
0000
0000
0000
0000
0000
0MM0
3003
0000
0000
M00M
0000
0000
0000
0000
0000
0000
0000
0000
0000
0000
0000
0000
0000
0000
0000
0000
0000
0000
0000
0000
0000
0000
0000
;

//---------------dance-single - ----------------
#NOTEDATA:;
#CHARTNAME:Stupid;
#STEPSTYPE:dance-single;
#DESCRIPTION:;
#CHARTSTYLE:;
#DIFFICULTY:Challenge;
#METER:9;
#RADARVALUES:0.550098,0.768362,0.033412,1.637167,0.496997,461.000000,457.000000,4.000000,196.000000,99.000000,0.000000,0.000000,0.000000,0.000000,0.550098,0.768362,0.033412,1.637167,0.496997,461.000000,457.000000,4.000000,196.000000,99.000000,0.000000,0.000000,0.000000,0.000000;
#CREDIT:Jaymes "JAiZ" Hayward;
#OFFSET:-0.024501;
#BPMS:0.000000=100.000000
,144.000000=160.000000
;
#STOPS:;
#DELAYS:;
#WARPS:;
#TIMESIGNATURES:0.000000=4=4
;
#TICKCOUNTS:0.000000=4
;
#COMBOS:0.000000=1
;
#SPEEDS:0.000000=1.000000=0.000000=0
;
#SCROLLS:0.000000=1.000000
;
#FAKES:;
#LABELS:0.000000=Song Start
;
#NOTES:
// measure 0
0000
0000
0000
0000
,  // measure 1
0000
0000
0000
0000
,  // measure 2
1000
0000
0100
0000
M010
0000
M000
0001
0010
0000
0100
0000
10M0
0000
0000
0001
,  // measure 3
M100
0010
100M
0100
10M0
0001
0M00
0000
,  // measure 4
000M
1000
0100
0010
M001
0000
0000
1000
010M
0000
0010
0000
M001
0000
0000
0100
,  // measure 5
001M
1000
0M01
0010
M100
1000
00M0
0000
,  // measure 6
M000
0001
0100
0010
100M
0000
0000
0001
M010
0000
0100
0000
10M0
0000
0000
0010
,  // measure 7
M100
0000
0000
0000
0000
0000
0000
0000
0000
0000
0000
0000
0000
0000
0000
0000
0000
0000
0000
0000
0000
0000
0000
0000
0001
0000
0000
0000
0000
0000
0000
0000
0000
0000
0000
0000
0000
0000
0000
0000
0000
0000
0000
0000
0000
0000
0000
0000
10M0
0000
0000
0000
0000
0000
0000
0000
0000
0000
0000
0000
0000
0000
0000
0000
0000
0000
0000
0000
0000
0000
0000
0000
0100
0000
0000
0000
0000
0000
0000
0000
0000
0000
0000
0000
0000
0000
0000
0000
0000
0000
0000
0000
0000
0000
0000
0000
M010
0000
0000
0000
0000
0000
0000
0000
0000
0000
0000
0000
0000
0000
0000
0000
0000
0000
0000
0000
0000
0000
0000
0000
0001
0000
0000
0000
0000
0000
0000
0000
0000
0000
0000
0000
1000
0000
0000
0000
0000
0000
0100
0000
0000
0000
0000
0000
10M0
0000
0000
0000
0000
0000
0000
0000
0000
0000
0000
0000
0001
0000
0000
0000
0000
0000
0000
0000
0000
0000
0000
0000
1000
0000
0000
0000
0000
0000
0000
0000
0010
0000
0000
0000
0000
0000
0000
0000
0100
0000
0000
0000
0000
0000
0000
0000
,  // measure 8
M002
0003
0000
0000
0200
0300
0000
0000
M020
0030
0000
0000
0000
0000
2000
3000
0M02
0003
0000
0000
2000
3000
0000
0000
020M
0300
0000
0000
0000
0000
2000
3000
,  // measure 9
00M2
0003
0000
0000
0200
0300
0000
0000
M020
0030
0000
0000
0200
0300
0000
0000
00M2
0003
0000
0000
2000
3000
0000
0000
0M00
0000
0000
0000
0000
0000
0000
0000
,  // measure 10
00M2
0003
0000
0000
0020
0030
0000
0000
M200
0300
0000
0000
0000
0000
0020
0030
M002
0003
0000
0000
2000
3000
0000
0000
00M2
0003
0000
0000
0000
0000
0200
0300
,  // measure 11
M020
0030
0000
0000
0200
0300
0000
0000
M002
0003
0000
0000
0020
0030
0000
0000
M200
0300
0000
0000
2000
3000
0000
0000
000M
0000
0000
0000
0000
0000
0000
0000
,  // measure 12
00M0
0000
0002
0003
0200
0300
0020
0030
020M
0300
0000
0000
0000
0000
0002
0003
M200
0300
0000
0000
0020
0030
0000
0000
2M00
3000
0000
0000
0000
0000
0002
0003
,  // measure 13
M020
0030
0000
0000
0200
0300
0000
0000
200M
3000
0000
0000
0020
0030
0000
0000
020M
0300
0000
0000
0002
0003
0000
0000
00M0
0000
0000
0000
0000
0000
0000
0000
,  // measure 14
0M00
0000
2000
3000
0002
0003
0020
0030
M200
0300
0000
0000
0000
0000
2000
3000
002M
0030
0000
0000
0200
0300
0000
0000
M002
0003
0000
0000
0000
0000
0020
0030
,  // measure 15
M200
0300
0000
0000
2000
3000
0000
0000
002M
0030
0000
0000
0200
0300
0000
0000
002M
0030
0000
0000
2000
3000
0000
0000
10M1
0000
0001
0000
0001
0000
0000
0000
,  // measure 16
10M0
0001
0000
0100
0010
0000
1000
0100
0000
1000
0000
0010
1000
0000
0001
0000
,  // measure 17
1000
0100
0010
0000
0100
0010
0001
0100
0001
0000
0000
0000
1000
0000
0100
0000
,  // measure 18
0010
0001
0000
0100
0001
0000
1000
0001
0000
0010
0000
0100
1000
0000
0100
0000
,  // measure 19
0010
0001
1000
0000
0001
0010
0100
0010
0001
0000
0000
0000
1000
0000
0010
0000
,  // measure 20
200M
3000
0000
0000
0200
0300
0000
0000
002M
0030
0000
0000
0000
0000
0002
0003
M200
0300
0000
0000
0002
0003
0000
0000
2M00
3000
0000
0000
0000
0000
0020
0030
,  // measure 21
M200
0300
0000
0000
0002
0003
0000
0000
2M00
3000
0000
0000
0020
0030
0000
0000
M200
0300
0000
0000
0002
0003
0000
0000
00M0
0000
0000
0000
0000
0000
0000
0000
,  // measure 22
200M
3000
0000
0000
0200
0300
0000
0000
M020
0030
0000
0000
0000
0000
0002
0003
M020
0030
0000
0000
0200
0300
0000
0000
20M0
3000
0000
0000
0000
0000
0002
0003
,  // measure 23
M020
0030
0000
0000
0200
0300
0000
0000
200M
3000
0000
0000
0020
0030
0000
0000
2M00
3000
0000
0000
0002
0003
0000
0000
00M0
0000
0000
0000
0000
0000
0000
0000
,  // measure 24
000M
0000
2000
3000
0200
0300
0020
0030
M002
0003
0000
0000
0000
0000
2000
3000
020M
0300
0000
0000
0020
0030
0000
0000
M002
0003
0000
0000
0000
0000
0200
0300
,  // measure 25
002M
0030
0000
0000
2000
3000
0000
0000
0M02
0003
0000
0000
0020
0030
0000
0000
020M
0300
0000
0000
2000
3000
0000
0000
00M0
0000
0000
0000
0000
0000
0000
0000
,  // measure 26
0M00
0000
0002
0003
0020
0030
0200
0300
200M
3000
0000
0000
0000
0000
0002
0003
M020
0030
0000
0000
0200
0300
0000
0000
200M
3000
0000
0000
0000
0000
0020
0030
,  // measure 27
M200
0300
0000
0000
0002
0003
0000
0000
20M0
3000
0000
0000
0200
0300
0000
0000
M020
0030
0000
0000
0002
0003
0000
0000
1M01
0000
0000
0000
0000
0000
0000
0000
,  // measure 28
000M
0000
0000
0000
0000
0000
0000
0000
0000
0000
0000
0000
2000
3000
0000
0000
0000
0000
0000
0000
0000
0000
0000
0000
0000
0000
0000
0000
0000
0000
0000
0000
0000
0000
0000
0000
0200
0300
0000
0000
0000
0000
0000
0000
0000
0000
0000
0000
0020
0030
0000
0000
0000
0000
0000
0000
0000
0000
0000
0000
0002
0003
0000
0000
0000
0000
0000
0000
0000
0000
0000
0000
0000
0000
0000
0000
0000
0000
0000
0000
0000
0000
0000
0000
2000
3000
0000
0000
0000
0000
0000
0000
0000
0000
0000
0000
0020
0030
0000
0000
0000
0000
0000
0000
0000
0000
0000
0000
0200
0300
0000
0000
0000
0000
0000
0000
0000
0000
0000
0000
0020
0030
0000
0000
0000
0000
0000
0000
0000
0000
0000
0000
2000
3000
0000
0000
0000
0000
0000
0000
0000
0000
0000
0000
0002
0003
0000
0000
0000
0000
0000
0000
0000
0000
0000
0000
0000
0000
0000
0000
0000
0000
0000
0000
0000
0000
0000
0000
0000
0000
0000
0000
0000
0000
0000
0000
0000
0000
0000
0000
2000
3000
0000
0000
0000
0000
0000
0000
0000
0000
0000
0000
,  // measure 29
0200
0300
0000
0000
0000
0000
0000
0000
0000
0000
0000
0000
0000
0000
0000
0000
0000
0000
0000
0000
0000
0000
0000
0000
0020
0030
0000
0000
0000
0000
0000
0000
0000
0000
0000
0000
0000
0000
0000
0000
0000
0000
0000
0000
0000
0000
0000
0000
0002
0003
0000
0000
0000
0000
0000
0000
0000
0000
0000
0000
2000
3000
0000
0000
0000
0000
0000
0000
0000
0000
0000
0000
2000
3000
0000
0000
0000
0000
0000
0000
0000
0000
0000
0000
0000
0000
0000
0000
0000
0000
0000
0000
0000
0000
0000
0000
0020
0030
0000
0000
0000
0000
0000
0000
0000
0000
0000
0000
0000
0000
0000
0000
0000
0000
0000
0000
0000
0000
0000
0000
0200
0300
0000
0000
0000
0000
0000
0000
0000
0000
0000
0000
0000
0000
0000
0000
0000
0000
0000
0000
0000
0000
0000
0000
0000
0000
0000
0000
0000
0000
0000
0000
0000
0000
0000
0000
0000
0000
0000
0000
0000
0000
0000
0000
0000
0000
0000
0000
0000
0000
0000
0000
0000
0000
0000
0000
0000
0000
0000
0000
0000
0000
0000
0000
0000
0000
0000
0000
0000
0000
0000
0000
,  // measure 30
0002
0003
0000
0000
0000
0000
0000
0000
0000
0000
0000
0000
0020
0030
0000
0000
0000
0000
0000
0000
0000
0000
0000
0000
0200
0300
0000
0000
0000
0000
0000
0000
0000
0000
0000
0000
0000
0000
0000
0000
0000
0000
0000
0000
0000
0000
0000
0000
2000
3000
0000
0000
0000
0000
0000
0000
0000
0000
0000
0000
0000
0000
0000
0000
0000
0000
0000
0000
0000
0000
0000
0000
0000
0000
0000
0000
0000
0000
0000
0000
0000
0000
0000
0000
0002
0003
0000
0000
0000
0000
0000
0000
0000
0000
0000
0000
0020
0030
0000
0000
0000
0000
0000
0000
0000
0000
0000
0000
0000
0000
0000
0000
0000
0000
0000
0000
0000
0000
0000
0000
0002
0003
0000
0000
0000
0000
0000
0000
0000
0000
0000
0000
0200
0300
0000
0000
0000
0000
0000
0000
0000
0000
0000
0000
0002
0003
0000
0000
0000
0000
0000
0000
0000
0000
0000
0000
0000
0000
0000
0000
0000
0000
0000
0000
0000
0000
0000
0000
0000
0000
0000
0000
0000
0000
0000
0000
0000
0000
0000
0000
2000
3000
0000
0000
0000
0000
0000
0000
0000
0000
0000
0000
,  // measure 31
0020
0030
0000
0000
0000
0000
0000
0000
0000
0000
0000
0000
0000
0000
0000
0000
0000
0000
0000
0000
0000
0000
0000
0000
0200
0300
0000
0000
0000
0000
0000
0000
0000
0000
0000
0000
0000
0000
0000
0000
0000
0000
0000
0000
0000
0000
0000
0000
0002
0003
0000
0000
0000
0000
0000
0000
0000
0000
0000
0000
0000
0000
0000
0000
0000
0000
0000
0000
0000
0000
0000
0000
2000
3000
0000
0000
0000
0000
0000
0000
0000
0000
0000
0000
0020
0030
0000
0000
0000
0000
0000
0000
0000
0000
0000
0000
0200
0300
0000
0000
0000
0000
0000
0000
0000
0000
0000
0000
0000
0000
0000
0000
0000
0000
0000
0000
0000
0000
0000
0000
0002
0003
0000
0000
0000
0000
0000
0000
0000
0000
0000
0000
0000
0000
0000
0000
0000
0000
0000
0000
0000
0000
0000
0000
0000
0000
0000
0000
0000
0000
0000
0000
0000
0000
0000
0000
0000
0000
0000
0000
0000
0000
0000
0000
0000
0000
0000
0000
0000
0000
0000
0000
0000
0000
0000
0000
0000
0000
0000
0000
0000
0000
0000
0000
0000
0000
0000
0000
0000
0000
0000
0000
,  // measure 32
2000
3000
0000
0000
0000
0000
0000
0000
0000
0000
0000
0000
0200
0300
0000
0000
0000
0000
0000
0000
0000
0000
0000
0000
0020
0030
0000
0000
0000
0000
0000
0000
0000
0000
0000
0000
0002
0003
0000
0000
0000
0000
0000
0000
0000
0000
0000
0000
0200
0300
0000
0000
0000
0000
0000
0000
0000
0000
0000
0000
0002
0003
0000
0000
0000
0000
0000
0000
0000
0000
0000
0000
0020
0030
0000
0000
0000
0000
0000
0000
0000
0000
0000
0000
0200
0300
0000
0000
0000
0000
0000
0000
0000
0000
0000
0000
0020
0030
0000
0000
0000
0000
0000
0000
0000
0000
0000
0000
0000
0000
0000
0000
0000
0000
0000
0000
0000
0000
0000
0000
0002
0003
0000
0000
0000
0000
0000
0000
0000
0000
0000
0000
0000
0000
0000
0000
0000
0000
0000
0000
0000
0000
0000
0000
2000
3000
0000
0000
0000
0000
0000
0000
0000
0000
0000
0000
0000
0000
0000
0000
0000
0000
0000
0000
0000
0000
0000
0000
0000
0000
0000
0000
0000
0000
0000
0000
0000
0000
0000
0000
0002
0003
0000
0000
0000
0000
0000
0000
0000
0000
0000
0000
,  // measure 33
0200
0300
0000
0000
0000
0000
0000
0000
0000
0000
0000
0000
0020
0030
0000
0000
0000
0000
0000
0000
0000
0000
0000
0000
2000
3000
0000
0000
0000
0000
0000
0000
0000
0000
0000
0000
0200
0300
0000
0000
0000
0000
0000
0000
0000
0000
0000
0000
2000
3000
0000
0000
0000
0000
0000
0000
0000
0000
0000
0000
0020
0030
0000
0000
0000
0000
0000
0000
0000
0000
0000
0000
0200
0300
0000
0000
0000
0000
0000
0000
0000
0000
0000
0000
0020
0030
0000
0000
0000
0000
0000
0000
0000
0000
0000
0000
0200
0300
0000
0000
0000
0000
0000
0000
0000
0000
0000
0000
0000
0000
0000
0000
0000
0000
0000
0000
0000
0000
0000
0000
0002
0003
0000
0000
0000
0000
0000
0000
0000
0000
0000
0000
0000
0000
0000
0000
0000
0000
0000
0000
0000
0000
0000
0000
0000
0000
0000
0000
0000
0000
0000
0000
0000
0000
0000
0000
0000
0000
0000
0000
0000
0000
0000
0000
0000
0000
0000
0000
0000
0000
0000
0000
0000
0000
0000
0000
0000
0000
0000
0000
0000
0000
0000
0000
0000
0000
0000
0000
0000
0000
0000
0000
,  // measure 34
2000
3000
0000
0000
0000
0000
0000
0000
0000
0000
0000
0000
0200
0300
0000
0000
0000
0000
0000
0000
0000
0000
0000
0000
0020
0030
0000
0000
0000
0000
0000
0000
0000
0000
0000
0000
0200
0300
0000
0000
0000
0000
0000
0000
0000
0000
0000
0000
2000
3000
0000
0000
0000
0000
0000
0000
0000
0000
0000
0000
0000
0000
0000
0000
0000
0000
0000
0000
0000
0000
0000
0000
0000
0000
0000
0000
0000
0000
0000
0000
0000
0000
0000
0000
0002
0003
0000
0000
0000
0000
0000
0000
0000
0000
0000
0000
0200
0300
0000
0000
0000
0000
0000
0000
0000
0000
0000
0000
0000
0000
0000
0000
0000
0000
0000
0000
0000
0000
0000
0000
0020
0030
0000
0000
0000
0000
0000
0000
0000
0000
0000
0000
0000
0000
0000
0000
0000
0000
0000
0000
0000
0000
0000
0000
2000
3000
0000
0000
0000
0000
0000
0000
0000
0000
0000
0000
0000
0000
0000
0000
0000
0000
0000
0000
0000
0000
0000
0000
0000
0000
0000
0000
0000
0000
0000
0000
0000
0000
0000
0000
0002
0003
0000
0000
0000
0000
0000
0000
0000
0000
0000
0000
,  // measure 35
0020
0030
0000
0000
0000
0000
0000
0000
0000
0000
0000
0000
0200
0300
0000
0000
0000
0000
0000
0000
0000
0000
0000
0000
0020
0030
0000
0000
0000
0000
0000
0000
0000
0000
0000
0000
0000
0000
0000
0000
0000
0000
0000
0000
0000
0000
0000
0000
0002
0003
0000
0000
0000
0000
0000
0000
0000
0000
0000
0000
2000
3000
0000
0000
0000
0000
0000
0000
0000
0000
0000
0000
0000
0000
0000
0000
0000
0000
0000
0000
0000
0000
0000
0000
0002
0003
0000
0000
0000
0000
0000
0000
0000
0000
0000
0000
0200
0300
0000
0000
0000
0000
0000
0000
0000
0000
0000
0000
0020
0030
0000
0000
0000
0000
0000
0000
0000
0000
0000
0000
2000
3000
0000
0000
0000
0000
0000
0000
0000
0000
0000
0000
0000
0000
0000
0000
0000
0000
0000
0000
0000
0000
0000
0000
0000
0000
0000
0000
0000
0000
0000
0000
0000
0000
0000
0000
0000
0000
0000
0000
0000
0000
0000
0000
0000
0000
0000
0000
0000
0000
0000
0000
0000
0000
0000
0000
0000
0000
0000
0000
0000
0000
0000
0000
0000
0000
0000
0000
0000
0000
0000
0000
,  // measure 36
0001
0010
0100
0010
0100
1000
0100
1000
0001
1000
0001
1000
0001
0010
0001
0010
,  // measure 37
0001
0100
0001
0100
0010
1000
0010
1000
0001
0010
0100
1000
0010
0100
0001
1000
,  // measure 38
0001
0000
0010
0000
0100
0000
1000
0000
0001
0000
1000
0100
1000
0000
0000
0000
,  // measure 39
0001
0000
0010
0000
0100
0000
0010
0000
0001
0000
0010
0100
0010
0000
0000
0000
,  // measure 40
0001
0000
0100
0000
0010
0000
1000
0000
0001
0000
1000
0100
1000
0000
0000
0000
,  // measure 41
0001
0000
0010
0000
0100
0000
1000
0000
0010
0000
1000
0100
1000
0000
0000
0000
,  // measure 42
0001
0000
0010
0000
0100
0000
1000
0000
0100
0000
0010
0001
0010
0000
0000
0000
,  // measure 43
0100
0000
1000
0000
0001
0000
0100
0000
0001
0000
1000
0010
1000
0000
0000
0000
,  // measure 44
0001
0000
0100
0000
0010
0000
1000
0000
0001
0000
1000
0100
1000
0000
0000
0000
,  // measure 45
0001
0000
0100
0000
0010
0000
0100
0000
0001
0000
0010
0100
0010
0000
0000
0000
,  // measure 46
0001
0000
0010
0000
0100
0000
0010
0000
0001
0000
1000
0010
1000
0000
0000
0000
,  // measure 47
0001
0000
0010
0000
0100
0000
1000
0000
0001
0000
1000
0100
1000
0000
0000
0000
,  // measure 48
0001
0000
0100
0000
0010
0000
0100
0000
0001
0000
1000
0100
1000
0000
0000
0000
,  // measure 49
0001
0000
1000
0000
0010
0000
1000
0000
0100
0000
1000
0010
1000
0000
0000
0000
,  // measure 50
0001
0000
0010
0000
0100
0000
1000
0000
0010
0000
0100
0001
0100
0000
0000
0000
,  // measure 51
0010
0000
1000
0000
0100
0000
1000
0000
0001
0000
0010
0100
0010
0000
0000
0000
,  // measure 52
0001
0000
0010
0000
0100
0000
1000
0000
0001
0000
1000
0010
1000
0000
0000
0000
,  // measure 53
0001
0000
0010
0000
0100
0000
1000
0000
0001
0000
0100
0010
0100
0000
0000
0000
,  // measure 54
0001
0000
0010
0000
0100
0000
1000
0000
0010
0000
1000
0001
1000
0000
0MM0
0000
,  // measure 55
M22M
0330
0000
0000
2MM2
0000
0MM0
0000
0MM0
0000
0000
0000
3003
0000
0000
0000
;

//---------------dance-single - ----------------
#NOTEDATA:;
#CHARTNAME:Smart;
#STEPSTYPE:dance-single;
#DESCRIPTION:;
#CHARTSTYLE:;
#DIFFICULTY:Easy;
#METER:3;
#RADARVALUES:0.247007,0.208613,0.000000,0.016706,0.000000,207.000000,207.000000,0.000000,2.000000,0.000000,0.000000,0.000000,0.000000,0.000000,0.247007,0.208613,0.000000,0.016706,0.000000,207.000000,207.000000,0.000000,2.000000,0.000000,0.000000,0.000000,0.000000,0.000000;
#CREDIT:Jaymes "JAiZ" Hayward;
#NOTES:
// measure 0
0000
0000
0000
0000
,  // measure 1
0000
0000
0000
0000
,  // measure 2
1000
0100
1000
0001
,  // measure 3
0010
0001
0100
0010
,  // measure 4
1000
0001
1000
0100
,  // measure 5
1000
0001
0100
0010
,  // measure 6
1000
0010
0100
0001
,  // measure 7
1000
0010
0100
0001
,  // measure 8
0010
0100
1000
0100
,  // measure 9
0010
0001
0100
0010
,  // measure 10
1000
0100
0010
0100
,  // measure 11
1000
0001
0010
0001
,  // measure 12
0010
0100
0010
0001
,  // measure 13
1000
0100
1000
0001
,  // measure 14
0100
0010
1000
0010
,  // measure 15
0100
0001
1000
0010
,  // measure 16
0100
0001
0010
0100
,  // measure 17
1000
0100
0010
0001
,  // measure 18
0100
0010
1000
0100
,  // measure 19
0010
0100
1000
0001
,  // measure 20
0010
0001
0010
0100
,  // measure 21
0010
0001
1000
0100
,  // measure 22
1000
0001
0100
0010
,  // measure 23
1000
0100
0010
0001
,  // measure 24
1000
0010
0100
0001
,  // measure 25
0010
0100
1000
0100
,  // measure 26
0010
0001
0100
0010
,  // measure 27
1000
0100
0010
0100
,  // measure 28
1000
0001
0010
0001
,  // measure 29
0010
0100
0010
0001
,  // measure 30
1000
0100
1000
0001
,  // measure 31
0100
0010
1000
0100
,  // measure 32
0010
0001
1000
0010
,  // measure 33
0100
0001
0010
0100
,  // measure 34
1000
0010
0100
0001
,  // measure 35
0010
0100
0010
0001
,  // measure 36
2000
0000
0000
0000
,  // measure 37
0000
0000
0000
0000
,  // measure 38
3001
0100
0010
1000
,  // measure 39
0100
0010
0001
0100
,  // measure 40
0010
1000
0100
0010
,  // measure 41
0100
1000
0001
0010
,  // measure 42
0001
0010
0100
0010
,  // measure 43
0001
1000
0100
1000
,  // measure 44
0001
0100
0010
1000
,  // measure 45
0010
0100
0001
1000
,  // measure 46
0010
0100
0001
0010
,  // measure 47
0100
1000
0100
0010
,  // measure 48
0001
0100
0010
1000
,  // measure 49
0100
0010
0100
1000
,  // measure 50
0001
0010
0001
0100
,  // measure 51
0010
0100
0001
1000
,  // measure 52
0100
1000
0001
0100
,  // measure 53
0010
1000
0010
0100
,  // measure 54
0001
1000
0010
0100
,  // measure 55
0001
2000
3000
0000
;

//---------------dance-single - ----------------
#NOTEDATA:;
#CHARTNAME:Genius;
#STEPSTYPE:dance-single;
#DESCRIPTION:;
#CHARTSTYLE:;
#DIFFICULTY:Beginner;
#METER:1;
#RADARVALUES:0.125293,0.115896,0.000000,0.016706,0.000000,105.000000,105.000000,0.000000,2.000000,0.000000,0.000000,0.000000,0.000000,0.000000,0.125293,0.115896,0.000000,0.016706,0.000000,105.000000,105.000000,0.000000,2.000000,0.000000,0.000000,0.000000,0.000000,0.000000;
#CREDIT:Jaymes "JAiZ" Hayward;
#NOTES:
// measure 0
0000
0000
0000
0000
,  // measure 1
0000
0000
0000
0000
,  // measure 2
1000
0000
0010
0000
,  // measure 3
1000
0000
0100
0000
,  // measure 4
0000
0010
0100
0000
,  // measure 5
1000
0000
0001
0000
,  // measure 6
0000
0010
0001
0000
,  // measure 7
0010
0000
0100
0000
,  // measure 8
0010
0000
0001
0000
,  // measure 9
1000
0000
0100
0000
,  // measure 10
1000
0000
0010
0000
,  // measure 11
0100
0000
0001
0000
,  // measure 12
0000
0010
0100
0000
,  // measure 13
1000
0000
0100
0000
,  // measure 14
0000
0010
0001
0000
,  // measure 15
0100
0000
0010
0000
,  // measure 16
1000
0000
0000
0100
,  // measure 17
0010
0000
0100
0000
,  // measure 18
1000
0000
0000
0001
,  // measure 19
0010
0000
0001
0000
,  // measure 20
0010
0000
0100
0000
,  // measure 21
0010
0000
0001
0000
,  // measure 22
1000
0000
0100
0000
,  // measure 23
1000
0000
0010
0000
,  // measure 24
0000
0100
0001
0000
,  // measure 25
0010
0000
0100
0000
,  // measure 26
0000
1000
0100
0000
,  // measure 27
0010
0000
0001
0000
,  // measure 28
0100
0000
0010
0000
,  // measure 29
1000
0000
0100
0000
,  // measure 30
0010
0000
0100
0000
,  // measure 31
1000
0000
0001
0000
,  // measure 32
0010
0000
0001
0000
,  // measure 33
0010
0000
0100
0000
,  // measure 34
0010
0000
0001
0000
,  // measure 35
1000
0000
0100
0000
,  // measure 36
2000
0000
0000
0000
,  // measure 37
0000
0000
0000
0000
,  // measure 38
3001
0000
0010
0000
,  // measure 39
0100
0000
1000
0000
,  // measure 40
0010
0000
0100
0000
,  // measure 41
0001
0000
0010
0000
,  // measure 42
0100
0000
0010
0000
,  // measure 43
0001
0000
1000
0000
,  // measure 44
0100
0000
1000
0000
,  // measure 45
0010
0000
0100
0000
,  // measure 46
0010
0000
1000
0000
,  // measure 47
0001
0000
0010
0000
,  // measure 48
0001
0000
0100
0000
,  // measure 49
0010
0000
1000
0000
,  // measure 50
0100
0000
0010
0000
,  // measure 51
0001
0000
0010
0000
,  // measure 52
0100
0000
1000
0000
,  // measure 53
0010
0000
0100
0000
,  // measure 54
0001
0000
0010
0000
,  // measure 55
0100
2000
3000
0000
;

//---------------dance-single - ----------------
#NOTEDATA:;
#CHARTNAME:Confused;
#STEPSTYPE:dance-single;
#DESCRIPTION:;
#CHARTSTYLE:;
#DIFFICULTY:Medium;
#METER:5;
#RADARVALUES:0.353208,0.392273,0.125293,0.066823,0.000000,296.000000,281.000000,15.000000,8.000000,0.000000,0.000000,0.000000,0.000000,0.000000,0.353208,0.392273,0.125293,0.066823,0.000000,296.000000,281.000000,15.000000,8.000000,0.000000,0.000000,0.000000,0.000000,0.000000;
#CREDIT:Phil Lee;
#OFFSET:-0.024501;
#BPMS:0.000000=100.000000
,144.000000=160.000000
;
#STOPS:;
#DELAYS:;
#WARPS:;
#TIMESIGNATURES:0.000000=4=4
;
#TICKCOUNTS:0.000000=4
;
#COMBOS:0.000000=1
;
#SPEEDS:0.000000=1.000000=0.000000=0
;
#SCROLLS:0.000000=1.000000
;
#FAKES:;
#LABELS:0.000000=Song Start
;
#NOTES:
// measure 0
0000
0000
0000
0000
,  // measure 1
0000
0000
0000
0000
,  // measure 2
0001
0100
0001
0000
0010
0100
0010
0000
,  // measure 3
0001
0100
0001
0100
0001
1000
0000
0000
,  // measure 4
0000
0001
0100
0000
0001
0010
0001
0000
,  // measure 5
1000
0100
1000
0100
1000
0001
0000
0000
,  // measure 6
0000
0100
0010
0000
1000
0100
1000
0000
,  // measure 7
0001
0100
0001
0100
0001
0010
0000
0000
,  // measure 8
0100
1000
0001
0000
1000
0100
1000
0000
,  // measure 9
0001
0010
0001
0010
0001
1000
0000
0000
,  // measure 10
0001
0010
0100
0000
1000
0010
1000
0000
,  // measure 11
0001
0010
0001
0010
0001
0100
0000
0000
,  // measure 12
0000
0001
0010
0000
0001
1000
0001
0000
,  // measure 13
0100
0010
0100
0010
0100
0001
0000
0000
,  // measure 14
0000
1000
0100
0000
1000
0010
1000
0000
,  // measure 15
0001
0010
0001
0010
0001
1000
0000
0000
,  // measure 16
0001
1001
1000
1010
,  // measure 17
0010
0000
0110
0010
0100
0000
0101
0100
,  // measure 18
0001
1001
1000
1100
,  // measure 19
0100
0000
0110
0100
0010
0000
0110
0100
,  // measure 20
1100
0100
1000
0000
0001
0100
0001
0000
,  // measure 21
0010
0001
0010
0001
0010
0100
0000
0000
,  // measure 22
1000
0010
1000
0000
0001
0010
0001
0000
,  // measure 23
0100
0010
0100
0010
0100
0001
0000
0000
,  // measure 24
0000
0010
0001
0000
0010
0100
0010
0000
,  // measure 25
0001
1000
0001
1000
0001
0010
0000
0000
,  // measure 26
0000
0001
0100
0000
0010
1000
0010
0000
,  // measure 27
1000
0001
1000
0001
1000
0100
0000
0000
,  // measure 28
1001
0000
1000
0000
0001
0100
0001
0000
,  // measure 29
0010
0100
0010
0100
0010
0001
0000
0000
,  // measure 30
1000
0010
1000
0000
0100
0010
0100
0000
,  // measure 31
1000
0001
1000
0001
1000
0010
0000
0000
,  // measure 32
0100
0001
0100
0001
0100
0001
0100
0000
,  // measure 33
0010
1000
0010
1000
0010
0100
0000
0000
,  // measure 34
0001
0010
0001
0000
0100
0010
0100
0000
,  // measure 35
0001
1000
0001
0000
1000
0010
0000
0000
,  // measure 36
0200
0302
0023
0230
,  // measure 37
2300
3002
0203
0302
,  // measure 38
1003
0100
1000
0100
1000
0000
0000
0001
,  // measure 39
0100
0000
0010
0010
0100
0000
0000
0001
,  // measure 40
0010
0000
0100
0100
1000
0000
0010
0000
,  // measure 41
1010
1000
0000
0000
,  // measure 42
0001
0010
0001
0010
0001
0000
0000
1000
,  // measure 43
0010
0000
1000
1000
0100
0000
0000
0010
,  // measure 44
0100
0000
1000
1000
0001
0000
0100
0000
,  // measure 45
0101
0001
0000
0000
,  // measure 46
1000
0010
1000
0010
1000
0000
0000
0100
,  // measure 47
1000
0000
0010
0010
0100
0000
0000
0001
,  // measure 48
0010
0000
0100
0100
0010
0000
0001
0000
,  // measure 49
1001
1000
0000
0000
,  // measure 50
0001
0010
0001
0010
0001
0000
0000
0100
,  // measure 51
0001
0000
0010
0010
0100
0000
0000
1000
,  // measure 52
0010
0000
0100
0100
0010
0000
1000
0000
,  // measure 53
1001
0001
0000
0000
,  // measure 54
1000
0001
1000
0001
1000
0000
0000
0001
,  // measure 55
1000
1001
0000
0000
;
