#VERSION:0.83;
#TITLE:Pulsar;
#SUBTITLE:;
#ARTIST:Istvan Satmari;
#TITLETRANSLIT:;
#SUBTITLETRANSLIT:;
#ARTISTTRANSLIT:;
#GENRE:;
#ORIGIN:;
#CREDIT:;
#BANNER:pulsar-banner.png;
#BACKGROUND:pulsar-bg.png;
#PREVIEWVID:;
#JACKET:;
#CDIMAGE:;
#DISCIMAGE:;
#LYRICSPATH:;
#CDTITLE:;
#MUSIC:Pulsar.ogg;
#OFFSET:-0.000000;
#SAMPLESTART:55.970001;
#SAMPLELENGTH:15.671638;
#SELECTABLE:YES;
#BPMS:0.000=134.000;
#STOPS:;
#DELAYS:;
#WARPS:;
#TIMESIGNATURES:0.000=4=4;
#TICKCOUNTS:0.000=4;
#COMBOS:0.000=1;
#SPEEDS:0.000=1.000=0.000=0;
#SCROLLS:0.000=1.000;
#FAKES:;
#LABELS:0.000=Song Start;
#BGCHANGES:;
#KEYSOUNDS:;
#ATTACKS:
;

//---------------dance-single - ----------------
#NOTEDATA:;
#CHARTNAME:PSR J0437-4715;
#STEPSTYPE:dance-single;
#DESCRIPTION:;
#CHARTSTYLE:;
#DIFFICULTY:Challenge;
#METER:9;
#RADARVALUES:0.549967,0.520459,0.118454,0.244312,0.270224,520.000000,504.000000,16.000000,33.000000,0.000000,0.000000,0.000000,0.000000,0.000000,0.549967,0.520459,0.118454,0.244312,0.270224,520.000000,504.000000,16.000000,33.000000,0.000000,0.000000,0.000000,0.000000,0.000000;
#CREDIT:Phil Lee;
#OFFSET:-0.000000;
#BPMS:0.000000=134.000000
;
#STOPS:;
#DELAYS:;
#WARPS:;
#TIMESIGNATURES:0.000000=4=4
;
#TICKCOUNTS:0.000000=4
;
#COMBOS:0.000000=1
;
#SPEEDS:0.000000=1.000000=0.000000=0
,28.000000=1.200000=4.000000=0
,32.000000=1.000000=8.000000=0
,56.000000=1.250000=8.000000=0
,64.000000=1.000000=8.000000=0
,112.000000=1.250000=16.000000=0
,128.000000=1.000000=10.000000=0
,188.000000=1.200000=4.000000=0
,192.000000=1.000000=8.000000=0
,221.000000=1.200000=3.000000=0
,224.000000=1.000000=12.000000=0
,252.000000=1.200000=4.000000=0
,256.000000=1.000000=8.000000=0
,288.000000=0.000000=17.500000=0
;
#SCROLLS:0.000000=1.000000
;
#FAKES:;
#LABELS:0.000000=Song Start
;
#ATTACKS:TIME=28.692116:LEN=14.328360:MODS=*0.07 80% Mini:TIME=43.020473:LEN=14.328358:MODS=*0.07 0% Mini:TIME=71.676796:LEN=5.000000:MODS=*100 22% Stealth:TIME=71.732765:LEN=5.000000:MODS=*0.05 0% Stealth:TIME=100.333511:LEN=5.000000:MODS=*100 22% Stealth:TIME=100.389481:LEN=5.000000:MODS=*0.1125 0% Stealth;
#NOTES:
// measure 0
0000
0000
0000
0000
,  // measure 1
0000
0000
0000
0000
,  // measure 2
1000
0000
1000
0001
0000
1000
0000
1000
0100
0000
1000
0000
0010
0100
0000
0000
,  // measure 3
0010
0000
0010
1000
0000
0010
0000
0010
0100
0000
0001
0000
0010
0001
0000
0000
,  // measure 4
1000
0000
1000
0100
0000
1000
0000
1000
0010
0000
1000
0000
0100
0010
0000
0000
,  // measure 5
0001
0000
0001
0100
0000
0001
0000
0001
0010
0000
0100
0000
0010
0001
0000
0000
,  // measure 6
0100
0000
0100
0010
0000
0100
0000
0100
0001
0000
0100
0000
0010
1000
0000
0000
,  // measure 7
0100
0000
0100
0010
0000
0100
0000
0100
1000
0000
0001
0000
0010
0100
0000
0000
,  // measure 8
0000
1000
1001
0000
0001
0010
0100
0010
,  // measure 9
0000
0001
1001
0000
1000
0010
0100
0010
,  // measure 10
0000
1000
1001
0000
1000
0100
0010
0001
,  // measure 11
0000
0100
0101
0000
0001
0100
0010
1000
,  // measure 12
0000
0001
0011
0000
0010
0001
1000
0100
,  // measure 13
0000
1000
1010
0000
1000
0001
0100
0010
,  // measure 14
0000
0100
0101
0000
0001
0010
0100
1000
,  // measure 15
0000
0001
1001
0000
1000
0100
0010
0100
,  // measure 16
1000
0010
1000
0000
0001
0000
0010
0100
0000
0000
0010
0000
0001
0000
1000
0000
,  // measure 17
0001
0010
0001
0000
1000
0000
0100
0010
0000
0000
0100
0000
1000
0000
0001
0000
,  // measure 18
1000
0010
1000
0000
0001
0000
0010
0100
0000
0000
0010
0000
0001
0000
1000
0000
,  // measure 19
0010
0100
0010
0000
1000
0000
0001
0010
0000
0000
0001
0000
0100
0000
0010
0000
,  // measure 20
1000
0001
1000
0000
0010
0000
0100
0001
0000
0000
1000
0000
0100
0000
0010
0000
,  // measure 21
0001
0100
0001
0000
1000
0000
0100
0010
0000
0000
0001
0000
0010
0000
0001
0000
,  // measure 22
0100
0010
0100
0000
0001
0000
1000
0100
0000
0000
1000
0000
0001
0000
0010
0000
,  // measure 23
0001
0100
0001
0000
1000
0000
0010
0100
0000
0000
0010
0000
1000
0000
0001
0000
,  // measure 24
1000
0100
1000
0000
0001
0000
0010
0001
0000
0000
0100
0000
1000
0000
0100
0000
,  // measure 25
0001
0100
0001
0000
1000
0000
0100
0010
0000
0000
0100
0000
0001
0000
0100
0000
,  // measure 26
1000
0100
1000
0000
0001
0000
0100
0001
0000
0000
0010
0000
1000
0000
0010
0000
,  // measure 27
0100
1000
0100
0000
0010
0000
0100
0001
0000
0000
0100
0000
1000
0000
0010
0000
,  // measure 28
0100
0001
0100
0000
0010
0000
0001
0010
0000
0000
0100
0000
0001
0000
1000
0000
,  // measure 29
0100
0010
0100
0000
1000
0000
0001
0010
0000
0000
1000
0000
0010
0000
0001
0000
,  // measure 30
1000
0100
1000
0000
0010
0000
0100
0010
0000
0000
0001
0000
0010
0000
1000
0000
,  // measure 31
0010
0100
0010
0000
1000
0000
0100
1000
0000
0000
0010
0000
0001
0000
0010
0000
,  // measure 32
2000
0001
3001
0020
0130
1000
0100
0010
,  // measure 33
0002
1000
1003
0020
0130
0010
1000
0001
,  // measure 34
0020
0100
0130
2000
3001
0010
0100
1000
,  // measure 35
0002
1000
1003
0020
0130
0001
0100
0010
,  // measure 36
2000
0100
3100
0020
0031
0010
0100
1000
,  // measure 37
0020
1000
1030
0002
0103
0010
0100
0001
,  // measure 38
2000
0100
3100
0020
0031
1000
0001
0010
,  // measure 39
0002
0000
0100
0000
0103
0000
0020
0000
0130
0000
0001
0000
1000
0000
0001
0100
,  // measure 40
0002
1000
1003
0200
0310
0001
0010
0100
,  // measure 41
2000
0001
3001
0200
0310
0100
0001
1000
,  // measure 42
0200
0010
0310
0002
1003
0100
0010
0001
,  // measure 43
2000
0001
3001
0200
0310
1000
0010
0100
,  // measure 44
0002
0010
0013
0200
1300
0100
0010
0001
,  // measure 45
0200
0001
0301
2000
3010
0100
0010
1000
,  // measure 46
0002
0010
0013
0200
1300
0001
1000
0100
,  // measure 47
2000
0010
3010
0200
0310
1000
0001
0100
,  // measure 48
0000
0001
1001
0000
1000
0100
0010
0001
,  // measure 49
0000
1000
1001
0000
0001
0010
0100
1000
,  // measure 50
0000
0001
0101
0000
0001
0100
0010
1000
,  // measure 51
0000
0010
1010
0000
1000
0001
0100
0010
,  // measure 52
0000
1000
1010
0000
1000
0100
0010
0100
,  // measure 53
0000
1000
1001
0000
0001
0100
0010
1000
,  // measure 54
0000
0001
0101
0000
0100
0001
0100
0010
,  // measure 55
0000
1000
1010
0000
0010
1000
0001
0010
,  // measure 56
0001
0000
0000
0100
0000
0000
0010
0000
0000
0000
1000
0000
0000
0000
0001
0000
,  // measure 57
1000
0000
0000
0100
0000
0000
0010
0000
0000
0000
0001
0000
0000
0000
1000
0000
,  // measure 58
0001
0000
0000
0100
0000
0000
0010
0000
0000
0000
1000
0000
0000
0000
0001
0000
,  // measure 59
1000
0000
0000
0100
0000
0000
0010
0000
0000
0000
0001
0000
0000
0000
1000
0000
,  // measure 60
0001
0000
0000
0100
0000
0000
0001
0000
0000
0000
1000
0000
0000
0000
0010
0000
,  // measure 61
1000
0000
0000
0100
0000
0000
1000
0000
0000
0000
0001
0000
0000
0000
0100
0000
,  // measure 62
0001
0000
0000
0010
0000
0000
0100
0000
0000
0000
1000
0000
0000
0000
0001
0000
,  // measure 63
1000
0000
0000
0100
0000
0000
0010
0000
0000
0000
0100
0000
0000
0000
1000
0000
,  // measure 64
0001
0000
0000
0100
0000
0000
0010
0000
0000
0000
0100
0000
0000
0000
0001
0000
,  // measure 65
0100
0000
0000
0010
0000
0000
1000
0000
0000
0000
0100
0000
0000
0000
0010
0000
,  // measure 66
0100
0000
0000
1000
0000
0000
0001
0000
0000
0000
1000
0000
0000
0000
0010
0000
,  // measure 67
1000
0000
0000
0001
0000
0000
0100
0000
0000
0000
0010
0000
0000
0000
1000
0000
,  // measure 68
0100
0000
0000
1000
0000
0000
0001
0000
0000
0000
0010
0000
0000
0000
0001
0000
,  // measure 69
1000
0000
0000
0001
0000
0000
0100
0000
0000
0000
0010
0000
0000
0000
0100
0000
,  // measure 70
0001
0000
0000
1000
0000
0000
0010
0000
0000
0000
1000
0000
0000
0000
0100
0000
,  // measure 71
1000
0000
0000
0001
0000
0000
0010
0000
0000
0000
0100
0000
0000
0000
1000
0000
,  // measure 72
0002
0000
0000
0000
,  // measure 73
0000
0000
0000
0000
,  // measure 74
0003
0000
0000
0000
;

//---------------dance-single - ----------------
#NOTEDATA:;
#CHARTNAME:PSR J2144-3933;
#STEPSTYPE:dance-single;
#DESCRIPTION:;
#CHARTSTYLE:;
#DIFFICULTY:Edit;
#METER:10;
#RADARVALUES:0.693805,0.849171,0.148068,0.303540,0.640394,656.000000,636.000000,20.000000,41.000000,0.000000,0.000000,0.000000,0.000000,0.000000,0.693805,0.849171,0.148068,0.303540,0.640394,656.000000,636.000000,20.000000,41.000000,0.000000,0.000000,0.000000,0.000000,0.000000;
#CREDIT:Phil Lee;
#OFFSET:0.000000;
#BPMS:0.000000=134.000000
;
#STOPS:;
#DELAYS:;
#WARPS:;
#TIMESIGNATURES:0.000000=4=4
;
#TICKCOUNTS:0.000000=4
;
#COMBOS:0.000000=1
;
#SPEEDS:0.000000=1.000000=0.000000=0
,28.000000=1.200000=4.000000=0
,32.000000=1.000000=8.000000=0
,56.000000=1.250000=8.000000=0
,64.000000=1.000000=8.000000=0
,112.000000=1.250000=16.000000=0
,128.000000=1.000000=10.000000=0
,188.000000=1.200000=4.000000=0
,192.000000=1.000000=8.000000=0
,221.000000=1.200000=3.000000=0
,224.000000=1.000000=12.000000=0
,252.000000=1.200000=4.000000=0
,256.000000=1.000000=8.000000=0
,288.000000=0.000000=17.500000=0
;
#SCROLLS:0.000000=1.000000
;
#FAKES:;
#LABELS:0.000000=Song Start
;
#ATTACKS:TIME=28.692116:LEN=14.328360:MODS=*0.07 80% Mini:TIME=43.020473:LEN=14.328358:MODS=*0.07 0% Mini:TIME=71.676796:LEN=5.000000:MODS=*100 22% Stealth:TIME=71.732765:LEN=5.000000:MODS=*0.05 0% Stealth:TIME=100.333511:LEN=5.000000:MODS=*100 22% Stealth:TIME=100.389481:LEN=5.000000:MODS=*0.1125 0% Stealth;
#NOTES:
// measure 0
0000
0000
0000
0000
,  // measure 1
0000
0000
0000
0000
,  // measure 2
1000
0000
1000
0010
0000
1000
0000
1000
0001
0000
0010
0000
0100
1000
0000
0000
,  // measure 3
0010
0000
0010
0100
0000
0010
0000
0010
1000
0000
0001
0000
0010
0001
0000
0000
,  // measure 4
0100
0000
0100
0010
0000
0100
0000
0100
0001
0000
1000
0000
0001
0010
0000
0000
,  // measure 5
0100
0000
0100
1000
0000
0100
0000
0100
0010
0000
0001
0000
0100
0010
0000
0000
,  // measure 6
1000
0000
1000
0100
0000
1000
0000
1000
0010
0000
0100
0000
0001
0010
0000
0000
,  // measure 7
0001
0000
0001
1000
0000
0001
0000
0001
0100
0000
0010
0000
1000
0001
0000
0000
,  // measure 8
0100
0001
1001
0000
1000
0100
0010
0100
,  // measure 9
1000
0001
1001
0000
0001
0100
0010
0100
,  // measure 10
0001
0100
0101
0000
0100
0001
0010
0100
,  // measure 11
1000
0010
1010
0000
1000
0001
0100
0010
,  // measure 12
1000
0001
0200
0000
0310
0100
1000
0100
,  // measure 13
0001
0100
0020
0000
1030
0100
0001
0100
,  // measure 14
1000
0010
0002
0000
0013
0100
0001
1000
,  // measure 15
0100
1000
0020
0000
1030
0100
0001
0100
,  // measure 16
1000
0100
1000
0100
0010
0001
0010
0001
0000
1000
0100
1000
0001
0010
0100
1000
,  // measure 17
0001
0100
0001
0100
0010
1000
0010
1000
0000
0100
0010
0001
0100
0010
0100
0001
,  // measure 18
0010
0100
1000
0001
1000
0100
0010
0001
0000
0100
0010
0100
0001
1000
0010
0100
,  // measure 19
0001
0010
0100
1000
0001
1000
0010
0100
0000
0001
1000
0100
0010
0100
1000
0001
,  // measure 20
1000
0010
0100
0010
1000
0001
0100
0001
0000
1000
0100
0010
0001
0100
0010
0100
,  // measure 21
0001
0010
0100
1000
0001
1000
0100
0010
0000
0001
0100
0010
1000
0100
0010
0001
,  // measure 22
1000
0100
0010
0100
1000
0001
0100
0001
0000
0010
0001
0100
0010
1000
0100
0010
,  // measure 23
0001
0100
0001
0010
0100
1000
0010
1000
0000
0001
1000
0010
1000
0100
0010
0001
,  // measure 24
1000
0100
1000
0001
0100
0001
1000
0001
0000
0010
0001
0100
0010
1000
0100
0010
,  // measure 25
0001
0100
0010
0100
0001
1000
0100
0010
0000
0001
0100
0010
1000
0100
0010
0100
,  // measure 26
1000
0010
0100
0010
1000
0001
0010
0001
0000
0010
0100
1000
0001
0100
0010
1000
,  // measure 27
0001
0100
0001
0010
0100
0010
0001
1000
0000
0100
0010
0001
1000
0010
0100
0001
,  // measure 28
1000
0100
0010
0001
1000
0001
0100
0010
0000
0100
0001
0010
0100
1000
0010
1000
,  // measure 29
0001
0010
0100
0010
0001
1000
0001
0100
0000
0010
0100
0001
1000
0100
0010
0001
,  // measure 30
1000
0001
0100
0010
0100
0001
1000
0010
0000
1000
0100
1000
0010
0100
0001
0010
,  // measure 31
0001
0100
0010
0100
0001
1000
0100
0010
0000
0001
0010
0100
1000
0001
0100
0010
,  // measure 32
2000
0001
3001
0020
0130
0001
0100
1000
,  // measure 33
0002
1000
1003
0020
0130
0010
0001
0010
,  // measure 34
2000
0100
3100
0020
0130
0001
0100
1000
,  // measure 35
0002
1000
1003
0020
0031
0010
0100
0001
,  // measure 36
0200
0010
0310
0002
0013
1000
0001
0010
,  // measure 37
0002
1000
1003
0020
0130
1000
0100
0001
,  // measure 38
2000
0100
3100
0020
1030
0010
0001
0100
,  // measure 39
0002
0000
1000
0000
1003
0000
0020
0000
0031
0000
0010
0000
1000
0000
0001
0100
,  // measure 40
0020
1000
1030
0200
0301
0100
0010
0001
,  // measure 41
2000
0010
3010
0002
0013
1000
0100
1000
,  // measure 42
0002
0010
0013
0200
0310
1000
0010
0001
,  // measure 43
0200
0001
0301
2000
3001
0100
1000
0100
,  // measure 44
0020
1000
1030
0200
0301
0100
1000
0001
,  // measure 45
0200
0010
0310
0200
1300
0100
0001
1000
,  // measure 46
0002
0010
0013
0200
0310
0100
0001
0100
,  // measure 47
2000
0010
3010
0002
0013
0100
0001
0100
,  // measure 48
0000
0100
1001
0000
1000
0100
0010
0100
,  // measure 49
0000
0100
1001
0000
0001
0100
0010
1000
,  // measure 50
0000
1000
1001
0000
1000
0100
0010
0001
,  // measure 51
0000
0001
1100
0000
0100
1000
0010
0100
,  // measure 52
0000
0100
1001
0000
1000
0001
0100
0001
,  // measure 53
0000
0001
1010
0000
1000
0001
0010
0100
,  // measure 54
0000
0100
1001
0000
1000
0001
0010
0001
,  // measure 55
0000
0001
0101
0000
0001
0100
0010
0100
,  // measure 56
0001
0000
0000
0001
0000
0000
0001
0000
0000
0000
0010
0000
0000
0000
0010
0000
,  // measure 57
0100
0000
0000
0100
0000
0000
0100
0000
0000
0000
0010
0000
0000
0000
0010
0000
,  // measure 58
0001
0000
0000
0001
0000
0000
0001
0000
0000
0000
1000
0000
0000
0000
1000
0000
,  // measure 59
0010
0000
0000
0010
0000
0000
0010
0000
0000
0000
0100
0000
0000
0000
0100
0000
,  // measure 60
0001
0000
0000
0001
0000
0000
0001
0000
0000
0000
0010
0000
0000
0000
0010
0000
,  // measure 61
0100
0000
0000
0100
0000
0000
0100
0000
0000
0000
1000
0000
0000
0000
1000
0000
,  // measure 62
0010
0000
0000
0010
0000
0000
0010
0000
0000
0000
0100
0000
0000
0000
0100
0000
,  // measure 63
0001
0000
0000
0001
0000
0000
0001
0000
0000
0000
1000
0000
0000
0000
1000
0000
,  // measure 64
1001
0000
1000
0001
0000
0000
0001
0000
0100
0000
0001
0000
1001
0000
0001
0000
,  // measure 65
0010
0000
0100
1000
0000
0000
1000
0000
0001
0000
0100
0000
0101
0000
0100
0000
,  // measure 66
0001
0000
1000
0100
0000
0000
0100
0000
1000
0000
0001
0000
1010
0000
0010
0000
,  // measure 67
1000
0000
0001
0100
0000
0000
0100
0000
0001
0000
1000
0000
1100
0000
1000
0000
,  // measure 68
0001
0000
0100
0001
0000
0000
0001
0000
0100
0000
0010
0000
1010
0000
0010
0000
,  // measure 69
1000
0000
0100
0010
0000
0000
0010
0000
0100
0000
1000
0000
1010
0000
1000
0000
,  // measure 70
0010
0000
1000
0100
0000
0000
0100
0000
0010
0000
0001
0000
0011
0000
0001
0000
,  // measure 71
1000
0000
0000
0000
0000
0000
0001
0000
0000
0100
0000
0000
0000
0000
0000
0000
0000
0000
0100
0000
0000
0000
0000
0000
0010
0000
0000
0000
2000
0000
3010
0000
0000
0000
2000
0000
3010
0000
0000
0000
2000
0000
3010
0000
0000
0000
2000
0000
,  // measure 72
3020
0000
0000
0000
,  // measure 73
0000
0000
0000
0000
,  // measure 74
0030
0000
0000
0000
;

//---------------dance-single - ----------------
#NOTEDATA:;
#CHARTNAME:Vela Pulsar;
#STEPSTYPE:dance-single;
#DESCRIPTION:;
#CHARTSTYLE:;
#DIFFICULTY:Hard;
#METER:6;
#RADARVALUES:0.460069,0.493067,0.251716,0.007403,0.103648,435.000000,401.000000,34.000000,1.000000,0.000000,0.000000,0.000000,0.000000,0.000000,0.460069,0.493067,0.251716,0.007403,0.103648,435.000000,401.000000,34.000000,1.000000,0.000000,0.000000,0.000000,0.000000,0.000000;
#CREDIT:Phil Lee;
#ATTACKS:TIME=71.676796:LEN=5.000000:MODS=*100 22% Stealth:TIME=71.732765:LEN=5.000000:MODS=*0.05 0% Stealth:TIME=100.333511:LEN=5.000000:MODS=*100 22% Stealth:TIME=100.389481:LEN=5.000000:MODS=*0.1125 0% Stealth;
#NOTES:
// measure 0
0000
0000
0000
0000
,  // measure 1
0000
0000
0000
0000
,  // measure 2
1000
0000
0000
0010
0000
0000
0000
0000
0100
0000
0010
0000
0000
1000
0000
0000
,  // measure 3
0001
0000
0000
0010
0000
0000
0000
0000
0001
0000
1000
0000
0000
0100
0000
0000
,  // measure 4
1000
0000
0000
0001
0000
0000
0000
0000
0100
0000
0010
0000
0000
1000
0000
0000
,  // measure 5
0001
0000
0000
0010
0000
0000
0000
0000
0100
0000
1000
0000
0000
0010
0000
0000
,  // measure 6
1000
0000
0000
0100
0000
0000
0000
0000
0010
0000
0001
0000
0000
0100
0000
0000
,  // measure 7
0010
0000
0000
0100
0000
0000
0000
0000
0001
0000
0010
0000
0000
0100
0000
0000
,  // measure 8
0000
1000
0001
0000
1000
0100
0010
0001
,  // measure 9
0000
1000
0001
0000
0100
0010
0100
0001
,  // measure 10
0000
1000
0001
0000
0010
0100
1000
0001
,  // measure 11
0000
1000
0100
0000
0010
0100
1000
0001
,  // measure 12
0000
0100
0001
0000
0100
0010
0100
0001
,  // measure 13
0000
1000
0001
0000
0010
0100
1000
0001
,  // measure 14
0000
1000
0100
0000
0010
0001
0010
0100
,  // measure 15
0000
1000
0001
0000
0100
0010
0100
0001
,  // measure 16
1000
0100
1000
0001
0000
0011
0000
1100
,  // measure 17
0100
1000
0100
0010
0000
1001
0000
0101
,  // measure 18
0100
0001
1000
0100
0000
1100
0000
0011
,  // measure 19
0010
0001
1000
0001
0000
0101
0000
1010
,  // measure 20
1000
0100
0010
0100
0000
0110
0000
1001
,  // measure 21
1000
0001
0010
0001
0000
0011
0000
1001
,  // measure 22
1000
0001
0100
0001
0000
0011
0000
1001
,  // measure 23
1000
0100
1000
0010
0000
1100
0000
0011
,  // measure 24
0010
0001
0010
0100
0000
1001
0000
0101
,  // measure 25
0001
0100
0001
1000
0000
1010
0000
0101
,  // measure 26
0100
0001
0100
0010
0000
1001
0000
1100
,  // measure 27
0100
1000
0001
0100
0000
0101
0000
1010
,  // measure 28
0010
1000
0001
1000
0000
1100
0000
0011
,  // measure 29
0001
0100
0010
0100
0000
0110
0000
1001
,  // measure 30
0001
1000
0010
1000
0000
1010
0000
1001
,  // measure 31
0001
1000
0100
1000
0000
0011
0000
1001
,  // measure 32
0000
0001
0100
0000
0001
0010
0100
1000
,  // measure 33
0000
0010
1000
0000
0100
1000
0001
0010
,  // measure 34
0000
0001
1000
0000
0010
0100
0001
1000
,  // measure 35
0000
0001
0010
0000
0100
1000
0001
0010
,  // measure 36
0000
0001
0100
0000
0010
0100
0001
1000
,  // measure 37
0000
0001
0010
0000
0100
1000
0100
0010
,  // measure 38
0000
0001
1000
0000
0001
0100
0010
0100
,  // measure 39
0000
0001
1000
0000
0001
0010
0100
1000
,  // measure 40
1001
0001
1000
0000
0100
0010
0100
1000
,  // measure 41
0000
0001
1000
0000
0100
0010
0001
1000
,  // measure 42
0000
0001
1000
0000
0010
0100
0001
1000
,  // measure 43
0000
0001
0100
0000
0010
1000
0010
0100
,  // measure 44
0000
0001
1000
0000
0100
0010
0100
1000
,  // measure 45
0000
0001
0100
0000
0010
1000
0001
0010
,  // measure 46
0000
0100
1000
0000
0100
0010
0001
1000
,  // measure 47
0000
0001
0100
0000
0010
1000
0001
1000
,  // measure 48
1100
0100
0010
0000
0001
0010
0100
1000
,  // measure 49
0000
0001
1000
0000
0100
0010
0100
1000
,  // measure 50
0000
0001
1000
0000
0010
0100
0001
1000
,  // measure 51
0000
0001
0010
0000
0100
1000
0001
1000
,  // measure 52
0000
0100
0010
0000
0001
1000
0001
0100
,  // measure 53
0000
0010
1000
0000
0001
0100
0010
0100
,  // measure 54
0000
0001
1000
0000
0100
0010
0001
1000
,  // measure 55
0000
0010
1000
0000
0001
0010
0100
0010
,  // measure 56
0001
0000
0000
1000
0000
0000
0100
0000
0000
0000
0010
0000
0000
0000
0001
0000
,  // measure 57
1000
0000
0000
0001
0000
0000
0100
0000
0000
0000
0010
0000
0000
0000
1000
0000
,  // measure 58
0001
0000
0000
0010
0000
0000
0100
0000
0000
0000
0010
0000
0000
0000
0001
0000
,  // measure 59
1000
0000
0000
0100
0000
0000
1000
0000
0000
0000
0001
0000
0000
0000
0100
0000
,  // measure 60
0001
0000
0000
0010
0000
0000
0100
0000
0000
0000
1000
0000
0000
0000
0001
0000
,  // measure 61
0100
0000
0000
0010
0000
0000
0100
0000
0000
0000
0001
0000
0000
0000
1000
0000
,  // measure 62
0001
0000
0000
0010
0000
0000
0100
0000
0000
0000
1000
0000
0000
0000
0010
0000
,  // measure 63
0100
0000
0000
0001
0000
0000
0010
0000
0000
0000
0001
0000
0000
0000
0100
0000
,  // measure 64
0010
0000
0000
1000
0000
0000
0001
0000
0000
0000
1000
0000
0000
0000
0100
0000
,  // measure 65
0010
0000
0000
0100
0000
0000
1000
0000
0000
0000
0001
0000
0000
0000
0100
0000
,  // measure 66
0010
0000
0000
0100
0000
0000
0001
0000
0000
0000
1000
0000
0000
0000
0100
0000
,  // measure 67
0010
0000
0000
0001
0000
0000
0010
0000
0000
0000
0100
0000
0000
0000
1000
0000
,  // measure 68
0001
0000
0000
0100
0000
0000
0010
0000
0000
0000
0100
0000
0000
0000
0001
0000
,  // measure 69
1000
0000
0000
0100
0000
0000
0010
0000
0000
0000
0001
0000
0000
0000
1000
0000
,  // measure 70
0010
0000
0000
0100
0000
0000
0001
0000
0000
0000
1000
0000
0000
0000
0001
0000
,  // measure 71
0010
0000
0000
0100
0000
0000
1000
0000
0000
0000
0001
0000
0000
0000
1000
0000
,  // measure 72
0020
0000
0000
0000
,  // measure 73
0000
0000
0000
0000
,  // measure 74
0030
0000
0000
0000
;

//---------------dance-single - ----------------
#NOTEDATA:;
#CHARTNAME:Cen X-3;
#STEPSTYPE:dance-single;
#DESCRIPTION:;
#CHARTSTYLE:;
#DIFFICULTY:Medium;
#METER:5;
#RADARVALUES:0.383919,0.383496,0.014807,0.007403,0.059227,363.000000,361.000000,2.000000,1.000000,0.000000,0.000000,0.000000,0.000000,0.000000,0.383919,0.383496,0.014807,0.007403,0.059227,363.000000,361.000000,2.000000,1.000000,0.000000,0.000000,0.000000,0.000000,0.000000;
#CREDIT:Phil Lee;
#ATTACKS:TIME=71.676796:LEN=5.000000:MODS=*100 22% Stealth:TIME=71.732765:LEN=5.000000:MODS=*0.05 0% Stealth:TIME=100.333511:LEN=5.000000:MODS=*100 22% Stealth:TIME=100.389481:LEN=5.000000:MODS=*0.1125 0% Stealth;
#NOTES:
0000
0000
0000
0000
,
0000
0000
0000
0000
,
1000
0100
0010
0100
,
1000
0010
1000
0001
,
1000
0100
0010
0001
,
1000
0001
0100
0010
,
1000
0001
0010
0100
,
1000
0001
1000
0100
,
0000
0010
0001
0000
1000
0010
1000
0010
,
0000
0100
0001
0000
0010
0100
0010
0100
,
0000
1000
0001
0000
1000
0100
1000
0100
,
0000
0010
0100
0000
1000
0010
1000
0010
,
0000
0100
0001
0000
0010
0100
0010
0100
,
0000
1000
0001
0000
1000
0010
1000
0010
,
0000
0100
0001
0000
1000
0100
1000
0100
,
0000
0010
0100
0000
1000
0001
1000
0001
,
1001
0000
0001
0000
0000
0100
0000
0100
,
0001
0000
0010
0000
0000
0100
0000
0100
,
1000
0000
0001
0000
0000
0100
0000
0100
,
0010
0000
1000
0000
0000
0001
0000
0001
,
1000
0000
0100
0000
0000
0010
0000
0010
,
0001
0000
0100
0000
0000
0010
0000
0010
,
1000
0000
0100
0000
0000
0010
0000
0010
,
0001
0000
0100
0000
0000
0001
0000
0001
,
1001
0000
1000
0000
0000
0100
0000
0100
,
1000
0000
0010
0000
0000
0100
0000
0100
,
0001
0000
1000
0000
0000
0100
0000
0100
,
0010
0000
0001
0000
0000
1000
0000
1000
,
0001
0000
0100
0000
0000
0010
0000
0010
,
1000
0000
0100
0000
0000
0010
0000
0010
,
0001
0000
0100
0000
0000
0010
0000
0010
,
1000
0000
0100
0000
0000
1000
0000
1000
,
0000
0001
0100
0000
0010
1000
0010
1000
,
0000
0100
1000
0000
0001
0100
0001
0100
,
0000
0010
1000
0000
0010
0100
0010
0100
,
0000
0001
0010
0000
0100
1000
0100
1000
,
0000
0100
0010
0000
0001
0100
0001
0100
,
0000
0010
1000
0000
0001
0010
0001
0010
,
0000
0100
0010
0000
0001
0100
0001
0100
,
0000
0001
1000
0000
0010
0100
0010
0100
,
0000
0001
1000
0000
0001
0010
0001
0010
,
0000
0100
1000
0000
0010
0100
0010
0100
,
0000
0001
1000
0000
0001
0010
0001
0010
,
0000
0100
1000
0000
0010
0100
0010
0100
,
0000
0001
1000
0000
0001
0100
0001
0100
,
0000
0010
1000
0000
0100
0010
0100
0010
,
0000
0001
0100
0000
0001
0010
0001
0010
,
0000
0100
0010
0000
0001
1000
0001
1000
,
0000
0010
1000
0000
0100
0010
0100
0010
,
0000
0001
1000
0000
0010
0100
0010
0100
,
0000
0001
1000
0000
0001
0010
0001
0010
,
0000
0100
1000
0000
0100
0010
0100
0010
,
0000
0001
0010
0000
0100
1000
0100
1000
,
0000
0010
0100
0000
0001
0010
0001
0010
,
0000
0100
1000
0000
0100
0010
0100
0010
,
0000
0001
1000
0000
0001
0010
0001
0010
,
0001
0000
0000
0001
0000
0000
0001
0000
0000
0000
0100
0000
0000
0000
0010
0000
,
1000
0000
0000
1000
0000
0000
1000
0000
0000
0000
0100
0000
0000
0000
0010
0000
,
0100
0000
0000
0100
0000
0000
0100
0000
0000
0000
1000
0000
0000
0000
0010
0000
,
0100
0000
0000
0100
0000
0000
0100
0000
0000
0000
0001
0000
0000
0000
0010
0000
,
0001
0000
0000
0001
0000
0000
0001
0000
0000
0000
1000
0000
0000
0000
0010
0000
,
0100
0000
0000
0100
0000
0000
0100
0000
0000
0000
0010
0000
0000
0000
1000
0000
,
0100
0000
0000
0100
0000
0000
0100
0000
0000
0000
1000
0000
0000
0000
0001
0000
,
0010
0000
0000
0010
0000
0000
0010
0000
0000
0000
0001
0000
0000
0000
1000
0000
,
0001
0000
0000
0001
0000
0000
0001
0000
0000
0000
0100
0000
0000
0000
0001
0000
,
0010
0000
0000
0010
0000
0000
0010
0000
0000
0000
0100
0000
0000
0000
0010
0000
,
0001
0000
0000
0001
0000
0000
0001
0000
0000
0000
1000
0000
0000
0000
0010
0000
,
0100
0000
0000
0100
0000
0000
0100
0000
0000
0000
0010
0000
0000
0000
1000
0000
,
0001
0000
0000
0001
0000
0000
0001
0000
0000
0000
0010
0000
0000
0000
0001
0000
,
0100
0000
0000
0100
0000
0000
0100
0000
0000
0000
0010
0000
0000
0000
0100
0000
,
0001
0000
0000
0001
0000
0000
0001
0000
0000
0000
0010
0000
0000
0000
0100
0000
,
1000
0000
0000
1000
0000
0000
1000
0000
0000
0000
0010
0000
0000
0000
0100
0000
,
0002
0000
0000
0000
,
0000
0000
0000
0000
,
0003
0000
0000
0000
;

//---------------dance-single - ----------------
#NOTEDATA:;
#CHARTNAME:CP 1919;
#STEPSTYPE:dance-single;
#DESCRIPTION:;
#CHARTSTYLE:;
#DIFFICULTY:Easy;
#METER:3;
#RADARVALUES:0.188258,0.219141,0.007403,0.007403,0.059227,178.000000,177.000000,1.000000,1.000000,0.000000,0.000000,0.000000,0.000000,0.000000,0.188258,0.219141,0.007403,0.007403,0.059227,178.000000,177.000000,1.000000,1.000000,0.000000,0.000000,0.000000,0.000000,0.000000;
#CREDIT:Phil Lee;
#NOTES:
0000
0000
0000
0000
,
0000
0000
0000
0000
,
1000
0000
0001
0000
,
0100
0000
0010
0000
,
1000
0000
0100
0000
,
0010
0000
0001
0000
,
1000
0000
0001
0000
,
0100
0000
0010
0000
,
1001
0001
0010
0010
,
0000
0100
0010
0010
,
0000
0001
0100
0100
,
0000
0010
1000
1000
,
0000
0001
0010
0010
,
0000
0100
1000
1000
,
0000
0001
0010
0010
,
0000
0100
1000
1000
,
0000
0001
0000
0100
,
0000
0010
0000
0100
,
0000
0001
0000
1000
,
0000
0100
0000
0010
,
0000
0001
0000
1000
,
0000
0100
0000
0010
,
0000
0001
0000
1000
,
0000
0001
0000
0100
,
0100
0100
0000
0010
,
0000
1000
0000
0001
,
0000
1000
0000
0100
,
0000
0010
0000
0001
,
0000
1000
0000
0001
,
0000
0100
0000
0010
,
0000
0100
0000
0001
,
0000
1000
0000
0001
,
0001
0001
1000
1000
,
0000
0100
0010
0010
,
0000
0001
1000
1000
,
0000
0001
0100
0100
,
0000
0010
0100
0100
,
0000
0001
0010
0010
,
0000
0100
1000
1000
,
0000
0100
0010
0010
,
0010
0010
0001
0001
,
0000
1000
0001
0001
,
0000
0100
0010
0010
,
0000
1000
0001
0001
,
0000
0100
0001
0001
,
0000
1000
0010
0010
,
0000
1000
0001
0001
,
0000
0010
0100
0100
,
0000
1000
0100
0100
,
0000
0010
0100
0100
,
0000
1000
0001
0001
,
0000
0100
0010
0010
,
0000
1000
0001
0001
,
0000
0100
0010
0010
,
0000
0100
0001
0001
,
0000
0010
0100
0100
,
0100
0000
0000
0100
0000
0000
0000
0000
0000
0000
0000
0000
0000
0000
0000
0000
,
1000
0000
0000
1000
0000
0000
0000
0000
0000
0000
0000
0000
0000
0000
0000
0000
,
0001
0000
0000
0001
0000
0000
0000
0000
0000
0000
0000
0000
0000
0000
0000
0000
,
0100
0000
0000
0100
0000
0000
0000
0000
0000
0000
0000
0000
0000
0000
0000
0000
,
0010
0000
0000
0010
0000
0000
0000
0000
0000
0000
0000
0000
0000
0000
0000
0000
,
1000
0000
0000
1000
0000
0000
0000
0000
0000
0000
0000
0000
0000
0000
0000
0000
,
0100
0000
0000
0100
0000
0000
0000
0000
0000
0000
0000
0000
0000
0000
0000
0000
,
0010
0000
0000
0010
0000
0000
0000
0000
0000
0000
0000
0000
0000
0000
0000
0000
,
0001
0000
0000
0001
0000
0000
0000
0000
0000
0000
0000
0000
0000
0000
0000
0000
,
1000
0000
0000
1000
0000
0000
0000
0000
0000
0000
0000
0000
0000
0000
0000
0000
,
0001
0000
0000
0001
0000
0000
0000
0000
0000
0000
0000
0000
0000
0000
0000
0000
,
0100
0000
0000
0100
0000
0000
0000
0000
0000
0000
0000
0000
0000
0000
0000
0000
,
0010
0000
0000
0010
0000
0000
0000
0000
0000
0000
0000
0000
0000
0000
0000
0000
,
1000
0000
0000
1000
0000
0000
0000
0000
0000
0000
0000
0000
0000
0000
0000
0000
,
0001
0000
0000
0001
0000
0000
0000
0000
0000
0000
0000
0000
0000
0000
0000
0000
,
0010
0000
0000
0010
0000
0000
0000
0000
0000
0000
0000
0000
0000
0000
0000
0000
,
0200
0000
0000
0000
,
0000
0000
0000
0000
,
0300
0000
0000
0000
;

//---------------dance-single - ----------------
#NOTEDATA:;
#CHARTNAME:Hulse-Taylor Binary;
#STEPSTYPE:dance-single;
#DESCRIPTION:;
#CHARTSTYLE:;
#DIFFICULTY:Beginner;
#METER:1;
#RADARVALUES:0.079322,0.109570,0.029614,0.007403,0.000000,75.000000,71.000000,4.000000,1.000000,0.000000,0.000000,0.000000,0.000000,0.000000,0.079322,0.109570,0.029614,0.007403,0.000000,75.000000,71.000000,4.000000,1.000000,0.000000,0.000000,0.000000,0.000000,0.000000;
#CREDIT:Phil Lee;
#NOTES:
0000
0000
0000
0000
,
0000
0000
0000
0000
,
1000
0000
0000
0000
,
0100
0000
0000
0000
,
1000
0000
0000
0000
,
0001
0000
0000
0000
,
0100
0000
0000
0000
,
0010
0000
0000
0000
,
1001
0000
0000
0000
,
1000
0000
0000
0000
,
0100
0000
0000
0000
,
0010
0000
0000
0000
,
0001
0000
0000
0000
,
1000
0000
0000
0000
,
0001
0000
0000
0000
,
0100
0000
0000
0000
,
0010
0000
0000
0000
,
0100
0000
0000
0000
,
0001
0000
0000
0000
,
0010
0000
0000
0000
,
0100
0000
0000
0000
,
1000
0000
0000
0000
,
0001
0000
0000
0000
,
1000
0000
0000
0000
,
1001
0000
0000
0000
,
1000
0000
0000
0000
,
0001
0000
0000
0000
,
0100
0000
0000
0000
,
0010
0000
0000
0000
,
0100
0000
0000
0000
,
0001
0000
0000
0000
,
1000
0000
0000
0000
,
1001
0000
0000
0000
,
1000
0000
0000
0000
,
0001
0000
0000
0000
,
1000
0000
0000
0000
,
0010
0000
0000
0000
,
0100
0000
0000
0000
,
0010
0000
0000
0000
,
1000
0000
0000
0000
,
1001
0000
0000
0000
,
1000
0000
0000
0000
,
0001
0000
0000
0000
,
0010
0000
0000
0000
,
0100
0000
0000
0000
,
0010
0000
0000
0000
,
0001
0000
0000
0000
,
1000
0000
0000
0000
,
0010
0000
0000
0000
,
0100
0000
0000
0000
,
0001
0000
0000
0000
,
1000
0000
0000
0000
,
0001
0000
0000
0000
,
0010
0000
0000
0000
,
0100
0000
0000
0000
,
1000
0000
0000
0000
,
0001
0000
0000
0000
,
0100
0000
0000
0000
,
0010
0000
0000
0000
,
1000
0000
0000
0000
,
0001
0000
0000
0000
,
1000
0000
0000
0000
,
0100
0000
0000
0000
,
0010
0000
0000
0000
,
0001
0000
0000
0000
,
1000
0000
0000
0000
,
0001
0000
0000
0000
,
0100
0000
0000
0000
,
0010
0000
0000
0000
,
1000
0000
0000
0000
,
0001
0000
0000
0000
,
1000
0000
0000
0000
,
0002
0000
0000
0000
,
0000
0000
0000
0000
,
0003
0000
0000
0000
;
