#VERSION:0.83;
#TITLE:My Punishment;
#SUBTITLE:;
#ARTIST:Dj Link;
#TITLETRANSLIT:;
#SUBTITLETRANSLIT:;
#ARTISTTRANSLIT:;
#GENRE:;
#ORIGIN:;
#CREDIT:;
#BANNER:mypunishment-banner.png;
#BACKGROUND:mypunishment-bg.png;
#PREVIEWVID:;
#JACKET:;
#CDIMAGE:;
#DISCIMAGE:;
#LYRICSPATH:;
#CDTITLE:;
#MUSIC:My_Punishment.ogg;
#OFFSET:0.000000;
#SAMPLESTART:65.599998;
#SAMPLELENGTH:12.800003;
#SELECTABLE:YES;
#BPMS:0.000=150.000;
#STOPS:368.000=2.000;
#DELAYS:;
#WARPS:;
#TIMESIGNATURES:0.000=4=4;
#TICKCOUNTS:0.000=4;
#COMBOS:0.000=1;
#SPEEDS:0.000=1.000=0.000=0,
304.000=0.500=4.000=0;
#SCROLLS:0.000=1.000,
68.000=5.000,
68.250=0.750,
84.000=0.800,
116.000=0.500,
120.000=0.600,
124.000=0.700,
128.000=0.800,
132.000=0.900,
160.000=1.000,
161.000=1.100,
162.000=1.200,
163.000=1.300,
164.000=1.000;
#FAKES:;
#LABELS:0.000=Song Start;
#BGCHANGES:;
#KEYSOUNDS:;
#ATTACKS:
;

//---------------dance-single - ----------------
#NOTEDATA:;
#CHARTNAME:No Mercy;
#STEPSTYPE:dance-single;
#DESCRIPTION:;
#CHARTSTYLE:;
#DIFFICULTY:Challenge;
#METER:8;
#RADARVALUES:0.492901,0.707402,0.325950,0.143100,0.262350,434.000000,393.000000,41.000000,18.000000,9.000000,0.000000,4.000000,0.000000,0.000000,0.492901,0.707402,0.325950,0.143100,0.262350,434.000000,393.000000,41.000000,18.000000,9.000000,0.000000,4.000000,0.000000,0.000000;
#CREDIT:Phil Lee;
#OFFSET:0.000000;
#BPMS:0.000000=150.000000
;
#STOPS:368.000000=2.000000
;
#DELAYS:;
#WARPS:;
#TIMESIGNATURES:0.000000=4=4
;
#TICKCOUNTS:0.000000=4
;
#COMBOS:0.000000=1
;
#SPEEDS:0.000000=1.000000=0.000000=0
,66.000000=1.250000=1.000000=0
,67.000000=1.000000=1.000000=0
,304.000000=0.500000=4.000000=0
;
#SCROLLS:0.000000=1.000000
,68.000000=5.000000
,68.250000=0.750000
,84.000000=0.800000
,116.000000=0.500000
,120.000000=0.600000
,124.000000=0.700000
,128.000000=0.800000
,132.000000=0.900000
,160.000000=1.000000
,161.000000=1.100000
,162.000000=1.200000
,163.000000=1.300000
,164.000000=1.000000
;
#FAKES:;
#LABELS:0.000000=Song Start
;
#ATTACKS:TIME=65.629997:LEN=25.200001:MODS=*100 50% Beat:TIME=91.029999:LEN=0.200000:MODS=*100 0% Beat:TIME=65.629997:LEN=25.200001:MODS=*100 50% Beat:TIME=91.029999:LEN=0.200000:MODS=*100 0% Beat:TIME=65.629997:LEN=25.200001:MODS=*100 50% Beat:TIME=91.029999:LEN=0.200000:MODS=*100 0% Beat:TIME=65.629997:LEN=25.200001:MODS=*100 50% Beat:TIME=91.029999:LEN=0.200000:MODS=*100 0% Beat;
#NOTES:
// measure 0
0000
0000
0000
0000
,  // measure 1
0000
0000
0000
0000
,  // measure 2
0000
0000
0000
0000
,  // measure 3
0000
0000
0000
0000
,  // measure 4
1000
0001
0100
0001
,  // measure 5
0010
0100
1000
0001
,  // measure 6
1000
0100
0010
0100
,  // measure 7
1000
0000
0001
0000
0100
0000
0001
0010
,  // measure 8
0001
1000
0000
1001
0000
0000
1000
0000
,  // measure 9
0000
1001
0000
0000
0000
0001
0001
0001
,  // measure 10
1000
0100
0000
1100
0000
0000
0100
0000
,  // measure 11
0000
0011
0000
0000
0000
0011
0000
0000
,  // measure 12
1000
0010
0000
1010
0000
0000
1000
0000
,  // measure 13
0001
0010
0001
0100
1000
0100
0001
0010
,  // measure 14
0100
1000
0100
0010
1000
0010
0001
0100
,  // measure 15
0010
0000
0001
0000
0010
0000
1000
0000
0100
0000
0010
0000
0100
1000
0010
0100
,  // measure 16
0010
0000
1000
0000
0001
0000
0010
0000
0100
0000
1000
0000
0100
0000
0010
0000
0400
4000
0000
0000
0000
0000
0000
0000
00MM
0000
0000
0000
0000
0000
0000
3300
,  // measure 17
0002
1000
1000
1003
,  // measure 18
0020
0100
0100
0130
,  // measure 19
0002
0010
0010
0013
,  // measure 20
0200
1000
1000
1300
,  // measure 21
0001
0000
1001
1000
0000
1000
1100
0000
,  // measure 22
0100
0000
1100
0100
0000
0100
0110
0000
,  // measure 23
0001
0000
1001
1000
0000
1000
1010
0000
,  // measure 24
0010
0000
1100
1000
0000
1000
1010
0010
,  // measure 25
1000
0000
1001
0001
0000
0001
0101
0000
,  // measure 26
0100
0000
0101
0100
0000
0100
0110
0000
,  // measure 27
1000
0000
1001
0001
0000
0001
0011
0000
,  // measure 28
0010
0000
0101
0001
0000
0001
0011
0010
,  // measure 29
0001
0000
1000
0001
0000
0100
0001
0000
,  // measure 30
0010
0000
0100
1000
0000
0001
1000
0000
,  // measure 31
1001
1010
0101
0011
,  // measure 32
0010
0000
0000
0000
0100
0000
0000
0000
1000
0000
0000
0000
0001
0000
0000
0000
1000
0000
0001
0000
0100
0000
0001
0000
0400
0040
0000
0000
0000
0000
0000
0330
,  // measure 33
1000
0000
0001
0100
0000
0001
0010
0000
0100
1000
0000
0001
,  // measure 34
0100
0000
0010
0100
0000
0001
1000
0000
0100
0010
0000
0100
,  // measure 35
1000
0000
0001
0100
0000
0001
1000
0000
0010
0100
0000
0010
,  // measure 36
1000
0000
0100
0010
0000
0100
1000
0000
0001
0100
0000
0010
,  // measure 37
1000
0000
0001
1000
0000
0100
0010
0000
0001
0100
0000
0001
,  // measure 38
0010
0000
0001
0100
0000
0001
1000
0000
0100
1000
0000
0010
,  // measure 39
0100
0000
0001
0010
0000
0001
1000
0000
0010
0100
0000
0001
,  // measure 40
2M00
000M
00M0
0M00
,  // measure 41
3001
1001
1010
0101
,  // measure 42
1000
0000
1000
0100
0000
0010
0001
0000
0000
0100
0000
0001
,  // measure 43
1000
1001
0011
1100
,  // measure 44
0001
0000
0100
0010
0000
0100
0010
0000
1000
0001
0000
0100
,  // measure 45
0001
0101
0110
1010
,  // measure 46
0001
0000
0001
0010
0000
0100
1000
0000
0000
0001
0000
0100
,  // measure 47
0001
1001
0101
1010
,  // measure 48
1000
0000
0001
0100
0000
0001
0100
0000
0010
1000
0000
0100
,  // measure 49
2000
0001
0001
3001
,  // measure 50
0010
0000
0010
0001
0000
0100
0001
0000
0000
1000
0000
0010
,  // measure 51
2000
0100
0100
3100
,  // measure 52
0010
0000
0001
0100
0000
0001
0100
0000
0010
1000
0000
0100
,  // measure 53
0020
0001
0001
0031
,  // measure 54
0100
0000
0100
0001
0000
0010
0001
0000
0000
1000
0000
0010
,  // measure 55
2000
0001
0001
3001
,  // measure 56
0100
0000
0001
0010
0000
0001
0010
0000
0100
0010
0000
0001
,  // measure 57
2000
0100
0100
3100
,  // measure 58
1002
1000
1000
1003
,  // measure 59
0120
0100
0100
0130
,  // measure 60
0012
0010
0010
0013
,  // measure 61
0001
0000
1000
0010
0000
0010
1000
0000
,  // measure 62
0001
0000
0100
0010
0000
0010
0100
0000
,  // measure 63
0001
0000
0010
0100
0000
0100
0010
0000
,  // measure 64
0001
0000
1000
0010
0000
0010
0010
0010
,  // measure 65
1000
0100
0000
0020
0100
0000
0100
0000
,  // measure 66
0130
1000
0000
0000
0001
0100
0000
0000
,  // measure 67
0001
0010
0000
0000
0100
1000
1000
1000
,  // measure 68
0001
1000
0000
0000
0001
0010
0000
0000
,  // measure 69
0100
0010
0000
0002
0010
0000
0010
0000
,  // measure 70
0013
0100
0000
0000
1000
0001
0000
0000
,  // measure 71
1000
0010
0000
2000
0001
0000
0001
0000
,  // measure 72
3001
0010
0000
0000
0100
0010
0010
0010
,  // measure 73
0001
0100
0000
0002
0010
0000
0010
0000
,  // measure 74
0013
0100
0000
0000
1000
0001
0000
0000
,  // measure 75
1000
0000
0010
0000
0100
0000
0001
0001
,  // measure 76
2000
0000
0000
0000
,  // measure 77
300M
0M00
0000
00M0
0000
0000
0000
0000
;

//---------------dance-single - ----------------
#NOTEDATA:;
#CHARTNAME:RAAAAAAHHHHH!!!!!!;
#STEPSTYPE:dance-single;
#DESCRIPTION:;
#CHARTSTYLE:;
#DIFFICULTY:Edit;
#METER:9;
#RADARVALUES:0.555365,0.845682,0.238500,0.532651,0.421351,489.000000,459.000000,30.000000,67.000000,19.000000,12.000000,4.000000,0.000000,24.000000,0.555365,0.845682,0.238500,0.532651,0.421351,489.000000,459.000000,30.000000,67.000000,19.000000,12.000000,4.000000,0.000000,24.000000;
#CREDIT:Phil Lee;
#OFFSET:0.000000;
#BPMS:0.000000=150.000000
;
#STOPS:308.000000=0.200000
,336.000000=0.400000
,368.000000=2.000000
;
#DELAYS:;
#WARPS:308.000000=92.000000
;
#TIMESIGNATURES:0.000000=4=4
;
#TICKCOUNTS:0.000000=4
;
#COMBOS:0.000000=1
;
#SPEEDS:0.000000=1.000000=0.000000=0
,66.000000=1.250000=1.000000=0
,67.000000=1.000000=1.000000=0
,304.000000=0.500000=4.000000=0
;
#SCROLLS:0.000000=1.000000
,68.000000=5.000000
,68.250000=0.750000
,84.000000=0.800000
,116.000000=0.500000
,120.000000=0.600000
,124.000000=0.700000
,128.000000=0.800000
,132.000000=0.900000
,160.000000=1.000000
,161.000000=1.100000
,162.000000=1.200000
,163.000000=1.300000
,164.000000=1.000000
;
#FAKES:308.000000=62.500000
;
#LABELS:0.000000=Song Start
;
#ATTACKS:TIME=65.629997:LEN=25.200001:MODS=*100 50% Beat:TIME=91.029999:LEN=0.200000:MODS=*100 0% Beat:TIME=65.629997:LEN=25.200001:MODS=*100 50% Beat:TIME=91.029999:LEN=0.200000:MODS=*100 0% Beat:TIME=65.629997:LEN=25.200001:MODS=*100 50% Beat:TIME=91.029999:LEN=0.200000:MODS=*100 0% Beat:TIME=65.629997:LEN=25.200001:MODS=*100 50% Beat:TIME=91.029999:LEN=0.200000:MODS=*100 0% Beat;
#NOTES:
// measure 0
0000
0000
0000
0000
,  // measure 1
0000
0000
0000
0000
,  // measure 2
0000
0000
0000
0000
,  // measure 3
0000
0000
0000
0000
0000
0000
1000
0100
,  // measure 4
0010
0002
0103
2000
3100
0002
0013
0200
,  // measure 5
1300
0002
0103
0002
0013
2000
3010
0200
,  // measure 6
1300
0020
0130
0020
0031
0020
1030
0002
,  // measure 7
0103
0002
0013
0200
0301
0200
1300
0010
,  // measure 8
1000
0001
1001
1000
0000
0000
1001
0000
,  // measure 9
0000
0001
0011
0000
0000
1000
1100
0100
,  // measure 10
1000
0010
1010
0010
0000
0000
1010
0000
,  // measure 11
0000
0001
0101
0000
0000
0010
0110
0000
,  // measure 12
0001
0010
0011
0010
0000
0000
1100
0000
,  // measure 13
0100
1000
0100
0010
1000
0010
0001
0100
,  // measure 14
0010
0100
1000
0100
0001
1000
0010
1000
,  // measure 15
0001
0000
0010
0000
0001
0000
0100
0000
1000
0000
0100
0000
0001
0100
0010
0100
,  // measure 16
0001
0000
0010
0000
0100
0000
1000
0000
0100
0000
0010
0000
0001
0000
1000
0000
0400
0040
0000
0000
0000
0000
0000
0000
0000
0000
0000
0000
0000
0000
0000
0330
,  // measure 17
0002
1000
1000
1003
,  // measure 18
0020
0100
0100
0130
,  // measure 19
0002
0010
0010
0013
,  // measure 20
0200
1000
1000
1300
,  // measure 21
0001
0000
2000
0200
0000
0001
3301
0000
,  // measure 22
1000
0000
0002
0200
0000
0010
0313
0000
,  // measure 23
0001
0000
2000
0002
0000
0100
3103
0000
,  // measure 24
1000
0000
0020
0200
0330
0001
0001
0001
,  // measure 25
0100
0000
0020
2000
0000
0100
3130
0000
,  // measure 26
0001
0000
2000
0200
0000
0010
3310
0000
,  // measure 27
1000
0000
0020
2000
0000
0100
3130
0000
,  // measure 28
0001
0000
0020
0002
0033
1000
1000
1000
,  // measure 29
0001
0000
1000
0010
0000
0010
1000
0000
,  // measure 30
0001
0000
0100
0010
0000
0010
0100
0000
,  // measure 31
1001
1100
0110
0011
,  // measure 32
0010
0000
0000
0000
0100
0000
0000
0000
1000
0000
0000
0000
0010
0000
0000
0000
0100
0000
0001
0000
1000
0000
0001
0000
0400
0040
0000
0000
0000
0000
0000
0330
,  // measure 33
1000
0000
1000
0001
0000
0001
0100
0000
0100
0010
0000
0010
,  // measure 34
0100
0000
0100
0001
0000
0001
0010
0000
0010
0100
0000
0100
,  // measure 35
1000
0000
1000
0010
0000
0010
0100
0000
0100
0010
0000
0010
,  // measure 36
1000
0000
1000
0001
0000
0001
0010
0000
0010
0100
0000
0100
,  // measure 37
1000
0000
1000
0001
0000
0001
0010
0000
0010
0001
0000
0001
,  // measure 38
1000
0000
1000
0010
0000
0010
0100
0000
0100
0001
0000
0001
,  // measure 39
0010
0000
0010
0001
0000
0001
1000
0000
1000
0100
0000
0100
,  // measure 40
1000
0000
1000
0010
0000
0010
0100
0000
0100
0001
0000
0001
,  // measure 41
1001
0000
2000
3100
0000
0020
0031
0000
2000
3010
0000
0200
,  // measure 42
0310
0000
0010
0100
0000
0001
1000
0000
0002
0103
0000
0002
,  // measure 43
0013
0000
0200
0310
0000
0002
1003
0000
0020
0130
0000
0020
,  // measure 44
1030
0000
0100
0010
0000
0100
0010
0000
0001
0100
0000
0010
,  // measure 45
1000
0000
0002
0103
0000
0002
0013
0000
0200
1300
0000
0020
,  // measure 46
1030
0000
1000
0001
0000
0100
0010
0000
2000
3001
0000
0100
,  // measure 47
0001
0000
0020
0130
0000
2000
3010
0000
2000
3100
0000
0020
,  // measure 48
0031
0000
1000
0100
0000
1000
0100
0000
0010
0100
0000
1000
,  // measure 49
0002
0000
1003
0100
0000
0100
0010
0000
0010
0001
0000
0001
,  // measure 50
0200
0000
0310
1000
0000
1000
0001
0000
0001
0100
0000
0100
,  // measure 51
0020
0000
0130
0001
0000
0001
0010
0000
0010
0100
0000
0100
,  // measure 52
2000
0000
3001
1000
0000
1000
0010
0000
0010
0100
0000
0100
,  // measure 53
0020
0000
0130
0001
0000
0001
1000
0000
1000
0010
0000
0010
,  // measure 54
0200
0000
0310
1000
0000
1000
0001
0000
0001
0010
0000
0010
,  // measure 55
0200
0000
1300
0010
0000
0010
1000
0000
1000
0001
0000
0001
,  // measure 56
0020
0000
0031
0100
0000
0100
0010
0000
0010
0100
0000
0100
,  // measure 57
0001
1MM1
1M10
011M
,  // measure 58
100M
01M1
M011
M110
,  // measure 59
M001
M1M1
M110
101M
,  // measure 60
1M0M
11MM
10M1
0M11
,  // measure 61
0001
0000
1000
0001
0000
0100
0001
0000
,  // measure 62
0010
0000
0100
1000
0000
0001
1000
0000
,  // measure 63
0100
0000
1000
0010
0000
0100
0010
0000
,  // measure 64
1000
0000
0001
0010
0000
0100
1000
0010
,  // measure 65
1000
0100
0000
2000
0010
0000
0010
0000
,  // measure 66
3010
0100
0000
0000
0010
1000
0000
0000
,  // measure 67
0001
0010
0000
0000
0100
0010
0010
0010
,  // measure 68
0001
1000
0000
0000
0001
0100
0000
0000
,  // measure 69
0001
1000
0000
0200
1000
0000
1000
0000
,  // measure 70
1300
0010
0000
0000
1000
0001
0000
0000
,  // measure 71
0100
0010
0000
0200
0001
0000
0001
0000
,  // measure 72
0301
0010
0000
0000
0001
1000
1000
1000
,  // measure 73
0100
1000
0000
0020
0100
0000
0100
0000
,  // measure 74
0130
0001
0000
0000
0010
0001
0000
0000
,  // measure 75
1001
0000
1010
0000
0101
0000
0001
0001
,  // measure 76
0020
0030
0000
0000
,  // measure 77
MMMM
0000
0000
0000
,  // measure 78
0000
0000
0000
0000
,  // measure 79
0000
0000
0000
0000
,  // measure 80
0000
0000
0000
0000
,  // measure 81
0000
0000
0000
0000
,  // measure 82
0000
0000
0000
0000
,  // measure 83
0000
0000
0000
0000
,  // measure 84
MMMM
MMMM
0000
0000
,  // measure 85
0000
0000
0000
0000
,  // measure 86
0000
0000
0000
0000
,  // measure 87
0000
0000
0000
0000
,  // measure 88
0000
0000
0000
0000
,  // measure 89
0000
0000
0000
0000
,  // measure 90
0000
0000
0000
0000
,  // measure 91
0000
0000
0000
0000
,  // measure 92
MMMM
MMMM
MMMM
0000
;

//---------------dance-single - ----------------
#NOTEDATA:;
#CHARTNAME:Must Be Done;
#STEPSTYPE:dance-single;
#DESCRIPTION:;
#CHARTSTYLE:;
#DIFFICULTY:Beginner;
#METER:1;
#RADARVALUES:0.163543,0.214253,0.000000,0.143100,0.000000,144.000000,144.000000,0.000000,18.000000,0.000000,0.000000,0.000000,0.000000,0.000000,0.163543,0.214253,0.000000,0.143100,0.000000,144.000000,144.000000,0.000000,18.000000,0.000000,0.000000,0.000000,0.000000,0.000000;
#CREDIT:Phil Lee;
#OFFSET:0.000000;
#BPMS:0.000000=150.000000
;
#STOPS:368.000000=2.000000
;
#DELAYS:;
#WARPS:;
#TIMESIGNATURES:0.000000=4=4
;
#TICKCOUNTS:0.000000=4
;
#COMBOS:0.000000=1
;
#SPEEDS:0.000000=1.000000=0.000000=0
;
#SCROLLS:0.000000=1.000000
;
#FAKES:;
#LABELS:0.000000=Song Start
;
#NOTES:
// measure 0
0000
0000
0000
0000
,  // measure 1
0000
0000
0000
0000
,  // measure 2
0000
0000
0000
0000
,  // measure 3
0000
0000
0000
0000
,  // measure 4
1000
0000
0000
0000
,  // measure 5
0100
0000
0000
0000
,  // measure 6
0010
0000
0000
0000
,  // measure 7
0001
0000
0000
0000
,  // measure 8
1000
0100
0000
0100
,  // measure 9
0000
1000
0000
1000
,  // measure 10
0000
0001
0000
0001
,  // measure 11
0000
0100
0000
0100
,  // measure 12
0000
0001
0000
0001
,  // measure 13
0010
0010
0010
0000
,  // measure 14
0100
0100
0100
0000
,  // measure 15
1000
1000
1000
0000
,  // measure 16
0001
0001
0001
0000
,  // measure 17
0200
0000
0000
0000
,  // measure 18
0302
0000
0000
0000
,  // measure 19
0023
0000
0000
0000
,  // measure 20
0230
0000
0000
0000
,  // measure 21
1300
0100
0000
0100
,  // measure 22
0000
0010
0000
0010
,  // measure 23
0000
0001
0000
0001
,  // measure 24
0000
0100
0000
0100
,  // measure 25
0000
0001
0000
0001
,  // measure 26
0000
0010
0000
0010
,  // measure 27
0000
0100
0000
0100
,  // measure 28
0000
1000
0000
1000
,  // measure 29
0010
0000
0000
0000
,  // measure 30
1000
0000
0000
0000
,  // measure 31
0001
0001
0001
0000
,  // measure 32
0100
0100
0200
0000
,  // measure 33
0302
0000
0000
0000
,  // measure 34
0023
0000
0000
0000
,  // measure 35
0230
0000
0000
0000
,  // measure 36
2300
0000
0000
0000
,  // measure 37
3002
0000
0000
0000
,  // measure 38
2003
0000
0000
0000
,  // measure 39
3020
0000
0000
0000
,  // measure 40
0230
0000
0000
0000
,  // measure 41
0310
0000
1000
0000
,  // measure 42
0100
0100
0100
0000
,  // measure 43
0010
0000
0100
0000
,  // measure 44
1000
1000
1000
0000
,  // measure 45
0001
0000
0100
0000
,  // measure 46
0010
0010
0010
0000
,  // measure 47
1000
0000
0100
0000
,  // measure 48
1000
1000
1000
0000
,  // measure 49
0001
0000
0010
0000
,  // measure 50
0001
0001
0001
0000
,  // measure 51
0100
0000
0001
0000
,  // measure 52
0010
0010
0010
0000
,  // measure 53
0100
0000
1000
0000
,  // measure 54
0010
0010
0010
0000
,  // measure 55
1000
0000
0001
0000
,  // measure 56
1000
1000
1000
0000
,  // measure 57
0020
0000
0000
0000
,  // measure 58
2030
0000
0000
0000
,  // measure 59
3200
0000
0000
0000
,  // measure 60
0320
0000
0000
0000
,  // measure 61
0031
0001
0000
0100
,  // measure 62
0100
0100
0000
0001
,  // measure 63
0001
0001
0000
1000
,  // measure 64
1000
1000
0000
0010
,  // measure 65
0010
0000
0000
0010
0000
0000
0000
0000
,  // measure 66
0000
1000
0000
0000
0000
0100
0000
0000
,  // measure 67
0000
1000
0000
0000
0000
0001
0000
0000
,  // measure 68
0000
0010
0000
0000
0000
0100
0000
0000
,  // measure 69
1000
0000
0000
1000
0000
0000
0000
0000
,  // measure 70
0000
0010
0000
0000
0000
0100
0000
0000
,  // measure 71
0001
0000
0000
0001
0000
0000
0000
0000
,  // measure 72
0000
0010
0000
0000
0000
0100
0000
0000
,  // measure 73
0010
0000
0000
0010
0000
0000
0000
0000
,  // measure 74
0000
0001
0000
0000
0000
0100
0000
0000
,  // measure 75
0001
0000
1000
1000
,  // measure 76
2000
0000
0000
0000
,  // measure 77
3000
0000
0000
0000
;

//---------------dance-single - ----------------
#NOTEDATA:;
#CHARTNAME:Sorry...;
#STEPSTYPE:dance-single;
#DESCRIPTION:;
#CHARTSTYLE:;
#DIFFICULTY:Easy;
#METER:3;
#RADARVALUES:0.221465,0.306075,0.007950,0.190800,0.000000,195.000000,194.000000,1.000000,24.000000,0.000000,0.000000,0.000000,0.000000,0.000000,0.221465,0.306075,0.007950,0.190800,0.000000,195.000000,194.000000,1.000000,24.000000,0.000000,0.000000,0.000000,0.000000,0.000000;
#CREDIT:Phil Lee;
#OFFSET:0.000000;
#BPMS:0.000000=150.000000
;
#STOPS:368.000000=2.000000
;
#DELAYS:;
#WARPS:;
#TIMESIGNATURES:0.000000=4=4
;
#TICKCOUNTS:0.000000=4
;
#COMBOS:0.000000=1
;
#SPEEDS:0.000000=1.000000=0.000000=0
;
#SCROLLS:0.000000=1.000000
;
#FAKES:;
#LABELS:0.000000=Song Start
;
#NOTES:
// measure 0
0000
0000
0000
0000
,  // measure 1
0000
0000
0000
0000
,  // measure 2
0000
0000
0000
0000
,  // measure 3
0000
0000
0000
1000
,  // measure 4
0100
1000
0001
0100
,  // measure 5
0001
0010
0100
1000
,  // measure 6
0001
0100
0001
1000
,  // measure 7
0100
1000
0010
1000
,  // measure 8
0100
0000
0000
1000
0000
0000
0000
0000
,  // measure 9
0000
0001
0000
0000
0000
0100
0000
0000
,  // measure 10
0001
0000
0000
0010
0000
0000
0000
0000
,  // measure 11
0000
0100
0000
0000
0000
1000
0000
0000
,  // measure 12
0001
0000
0000
1000
0000
0000
0000
0000
,  // measure 13
0010
1000
0100
0010
,  // measure 14
0001
0100
0001
1000
,  // measure 15
0010
1000
0001
0020
,  // measure 16
0230
2300
3002
0203
,  // measure 17
0302
0000
0000
0000
,  // measure 18
2003
0000
0000
0000
,  // measure 19
3200
0000
0000
0000
,  // measure 20
2300
0000
0000
0000
,  // measure 21
3001
1000
0000
0010
,  // measure 22
0000
1000
0000
0001
,  // measure 23
0000
0010
0000
0100
,  // measure 24
0000
1000
0000
0001
,  // measure 25
0000
1000
0000
0100
,  // measure 26
0000
1000
0000
0001
,  // measure 27
0000
0100
0000
0001
,  // measure 28
0000
0010
0000
0100
,  // measure 29
1000
0000
0000
0000
,  // measure 30
0001
0000
0000
0000
,  // measure 31
0100
0001
0010
0100
,  // measure 32
1000
0010
2000
3002
,  // measure 33
2003
0000
0000
0000
,  // measure 34
3200
0000
0000
0000
,  // measure 35
2300
0000
0000
0000
,  // measure 36
3020
0000
0000
0000
,  // measure 37
0230
0000
0000
0000
,  // measure 38
0302
0000
0000
0000
,  // measure 39
2003
0000
0000
0000
,  // measure 40
3200
0000
0000
0300
,  // measure 41
1001
1000
0001
0010
,  // measure 42
0100
1000
0001
1000
,  // measure 43
0010
1000
0001
1000
,  // measure 44
0100
0010
0001
0100
,  // measure 45
0001
1000
0100
1000
,  // measure 46
0001
0010
0100
1000
,  // measure 47
0001
1000
0010
1000
,  // measure 48
0100
0010
0100
1000
,  // measure 49
0001
0100
0001
0010
,  // measure 50
0100
1000
0001
1000
,  // measure 51
0010
1000
0001
0010
,  // measure 52
0100
1000
0100
0010
,  // measure 53
0001
1000
0010
0100
,  // measure 54
0010
1000
0001
0100
,  // measure 55
0010
0100
0001
1000
,  // measure 56
0100
0010
0100
1000
,  // measure 57
0002
0100
0100
0103
,  // measure 58
0020
0100
0100
0130
,  // measure 59
0002
0010
0010
0013
,  // measure 60
0200
1000
1000
1300
,  // measure 61
0001
1000
0000
0100
,  // measure 62
0000
1000
0000
0001
,  // measure 63
0000
0010
0000
0100
,  // measure 64
0000
1000
0000
0001
,  // measure 65
0100
0000
0000
0001
0000
0000
0000
0000
,  // measure 66
0000
1000
0000
0000
0000
0010
0000
0000
,  // measure 67
0000
0100
0000
0000
0000
0001
0000
0000
,  // measure 68
0000
1000
0000
0000
0000
0100
0000
0000
,  // measure 69
1000
0000
0000
0001
0000
0000
0000
0000
,  // measure 70
0000
0010
0000
0000
0000
0001
0000
0000
,  // measure 71
0100
0000
0000
0001
0000
0000
0000
0000
,  // measure 72
0000
0010
0000
0000
0000
0100
0000
0000
,  // measure 73
1000
0000
0000
0001
0000
0000
0000
0000
,  // measure 74
0000
1000
0000
0000
0000
0100
0000
0000
,  // measure 75
1000
0000
0010
0000
,  // measure 76
2000
0000
0000
0000
,  // measure 77
3000
0000
0000
0000
;

//---------------dance-single - ----------------
#NOTEDATA:;
#CHARTNAME:Get Punished;
#STEPSTYPE:dance-single;
#DESCRIPTION:;
#CHARTSTYLE:;
#DIFFICULTY:Medium;
#METER:5;
#RADARVALUES:0.345258,0.461349,0.031800,0.182850,0.055650,304.000000,300.000000,4.000000,23.000000,0.000000,0.000000,0.000000,0.000000,0.000000,0.345258,0.461349,0.031800,0.182850,0.055650,304.000000,300.000000,4.000000,23.000000,0.000000,0.000000,0.000000,0.000000,0.000000;
#CREDIT:Phil Lee;
#OFFSET:0.000000;
#BPMS:0.000000=150.000000
;
#STOPS:368.000000=2.000000
;
#DELAYS:;
#WARPS:;
#TIMESIGNATURES:0.000000=4=4
;
#TICKCOUNTS:0.000000=4
;
#COMBOS:0.000000=1
;
#SPEEDS:0.000000=1.000000=0.000000=0
,66.000000=1.250000=1.000000=0
,67.000000=1.000000=1.000000=0
,304.000000=0.500000=4.000000=0
;
#SCROLLS:0.000000=1.000000
,84.000000=0.800000
,116.000000=0.500000
,120.000000=0.600000
,124.000000=0.700000
,128.000000=0.800000
,132.000000=0.900000
,160.000000=1.000000
,161.000000=1.100000
,162.000000=1.200000
,163.000000=1.300000
,164.000000=1.000000
;
#FAKES:;
#LABELS:0.000000=Song Start
;
#ATTACKS:TIME=65.629997:LEN=25.200001:MODS=*100 50% Beat:TIME=91.029999:LEN=0.200000:MODS=*100 0% Beat:TIME=65.629997:LEN=25.200001:MODS=*100 50% Beat:TIME=91.029999:LEN=0.200000:MODS=*100 0% Beat:TIME=65.629997:LEN=25.200001:MODS=*100 50% Beat:TIME=91.029999:LEN=0.200000:MODS=*100 0% Beat:TIME=65.629997:LEN=25.200001:MODS=*100 50% Beat:TIME=91.029999:LEN=0.200000:MODS=*100 0% Beat;
#NOTES:
// measure 0
0000
0000
0000
0000
,  // measure 1
0000
0000
0000
0000
,  // measure 2
0000
0000
0000
0000
,  // measure 3
0000
0000
0000
0000
0000
0000
0001
0100
,  // measure 4
0001
1000
0010
0100
,  // measure 5
0001
0010
0001
1000
,  // measure 6
0001
0010
0100
1000
,  // measure 7
0010
0000
0100
0000
0010
0000
1000
0001
,  // measure 8
1000
0001
0000
0100
0000
0000
0000
0000
,  // measure 9
0000
0001
0000
0000
0000
0010
0001
0010
,  // measure 10
0001
0010
0000
0100
0000
0000
0000
0000
,  // measure 11
0000
1000
0000
0000
0000
0001
0000
0000
,  // measure 12
0100
0001
0000
1000
0000
0000
0000
0000
,  // measure 13
0001
0100
0010
0100
,  // measure 14
0001
1000
0100
1000
,  // measure 15
0010
0100
0001
0010
,  // measure 16
0200
2300
3020
0230
,  // measure 17
0302
0000
0000
0000
,  // measure 18
2003
0000
0000
0000
,  // measure 19
3200
0000
0000
0000
,  // measure 20
0320
0000
0000
0000
,  // measure 21
0031
0000
1000
0100
0000
1000
0100
0000
,  // measure 22
0010
0000
0001
0100
0000
0001
0100
0000
,  // measure 23
0010
0000
0100
0001
0000
0100
0001
0000
,  // measure 24
1000
0000
0100
0010
0000
0100
0100
0100
,  // measure 25
1000
0000
0010
0100
0000
0010
0100
0000
,  // measure 26
0001
0000
0010
0100
0000
0010
0100
0000
,  // measure 27
1000
0000
0001
0100
0000
0001
0100
0000
,  // measure 28
0010
0000
0100
0001
0000
0100
0100
0100
,  // measure 29
0001
0000
0100
0010
0000
0100
0010
0000
,  // measure 30
1000
0000
0001
1000
0000
0001
1000
0000
,  // measure 31
1100
1001
0101
0011
,  // measure 32
1000
0001
1000
0001
0200
0000
0302
0000
,  // measure 33
1003
0100
1000
0001
,  // measure 34
0100
0001
0010
0100
,  // measure 35
1000
0001
0100
0001
,  // measure 36
0010
0100
0010
0001
,  // measure 37
1000
0010
0100
0010
,  // measure 38
1000
0001
0100
0001
,  // measure 39
1000
0100
1000
0001
,  // measure 40
0010
0100
1000
0001
,  // measure 41
0100
0001
0010
0100
,  // measure 42
1000
0000
0010
1000
0000
0010
1000
0000
0000
0001
0000
0100
,  // measure 43
0001
0010
0100
1000
,  // measure 44
0010
0000
0100
0010
0000
0100
0010
0000
0100
0010
0000
0100
,  // measure 45
0001
0010
0100
1000
,  // measure 46
0001
0000
0100
0001
0000
0100
0001
0000
0000
1000
0000
0100
,  // measure 47
1000
0001
0100
0001
,  // measure 48
1000
0000
0100
1000
0000
0100
1000
0000
0100
1000
0000
0100
,  // measure 49
2000
0010
0010
3010
,  // measure 50
0200
0010
0010
0310
,  // measure 51
2000
0001
0001
3001
,  // measure 52
0020
0100
0100
0130
,  // measure 53
2000
0100
0100
3100
,  // measure 54
0020
0001
0001
0031
,  // measure 55
2000
0001
0001
3001
,  // measure 56
0200
0001
0001
0301
,  // measure 57
2000
0100
0100
3100
,  // measure 58
0020
0100
0100
0130
,  // measure 59
2000
0001
0001
3001
,  // measure 60
0200
0001
0001
0301
,  // measure 61
1000
0000
0001
0010
0000
0001
0010
0000
,  // measure 62
0100
0000
1000
0010
0000
1000
0010
0000
,  // measure 63
0100
0000
0010
1000
0000
0010
1000
0000
,  // measure 64
0001
0000
0010
0100
0000
0010
0010
0010
,  // measure 65
0001
1000
0000
0001
0000
0000
0000
0000
,  // measure 66
0000
0100
0000
0000
0000
0010
0000
0000
,  // measure 67
0000
1000
0000
0000
0000
0001
0001
0001
,  // measure 68
0000
1000
0000
0000
0000
0010
0000
0000
,  // measure 69
1000
0100
0000
1000
0000
0000
0000
0000
,  // measure 70
0000
0001
0000
0000
0000
1000
0000
0000
,  // measure 71
0010
0100
0000
0001
0000
0000
0000
0000
,  // measure 72
0000
1000
0000
0000
0000
0010
0010
0010
,  // measure 73
0100
0001
0000
0010
0000
0000
0000
0000
,  // measure 74
0000
0001
0000
0000
0000
0100
0000
0000
,  // measure 75
0010
0000
1000
0000
0100
0000
1000
1000
,  // measure 76
0002
0000
0000
0000
,  // measure 77
0103
0010
0000
1000
0000
0000
0000
0000
;

//---------------dance-single - ----------------
#NOTEDATA:;
#CHARTNAME:This Will Hurt;
#STEPSTYPE:dance-single;
#DESCRIPTION:;
#CHARTSTYLE:;
#DIFFICULTY:Hard;
#METER:7;
#RADARVALUES:0.430436,0.522862,0.031800,0.246450,0.246450,379.000000,375.000000,4.000000,31.000000,10.000000,0.000000,4.000000,0.000000,0.000000,0.430436,0.522862,0.031800,0.246450,0.246450,379.000000,375.000000,4.000000,31.000000,10.000000,0.000000,4.000000,0.000000,0.000000;
#CREDIT:Phil Lee;
#OFFSET:0.000000;
#BPMS:0.000000=150.000000
;
#STOPS:368.000000=2.000000
;
#DELAYS:;
#WARPS:;
#TIMESIGNATURES:0.000000=4=4
;
#TICKCOUNTS:0.000000=4
;
#COMBOS:0.000000=1
;
#SPEEDS:0.000000=1.000000=0.000000=0
,66.000000=1.250000=1.000000=0
,67.000000=1.000000=1.000000=0
,304.000000=0.500000=4.000000=0
;
#SCROLLS:0.000000=1.000000
,68.000000=5.000000
,68.250000=0.750000
,84.000000=0.800000
,116.000000=0.500000
,120.000000=0.600000
,124.000000=0.700000
,128.000000=0.800000
,132.000000=0.900000
,160.000000=1.000000
,161.000000=1.100000
,162.000000=1.200000
,163.000000=1.300000
,164.000000=1.000000
;
#FAKES:;
#LABELS:0.000000=Song Start
;
#ATTACKS:TIME=65.629997:LEN=25.200001:MODS=*100 50% Beat:TIME=91.029999:LEN=0.200000:MODS=*100 0% Beat:TIME=65.629997:LEN=25.200001:MODS=*100 50% Beat:TIME=91.029999:LEN=0.200000:MODS=*100 0% Beat:TIME=65.629997:LEN=25.200001:MODS=*100 50% Beat:TIME=91.029999:LEN=0.200000:MODS=*100 0% Beat:TIME=65.629997:LEN=25.200001:MODS=*100 50% Beat:TIME=91.029999:LEN=0.200000:MODS=*100 0% Beat;
#NOTES:
// measure 0
0000
0000
0000
0000
,  // measure 1
0000
0000
0000
0000
,  // measure 2
0000
0000
0000
0000
,  // measure 3
0000
0000
0000
0000
0000
0000
0001
0100
,  // measure 4
0001
1000
0100
1000
,  // measure 5
0010
0100
0001
1000
,  // measure 6
0001
0100
0010
1000
,  // measure 7
0100
0000
1000
0000
0010
0000
0100
0001
,  // measure 8
1000
0001
0000
0200
0000
0000
0001
0000
,  // measure 9
0000
0301
0000
0000
0000
0010
0010
0010
,  // measure 10
0100
1000
0000
0020
0000
0000
0100
0000
,  // measure 11
0000
0130
0000
0000
0000
0001
0000
0000
,  // measure 12
1000
0100
0000
2000
0000
0000
3001
0000
,  // measure 13
0010
0100
1000
0001
1000
0100
1000
0001
,  // measure 14
0100
0010
0100
0001
1000
0100
0010
0001
,  // measure 15
1000
0000
0100
0000
0010
0000
0100
0000
1000
0000
0001
0000
0400
0040
0000
0000
,  // measure 16
M00M
0000
0000
0000
M00M
0000
0000
0000
M00M
0000
0000
0000
M00M
0000
0000
0330
,  // measure 17
2000
0100
0100
3100
,  // measure 18
0020
0001
0001
0031
,  // measure 19
0200
0001
0001
0301
,  // measure 20
0020
0100
0100
0130
,  // measure 21
1000
0000
0001
0100
0000
0001
0010
0000
,  // measure 22
0100
0000
1000
0001
0000
1000
0010
0000
,  // measure 23
0100
0000
0001
0010
0000
0100
1000
0000
,  // measure 24
0001
0000
0100
0010
0000
0100
0001
1000
,  // measure 25
0100
0000
1000
0010
0000
1000
0001
0000
,  // measure 26
0010
0000
0100
1000
0000
0001
0100
0000
,  // measure 27
0001
0000
0010
0100
0000
1000
0010
0000
,  // measure 28
1000
0000
0001
0100
0000
0001
1000
0100
,  // measure 29
1000
0000
0001
0100
0000
0010
0100
0000
,  // measure 30
0001
0000
1000
0100
0000
0010
0001
0000
,  // measure 31
1001
1010
0110
0101
,  // measure 32
1000
0000
0100
0000
0010
0000
0100
0000
4000
0004
0000
0000
0MM0
0000
0000
3003
,  // measure 33
0010
0000
0100
1000
0000
0001
0100
0000
0001
0010
0000
0100
,  // measure 34
1000
0000
0010
1000
0000
0001
0100
0000
0001
0010
0000
0001
,  // measure 35
1000
0000
0001
0100
0000
0001
0010
0000
0100
1000
0000
0001
,  // measure 36
1000
0000
0001
0100
0000
0010
0100
0000
0001
1000
0000
0100
,  // measure 37
1000
0000
0001
1000
0000
0100
0010
0000
0001
1000
0000
0001
,  // measure 38
0010
0000
0100
0010
0000
0001
1000
0000
0001
0100
0000
0001
,  // measure 39
1000
0000
0100
0010
0000
0001
1000
0000
0001
0100
0000
0010
,  // measure 40
1000
0000
0100
0010
0000
0001
0100
0000
0001
0010
0000
0100
,  // measure 41
1000
0001
0100
0001
,  // measure 42
0010
0000
0010
0100
0000
1000
0001
0000
0000
0100
0000
0001
,  // measure 43
1000
0100
0010
0001
,  // measure 44
1000
0000
0001
0100
0000
0001
0100
0000
0010
1000
0000
0001
,  // measure 45
0100
0001
1000
0100
,  // measure 46
1000
0000
1000
0010
0000
0100
0001
0000
0000
0010
0000
0100
,  // measure 47
1000
0001
0100
0001
,  // measure 48
1000
0000
0100
0010
0000
0100
0010
0000
0001
0100
0000
0010
,  // measure 49
2000
3002
0203
0302
,  // measure 50
1003
0000
1000
0001
0000
1000
0100
0000
0000
1000
0000
0010
,  // measure 51
2000
3002
0203
0320
,  // measure 52
1030
0000
0001
0010
0000
0001
0010
0000
0100
1000
0000
0001
,  // measure 53
2000
3020
0230
0302
,  // measure 54
1003
0000
1000
0001
0000
0010
0001
0000
0000
1000
0000
0100
,  // measure 55
2000
3002
0203
0302
,  // measure 56
1003
0000
0001
0010
0000
0001
0010
0000
0100
1000
0000
0100
,  // measure 57
0020
0001
0001
0031
,  // measure 58
2000
0001
0001
3001
,  // measure 59
0200
0010
0010
0310
,  // measure 60
2000
0100
0100
3100
,  // measure 61
1000
0000
0001
0010
0000
0100
0010
0000
,  // measure 62
0001
0000
1000
0010
0000
0100
0001
0000
,  // measure 63
1000
0000
0100
1000
0000
0010
1000
0000
,  // measure 64
0001
0000
0100
0001
0000
1000
0001
0100
,  // measure 65
0001
1000
0000
0100
0000
0000
0000
0000
,  // measure 66
0000
0100
0000
0000
0000
0100
0000
0000
,  // measure 67
0000
0100
0000
0000
0000
0100
0100
0100
,  // measure 68
0000
0100
0000
0000
0000
0100
0000
0000
,  // measure 69
1000
0010
0000
0100
0002
0000
0010
0000
,  // measure 70
0000
0013
0000
0000
0000
0001
0000
0000
,  // measure 71
0100
0001
0000
0010
0002
0000
1000
0000
,  // measure 72
0000
1003
0000
0000
0000
0010
1000
0100
,  // measure 73
1000
0001
0000
0100
0002
0000
0010
0000
,  // measure 74
0000
0013
0000
0000
0000
0100
0000
0000
,  // measure 75
1000
0000
0001
0000
0010
0000
0001
0001
,  // measure 76
0200
0000
0000
0000
,  // measure 77
0301
0010
0000
0100
0000
0000
0000
0000
;
