#VERSION:0.83;
#TITLE:Laser Warfare;
#SUBTITLE:;
#ARTIST:Xenomorph;
#TITLETRANSLIT:;
#SUBTITLETRANSLIT:;
#ARTISTTRANSLIT:;
#GENRE:;
#ORIGIN:;
#CREDIT:;
#BANNER:laser warfare-banner.png;
#BACKGROUND:laser warfare-bg.png;
#PREVIEWVID:;
#JACKET:;
#CDIMAGE:;
#DISCIMAGE:;
#LYRICSPATH:;
#CDTITLE:;
#MUSIC:8D07-85FC-98E9-4DAE-AD74-33E2-6C38-3FDC.ogg;
#OFFSET:0.000000;
#SAMPLESTART:75.000000;
#SAMPLELENGTH:15.000000;
#SELECTABLE:YES;
#BPMS:0.000=128.000,
180.000=64.000;
#STOPS:;
#DELAYS:;
#WARPS:;
#TIMESIGNATURES:0.000=4=4;
#TICKCOUNTS:0.000=4;
#COMBOS:0.000=1;
#SPEEDS:0.000=1.000=0.000=0;
#SCROLLS:0.000=1.000;
#FAKES:;
#LABELS:0.000=Song Start;
#BGCHANGES:;
#KEYSOUNDS:;
#ATTACKS:
;

//---------------dance-single - Beware of fakes with mines behind them----------------
#NOTEDATA:;
#CHARTNAME:Light Speed;
#STEPSTYPE:dance-single;
#DESCRIPTION:Beware of fakes with mines behind them;
#CHARTSTYLE:;
#DIFFICULTY:Challenge;
#METER:9;
#RADARVALUES:0.533322,3.895049,0.082050,0.328198,3.635823,364.000000,356.000000,8.000000,32.000000,61.000000,0.000000,2.000000,0.000000,1849.000000,0.533322,3.895049,0.082050,0.328198,3.635823,364.000000,356.000000,8.000000,32.000000,61.000000,0.000000,2.000000,0.000000,1849.000000;
#CREDIT:Jonathan Iraheta;
#OFFSET:0.000000;
#BPMS:0.000000=128.000000
,1336.000000=64.000000
,1366.000000=128.000000
;
#STOPS:;
#DELAYS:;
#WARPS:15.500000=240.000000
,278.500000=240.000000
,554.375000=176.000000
,731.125000=172.000000
,906.375000=164.000000
,1071.250000=164.000000
,1339.500000=24.000000
,1452.750000=24.000000
;
#TIMESIGNATURES:0.000000=4=4
;
#TICKCOUNTS:0.000000=4
;
#COMBOS:0.000000=1
;
#SPEEDS:0.000000=1.000000=0.000000=0
,12.000000=1.500000=0.500000=0
,12.500000=1.000000=0.500000=0
,13.000000=1.500000=0.500000=0
,13.500000=1.000000=0.500000=0
,14.000000=1.500000=0.500000=0
,14.500000=1.000000=0.500000=0
,15.000000=1.500000=0.500000=0
,255.500000=1.000000=0.500000=0
,534.000000=0.500000=1.500000=0
,535.500000=1.000000=0.500000=0
,1334.000000=0.500000=2.000000=0
;
#SCROLLS:0.000000=1.000000
,1336.000000=2.000000
,1366.000000=1.000000
;
#FAKES:;
#LABELS:0.000000=Song Start
;
#NOTES:
// measure 0
0000
0000
0000
0000
,  // measure 1
0000
0000
0000
0000
,  // measure 2
0001
0000
0000
0000
0000
0000
0001
0000
0000
0000
0001
0000
0000
0000
0000
0000
0000
0000
0010
0000
0000
0000
0000
0000
0010
0000
0000
0000
0000
0000
0000
0000
0000
0010
0000
0000
0000
0000
0000
0000
0000
0000
0010
0000
0000
0000
0000
0000
,  // measure 3
0200
0301
0200
1300
0020
0130
0004
0003
,  // measure 4
M000
0000
0000
00M0
0000
0000
0M00
0000
0000
0000
0000
0000
M00M
0000
0000
0000
0000
0000
000M
0000
0000
0000
0000
0000
M000
0000
00M0
0000
M000
0000
00M0
0000
0000
0000
0000
0000
0000
0000
0000
0000
0000
0000
M000
0000
0000
0000
000M
0000
,  // measure 5
M000
0000
0000
0000
M00M
0000
000M
0000
0M00
00M0
0000
M000
0000
0000
000M
000M
,  // measure 6
M000
0000
0000
0M00
0000
0000
00M0
0000
00M0
0000
0000
0M00
0000
0000
0M00
0000
,  // measure 7
M000
0000
0000
011M
0000
0000
000M
0000
0M00
0000
0000
10M1
0000
0000
00M0
0000
,  // measure 8
M000
0000
0000
00M0
0000
0000
M000
0000
M000
0000
0000
0M00
0000
0000
0M00
0000
,  // measure 9
M000
0000
0000
0000
0000
0000
00M0
0000
0000
0000
0000
0000
M000
0000
0000
000M
0000
0000
M000
0000
0000
0000
0000
0000
M000
0000
0000
0000
0000
0000
000M
0000
0010
0000
0000
0000
0M00
0000
0000
0000
0000
0000
000M
0000
0000
0000
0000
0000
,  // measure 10
M00M
M00M
M11M
M00M
M00M
M00M
M11M
M00M
M00M
M00M
M11M
M00M
0000
0000
0MM0
0MM0
,  // measure 11
0MM0
0MM0
1MM1
0MM0
0MM0
0MM0
1MM1
0MM0
0MM0
0MM0
1MM1
0MM0
0MM0
0MM0
1001
0000
,  // measure 12
0000
0000
0000
0000
,  // measure 13
0000
0000
0000
0000
,  // measure 14
0000
0000
0000
0000
,  // measure 15
0000
0000
0000
0000
,  // measure 16
0000
0000
0000
0000
,  // measure 17
0000
0000
0000
0000
,  // measure 18
0000
0000
0000
0000
,  // measure 19
0000
0000
0000
0000
,  // measure 20
0000
0000
0000
0000
,  // measure 21
0000
0000
0000
0000
,  // measure 22
0000
0000
0000
0000
,  // measure 23
0000
0000
0000
0000
,  // measure 24
0000
0000
0000
0000
,  // measure 25
0000
0000
0000
0000
,  // measure 26
0000
0000
0000
0000
,  // measure 27
0000
0000
0000
0000
,  // measure 28
0000
0000
0000
0000
,  // measure 29
0000
0000
0000
0000
,  // measure 30
0000
0000
0000
0000
,  // measure 31
0000
0000
0000
0000
,  // measure 32
0000
0000
0000
0000
,  // measure 33
0000
0000
0000
0000
,  // measure 34
0000
0000
0000
0000
,  // measure 35
0000
0000
0000
0000
,  // measure 36
0000
0000
0000
0000
,  // measure 37
0000
0000
0000
0000
,  // measure 38
0000
0000
0000
0000
,  // measure 39
0000
0000
0000
0000
,  // measure 40
0000
0000
0000
0000
,  // measure 41
0000
0000
0000
0000
,  // measure 42
0000
0000
0000
0000
,  // measure 43
0000
0000
0000
0000
,  // measure 44
0000
0000
0000
0000
,  // measure 45
0000
0000
0000
0000
,  // measure 46
0000
0000
0000
0000
,  // measure 47
0000
0000
0000
0000
,  // measure 48
0000
0000
0000
0000
,  // measure 49
0000
0000
0000
0000
,  // measure 50
0000
0000
0000
0000
,  // measure 51
0000
0000
0000
0000
,  // measure 52
0000
0000
0000
0000
,  // measure 53
0000
0000
0000
0000
,  // measure 54
0000
0000
0000
0000
,  // measure 55
0000
0000
0000
0000
,  // measure 56
0000
0000
0000
0000
,  // measure 57
0000
0000
0000
0000
,  // measure 58
0000
0000
0000
0000
,  // measure 59
0000
0000
0000
0000
,  // measure 60
0000
0000
0000
0000
,  // measure 61
0000
0000
0000
0000
,  // measure 62
0000
0000
0000
0000
,  // measure 63
0000
0000
0000
0000
,  // measure 64
1000
0000
0000
0010
0000
0000
0100
0000
0000
0000
0000
0000
1001
0000
0000
0000
0000
0000
0001
0000
0000
0000
0000
0000
1000
0000
0010
0000
1000
0000
0010
0000
0000
0000
0000
0000
0000
0000
0000
0000
0000
0000
1000
0000
0000
0000
0001
0000
,  // measure 65
1000
0000
0000
0000
1001
0000
0001
0000
0100
0010
0000
1000
0000
0000
0001
0001
,  // measure 66
1000
0000
0000
0100
0000
0000
0010
0000
0010
0000
0000
0100
0000
0000
0100
0000
,  // measure 67
2000
0000
0000
0MM1
0000
0000
3001
0000
0200
0000
0000
M01M
0000
0000
0310
0000
,  // measure 68
1000
0000
0000
0010
0000
0000
1000
0000
1000
0000
0000
0100
0000
0000
0100
0000
,  // measure 69
1000
0000
0000
0000
0000
0000
0010
0000
0000
0000
0000
0000
1000
0000
0000
0001
0000
0000
1000
0000
0000
0000
0000
0000
1000
0000
0000
0000
0000
0000
0001
0000
00M0
0000
0000
0000
0100
0000
0000
0000
0000
0000
0001
0000
0000
0000
0000
0000
,  // measure 70
M00M
L00L
L00L
L00L
L00L
L00L
L11L
L00L
L00L
L00L
L00L
L00L
L00L
L00L
L00L
L00L
L00L
L00L
L11L
L00L
L00L
L00L
L00L
L00L
L00L
L00L
L00L
L00L
L00L
L00L
L11L
L00L
L00L
L00L
L00L
L00L
L00L
0000
0000
0000
0000
0000
0MM0
0LL0
0LL0
0LL0
0LL0
0LL0
,  // measure 71
0LL0
0LL0
0LL0
0LL0
0LL0
0LL0
1LL1
0LL0
0LL0
0LL0
0LL0
0LL0
0LL0
0LL0
0LL0
0LL0
0LL0
0LL0
1LL1
0LL0
0LL0
0LL0
0LL0
0LL0
0LL0
0LL0
0LL0
0LL0
0LL0
0LL0
1LL1
0LL0
0LL0
0LL0
0LL0
0LL0
0LL0
0LL0
0LL0
0LL0
0LL0
0LL0
1LL1
0000
0000
0000
0000
0000
,  // measure 72
M000
0000
0000
000M
0000
0000
0M00
0000
0000
00M0
0000
0000
M000
0M00
M000
0M00
0000
0000
00M0
0000
0000
000M
0000
0M00
,  // measure 73
000M
0000
0000
00M0
0000
0000
000M
0000
000M
0000
0000
0000
0000
0000
0000
0000
,  // measure 74
M000
0000
0000
0000
0000
0000
0000
0000
0000
0000
0000
0000
0000
0000
0000
0000
0000
0000
0000
0000
0000
0000
0000
0000
0000
0000
0000
0000
0000
0000
0000
0000
0000
0000
0000
0000
0M00
0000
0000
0000
0000
0000
0000
0000
0000
0000
0000
0000
0000
0000
0000
0000
0000
0000
0000
0000
0000
0000
0000
0000
0000
0000
0000
0000
0000
0000
0000
0000
0000
0000
0000
0000
00M0
0000
0000
0000
0000
0000
0000
0000
0000
0000
0000
0000
0000
0000
0000
0000
0000
0000
0000
0000
0000
0000
0000
0000
00M0
0000
0000
0000
0000
0000
0000
0000
0000
0000
0000
0000
0000
0000
0000
0000
0000
0000
0000
0000
0000
0000
0000
0000
0000
0000
0000
0000
0000
0000
0000
0000
0000
0000
0000
0000
000M
0000
0000
0000
0000
0000
0000
0000
0000
0000
0000
0000
0000
0000
0000
0000
0000
0000
0000
0000
0000
0000
0000
0000
0000
0000
0000
0000
0111
0000
0000
0000
0000
0000
0000
0111
MMMM
0000
0000
0000
0000
0000
0000
0000
0111
0000
0000
0000
0000
0000
0000
0000
0000
0000
0000
0000
0000
0000
0000
0000
,  // measure 75
M000
0000
0000
0000
0000
0000
0000
0000
0000
0000
0000
0000
0000
0000
0000
0000
0000
0000
0000
0000
0000
0000
0000
0000
0000
0000
0000
0000
0000
0000
0000
0000
0000
0000
0000
0000
00M0
0000
0000
0000
0000
0000
0000
0000
0000
0000
0000
0000
0000
0000
0000
0000
0000
0000
0000
0000
0000
0000
0000
0000
0000
0000
0000
0000
1011
0000
0000
0000
0000
0000
0000
1011
MMMM
0000
0000
0000
0000
0000
0000
0000
1011
0000
0000
0000
0000
0000
0000
0000
0000
0000
0000
0000
0000
0000
0000
0000
0M00
0000
0000
0000
0000
0000
0000
0000
0000
0000
0000
0000
0000
0000
0000
0000
0000
0000
0000
0000
0000
0000
0000
0000
0000
0000
0000
0000
0000
0000
0000
0000
0000
0000
0000
0000
000M
0000
0000
0000
0000
0000
0000
0000
0000
0000
0000
0000
0000
0000
0000
0000
0000
0000
0000
0000
0000
0000
0000
0000
0000
0000
0000
0000
1110
0000
0000
0000
0000
0000
0000
1110
MMMM
0000
0000
0000
0000
0000
0000
0000
1110
0000
0000
0000
0000
0000
0000
0000
0000
0000
0000
0000
0000
0000
0000
0000
,  // measure 76
M000
0000
00M0
0000
0000
00M0
M000
0000
M000
0000
0000
000M
0000
000M
00M0
0000
,  // measure 77
00M0
0000
0M00
0000
0000
0M00
M000
0000
M000
0000
0000
0M00
0000
0M00
00M0
0000
,  // measure 78
1000
0000
0000
0100
0000
0010
0000
0000
0001
0000
0000
0001
0000
0000
000M
0000
,  // measure 79
0000
0000
0000
0000
,  // measure 80
0000
0000
0000
0000
,  // measure 81
0000
0000
0000
0000
,  // measure 82
0000
0000
0000
0000
,  // measure 83
0000
0000
0000
0000
,  // measure 84
0000
0000
0000
0000
,  // measure 85
0000
0000
0000
0000
,  // measure 86
0000
0000
0000
0000
,  // measure 87
0000
0000
0000
0000
,  // measure 88
0000
0000
0000
0000
,  // measure 89
0000
0000
0000
0000
,  // measure 90
0000
0000
0000
0000
,  // measure 91
0000
0000
0000
0000
,  // measure 92
0000
0000
0000
0000
,  // measure 93
0000
0000
0000
0000
,  // measure 94
0000
0000
0000
0000
,  // measure 95
0000
0000
0000
0000
,  // measure 96
0000
0000
0000
0000
,  // measure 97
0000
0000
0000
0000
,  // measure 98
0000
0000
0000
0000
,  // measure 99
0000
0000
0000
0000
,  // measure 100
0000
0000
0000
0000
,  // measure 101
0000
0000
0000
0000
,  // measure 102
0000
0000
0000
0000
,  // measure 103
0000
0000
0000
0000
,  // measure 104
0000
0000
0000
0000
,  // measure 105
0000
0000
0000
0000
,  // measure 106
0000
0000
0000
0000
,  // measure 107
0000
0000
0000
0000
,  // measure 108
0000
0000
0000
0000
,  // measure 109
0000
0000
0000
0000
,  // measure 110
0000
0000
0000
0000
,  // measure 111
0000
0000
0000
0000
,  // measure 112
0000
0000
0000
0000
,  // measure 113
0000
0000
0000
0000
,  // measure 114
0000
0000
0000
0000
,  // measure 115
0000
0000
0000
0000
,  // measure 116
0000
0000
0000
0000
,  // measure 117
0000
0000
0000
0000
,  // measure 118
0000
0000
0000
0000
,  // measure 119
0000
0000
0000
0000
,  // measure 120
0000
0000
0000
0000
,  // measure 121
0000
0000
0000
0000
,  // measure 122
0000
0000
0000
0000
,  // measure 123
0000
0000
0000
0000
,  // measure 124
0000
0000
0000
0000
,  // measure 125
0000
0000
0000
0000
,  // measure 126
0000
0000
0000
0000
,  // measure 127
0000
0000
0000
0000
,  // measure 128
0000
0000
0000
0000
,  // measure 129
0000
0000
0000
0000
0000
0001
0100
0001
,  // measure 130
2002
0MM0
0000
0MM0
0000
0MM0
3003
0220
,  // measure 131
0000
M00M
0000
M00M
0000
M00M
0000
M33M
,  // measure 132
1000
0000
0000
0001
0000
0000
0200
0000
0000
0320
0000
0000
1030
0100
1000
0100
0000
0000
0010
0000
0000
0001
0000
0100
,  // measure 133
0001
0000
0000
0010
0000
0000
0001
0000
0004
0000
0000
0000
0000
0000
0000
0000
,  // measure 134
1003
0000
0000
0000
0000
0000
0000
0000
0000
0000
0000
0000
0000
0000
0000
0000
0000
0000
0000
0000
0000
0000
0000
0000
0000
0000
0000
0000
0000
0000
0000
0000
0000
0000
0000
0000
0100
0000
0000
0000
0000
0000
0000
0000
0000
0000
0000
0000
0000
0000
0000
0000
0000
0000
0000
0000
0000
0000
0000
0000
0000
0000
0000
0000
0000
0000
0000
0000
0000
0000
0000
0000
0010
0000
0000
0000
0000
0000
0000
0000
0000
0000
0000
0000
0000
0000
0000
0000
0000
0000
0000
0000
0000
0000
0000
0000
0010
0000
0000
0000
0000
0000
0000
0000
0000
0000
0000
0000
0000
0000
0000
0000
0000
0000
0000
0000
0000
0000
0000
0000
0000
0000
0000
0000
0000
0000
0000
0000
0000
0000
0000
0000
0001
0000
0000
0000
0000
0000
0000
0000
0000
0000
0000
0000
0000
0000
0000
0000
0000
0000
0000
0000
0000
0000
0000
0000
0000
0000
0000
0000
0MMM
0000
0000
0000
0000
0000
0000
0MMM
1FFF
0000
0000
0000
0000
0000
0000
0000
0MMM
0000
0000
0000
0000
0000
0000
0000
0000
0000
0000
0000
0000
0000
0000
0000
,  // measure 135
1000
0000
0000
0000
0000
0000
0000
0000
0000
0000
0000
0000
0000
0000
0000
0000
0000
0000
0000
0000
0000
0000
0000
0000
0000
0000
0000
0000
0000
0000
0000
0000
0000
0000
0000
0000
0010
0000
0000
0000
0000
0000
0000
0000
0000
0000
0000
0000
0000
0000
0000
0000
0000
0000
0000
0000
0000
0000
0000
0000
0000
0000
0000
0000
M0MM
0000
0000
0000
0000
0000
0000
M0MM
F1FF
0000
0000
0000
0000
0000
0000
0000
M0MM
0000
0000
0000
0000
0000
0000
0000
0000
0000
0000
0000
0000
0000
0000
0000
0100
0000
0000
0000
0000
0000
0000
0000
0000
0000
0000
0000
0000
0000
0000
0000
0000
0000
0000
0000
0000
0000
0000
0000
0000
0000
0000
0000
0000
0000
0000
0000
0000
0000
0000
0000
0001
0000
0000
0000
0000
0000
0000
0000
0000
0000
0000
0000
0000
0000
0000
0000
0000
0000
0000
0000
0000
0000
0000
0000
0000
0000
0000
0000
MMM0
0000
0000
0000
0000
0000
0000
MMM0
FFF1
0000
0000
0000
0000
0000
0000
0000
MMM0
0000
0000
0000
0000
0000
0000
0000
0000
0000
0000
0000
0000
0000
0000
0000
,  // measure 136
1000
0000
0010
0000
0000
0010
1000
0000
1000
0000
0000
0001
0000
0001
0010
0000
,  // measure 137
0010
0000
0100
0000
0000
0100
1000
0000
1000
0000
0000
0100
0000
0100
0010
0000
,  // measure 138
0000
0000
0000
0001
0000
1000
0000
0010
0001
0000
0000
000M
0000
0000
1111
0000
,  // measure 139
00M0
0000
M000
0000
M000
0000
0000
0000
000M
0000
0000
0001
0000
0000
MMMM
0000
,  // measure 140
M000
0000
M00M
0000
M000
00M0
0M00
000M
0M00
00M0
M000
000M
0M00
00M0
M000
000M
,  // measure 141
M000
0000
0000
0MM0
0000
0000
M00M
0000
M000
000M
0000
0M00
0000
0000
0MM0
0000
,  // measure 142
M000
0000
0000
0MM0
0000
0000
M00M
0000
M000
000M
0000
0M00
0000
0000
0MM0
0000
,  // measure 143
M0M0
0000
0000
0M00
000M
0000
0000
0M00
000M
0000
M000
000M
00M0
0M00
0M00
00M0
,  // measure 144
000M
0000
0000
0M00
000M
0000
0000
0M00
000M
0000
M000
000M
00M0
0M00
0M00
00M0
,  // measure 145
M0M0
0000
0000
0M00
000M
0000
0000
0M00
000M
0000
M000
0M00
00M0
000M
00M0
0M00
,  // measure 146
M000
0000
0000
0M00
000M
0000
0000
0M00
000M
0000
M000
000M
M000
00M0
M000
00M0
,  // measure 147
M0M0
0000
0000
0M00
000M
0000
0000
0M00
000M
0000
M000
000M
00M0
0M00
0M00
00M0
,  // measure 148
M0M0
0000
0000
00M0
M000
0000
0000
00M0
M000
0000
000M
00M0
000M
M000
000M
0M00
,  // measure 149
000M
0000
0000
M000
000M
0000
0000
0M00
000M
0000
M000
000M
00M0
000M
M000
000M
,  // measure 150
0M00
0000
0000
M000
0M00
0000
0000
00M0
000M
0000
M000
0M00
00M0
0M00
M000
00M0
,  // measure 151
M0M0
0000
0000
0M00
000M
0000
0000
0M00
000M
0000
M000
000M
00M0
0M00
0M00
00M0
,  // measure 152
M000
00M0
0M00
000M
,  // measure 153
0MM0
0MM0
M0M0
0M0M
,  // measure 154
M00M
0MM0
000M
M000
,  // measure 155
MM00
00MM
0MM0
M0M0
,  // measure 156
0M0M
M00M
0M0M
M00M
,  // measure 157
0M00
0M00
00M0
000M
,  // measure 158
000M
0000
00M0
0M00
0000
M000
0M00
0000
M000
00M0
0000
000M
0M0M
0000
0000
0000
,  // measure 159
M00M
0000
M000
000M
0000
000M
0M00
0000
M000
00M0
0000
0M00
00M0
0000
0000
0000
,  // measure 160
000M
0000
00M0
0M00
0000
M000
0M00
0000
M000
00M0
0000
000M
0M0M
0000
0000
0000
,  // measure 161
M00M
0000
M000
000M
0000
000M
0M00
0000
M000
00M0
0000
0M00
00M0
0000
0000
0000
,  // measure 162
0M00
00M0
000M
M000
00M0
0000
M000
0000
000M
0000
0000
0000
00M0
0M00
000M
0M00
,  // measure 163
00M0
M000
00M0
0M00
000M
0000
M000
0000
00M0
0000
0000
0000
000M
0M00
M000
00M0
,  // measure 164
000M
0M00
000M
M000
00M0
0000
0M00
0000
0M00
0000
0000
0000
000M
00M0
0M00
M000
,  // measure 165
00M0
0M00
000M
M000
,  // measure 166
00M0
000M
0M00
M000
,  // measure 167
0M00
00M0
000M
000M
,  // measure 168
00M0
0000
0M00
0000
M000
0000
00M0
0000
0M00
0000
000M
0M00
0000
00M0
000M
0000
,  // measure 169
M000
0000
0M00
0000
00M0
0000
000M
0000
M000
0000
00M0
00M0
0000
0M00
M000
0000
,  // measure 170
00M0
0000
0M00
0000
M000
0000
00M0
0000
0M00
0000
000M
0M00
0000
00M0
000M
0000
,  // measure 171
M000
0000
0M00
0000
00M0
0000
000M
0000
M000
0000
00M0
00M0
0000
0M00
M000
0000
,  // measure 172
M000
0000
M00M
0000
000M
0000
M00M
0000
000M
00M0
0M00
M000
0M00
0000
00MM
0000
,  // measure 173
M00M
M0M0
0M00
M00M
,  // measure 174
0110
0000
1111
0000
1111
0000
1111
0000
000M
00M0
0M00
M000
0000
0000
0000
0000
,  // measure 175
0M00
0000
0000
00M0
0000
0000
M000
0000
0000
0M00
0000
0000
00M0
0000
0000
0000
000M
0000
00M0
0000
0M00
0000
M000
0000
0000
0000
0000
0000
0000
0000
0000
0000
,  // measure 176
0M00
0000
0000
00M0
0000
0000
M000
0000
0000
0M00
0000
0000
00M0
0000
0000
0000
M000
0000
0000
0M00
0000
0000
00M0
0000
000M
0M00
0000
0000
M00M
0000
0000
0000
,  // measure 177
0000
0000
0000
0000
,  // measure 178
0000
0000
0000
0000
,  // measure 179
0000
0000
0000
0000
,  // measure 180
0000
0000
0000
0000
,  // measure 181
0000
0000
0000
0000
,  // measure 182
0000
0000
0000
0000
0000
0000
0000
0000
0000
0000
0000
0001
0000
0000
1000
0000
,  // measure 183
00M0
0000
M000
0000
M000
0000
0000
0000
000M
0000
0000
0001
0000
0000
MMMM
0000
,  // measure 184
M000
0000
M00M
0000
M000
00M0
0M00
000M
0M00
00M0
M000
000M
0M00
00M0
M000
000M
,  // measure 185
M000
0000
0000
0MM0
0000
0000
M00M
0000
M000
000M
0000
0M00
0000
0000
0MM0
0000
,  // measure 186
M000
0000
0000
0MM0
0000
0000
M00M
0000
M000
000M
0000
0M00
0000
0000
0MM0
0000
,  // measure 187
M0M0
0000
0000
0M00
000M
0000
0000
0M00
000M
0000
M000
000M
00M0
0M00
0M00
00M0
,  // measure 188
000M
0000
0000
0M00
000M
0000
0000
0M00
000M
0000
M000
000M
00M0
0M00
0M00
00M0
,  // measure 189
M0M0
0000
0000
0M00
000M
0000
0000
0M00
000M
0000
M000
0M00
00M0
000M
00M0
0M00
,  // measure 190
M000
0000
0000
0M00
000M
0000
0000
0M00
000M
0000
M000
000M
M000
00M0
M000
00M0
,  // measure 191
M0M0
0000
0000
0M00
000M
0000
0000
0M00
000M
0000
M000
000M
00M0
0M00
0M00
00M0
,  // measure 192
M0M0
0000
0000
00M0
M000
0000
0000
00M0
M000
0000
000M
00M0
000M
M000
000M
0M00
,  // measure 193
000M
0000
0000
M000
000M
0000
0000
0M00
000M
0000
M000
000M
00M0
000M
M000
000M
,  // measure 194
0M00
0000
0000
M000
0M00
0000
0000
00M0
000M
0000
M000
0M00
00M0
0M00
M000
00M0
,  // measure 195
M0M0
0000
0000
0M00
000M
0000
0000
0M00
000M
0000
M000
000M
00M0
0M00
0M00
00M0
,  // measure 196
M000
00M0
0M00
000M
,  // measure 197
0MM0
0MM0
M0M0
0M0M
,  // measure 198
M00M
0MM0
000M
M000
,  // measure 199
MM00
00MM
0MM0
M0M0
,  // measure 200
0M0M
M00M
0M0M
M00M
,  // measure 201
0M00
0M00
00M0
000M
,  // measure 202
000M
0000
00M0
0M00
0000
M000
0M00
0000
M000
00M0
0000
000M
0M0M
0000
0000
0000
,  // measure 203
M00M
0000
M000
000M
0000
000M
0M00
0000
M000
00M0
0000
0M00
00M0
0000
0000
0000
,  // measure 204
000M
0000
00M0
0M00
0000
M000
0M00
0000
M000
00M0
0000
000M
0M0M
0000
0000
0000
,  // measure 205
M00M
0000
M000
000M
0000
000M
0M00
0000
M000
00M0
0000
0M00
00M0
0000
0000
0000
,  // measure 206
0M00
00M0
000M
M000
00M0
0000
M000
0000
000M
0000
0000
0000
00M0
0M00
000M
0M00
,  // measure 207
00M0
M000
00M0
0M00
000M
0000
M000
0000
00M0
0000
0000
0000
000M
0M00
M000
00M0
,  // measure 208
000M
0M00
000M
M000
00M0
0000
0M00
0000
0M00
0000
0000
0000
000M
00M0
0M00
M000
,  // measure 209
00M0
0M00
000M
M000
,  // measure 210
00M0
000M
0M00
M000
,  // measure 211
0M00
00M0
000M
000M
,  // measure 212
00M0
0000
0M00
0000
M000
0000
00M0
0000
0M00
0000
000M
0M00
0000
00M0
000M
0000
,  // measure 213
M000
0000
0M00
0000
00M0
0000
000M
0000
M000
0000
00M0
00M0
0000
0M00
M000
0000
,  // measure 214
00M0
0000
0M00
0000
M000
0000
00M0
0000
0M00
0000
000M
0M00
0000
00M0
000M
0000
,  // measure 215
M000
0000
0M00
0000
00M0
0000
000M
0000
M000
0000
00M0
00M0
0000
0M00
M000
0000
,  // measure 216
M000
0000
M00M
0000
000M
0000
M00M
0000
000M
00M0
0M00
M000
0M00
0000
00MM
0000
,  // measure 217
M00M
M0M0
0M00
M00M
,  // measure 218
0110
0000
1111
0000
1111
0000
1111
0000
000M
00M0
0M00
M000
0000
0000
0000
0000
,  // measure 219
0M00
0000
0000
00M0
0000
0000
M000
0000
0000
0M00
0000
0000
00M0
0000
0000
0000
000M
0000
00M0
0000
0M00
0000
M000
0000
0000
0000
0000
0000
0000
0000
0000
0000
,  // measure 220
0M00
0000
0000
00M0
0000
0000
M000
0000
0000
0M00
0000
0000
00M0
0000
0000
0000
M000
0000
0000
0M00
0000
0000
00M0
0000
000M
0M00
0000
0000
M00M
0000
0000
0000
,  // measure 221
0000
0000
0000
0000
,  // measure 222
0000
0000
0000
0000
,  // measure 223
0000
0000
0000
0000
,  // measure 224
0000
0000
0000
0000
,  // measure 225
0000
0000
0000
0000
0000
0000
0000
000M
,  // measure 226
0010
0000
1000
0000
1000
0000
0000
0000
0001
0000
0000
000M
0000
0000
1111
0000
,  // measure 227
00M0
0000
0000
M000
0000
00M0
0000
000M
0000
0000
0000
M000
0000
0M00
0000
0000
,  // measure 228
M000
0000
0000
00M0
0000
0000
M000
0000
M000
0000
0000
0M00
0000
0000
0M00
0000
,  // measure 229
M000
0000
0000
0000
00M0
0000
0000
0000
0000
0M00
0000
0000
0000
0000
0000
0000
0000
0000
000M
0000
0000
0000
0000
0000
000M
0000
0000
0000
0000
0000
0000
0000
0000
00M0
0000
0000
0000
0000
0000
0000
0000
0000
00M0
0000
0000
0000
0000
0000
,  // measure 230
000M
0000
0000
000M
0M00
0000
0000
0M00
00M0
0000
0000
00M0
M000
0M00
0M00
00M0
,  // measure 231
000M
0000
0000
000M
M000
0000
0000
M000
0M00
0000
0000
0M00
M000
00M0
00M0
0M00
,  // measure 232
000M
0000
0000
000M
M000
0000
0000
M000
00M0
0000
0000
00M0
M000
0M00
0M00
00M0
,  // measure 233
0M00
0000
0000
0M00
M000
0000
0000
M000
000M
0000
0000
000M
M000
0M00
0M00
M000
,  // measure 234
00M0
0000
0000
00M0
0M00
0000
0000
0M00
000M
0000
0000
000M
00M0
0M00
0M00
00M0
,  // measure 235
M0M0
0000
0000
00M0
M000
0000
0000
00M0
M000
0000
000M
00M0
000M
M000
000M
0M00
,  // measure 236
000M
0000
0000
M000
000M
0000
0000
0M00
000M
0000
M000
000M
00M0
000M
M000
000M
,  // measure 237
0M00
0000
0000
M000
0M00
0000
0000
00M0
000M
0000
M000
0M00
00M0
0M00
M000
00M0
,  // measure 238
M0M0
0000
0000
0M00
000M
0000
0000
0M00
000M
0000
M000
000M
00M0
0M00
0M00
00M0
,  // measure 239
M000
00M0
0M00
000M
,  // measure 240
0MM0
0MM0
M0M0
0M0M
,  // measure 241
M00M
0MM0
000M
M000
,  // measure 242
MM00
00MM
0MM0
M0M0
,  // measure 243
0M0M
M00M
0M0M
M00M
,  // measure 244
0M00
0M00
00M0
000M
,  // measure 245
000M
0000
00M0
0M00
0000
M000
0M00
0000
M000
00M0
0000
000M
0M0M
0000
0000
0000
,  // measure 246
M00M
0000
M000
000M
0000
000M
0M00
0000
M000
00M0
0000
0M00
00M0
0000
0000
0000
,  // measure 247
000M
0000
00M0
0M00
0000
M000
0M00
0000
M000
00M0
0000
000M
0M0M
0000
0000
0000
,  // measure 248
M00M
0000
M000
000M
0000
000M
0M00
0000
M000
00M0
0000
0M00
00M0
0000
0000
0000
,  // measure 249
0M00
00M0
000M
M000
00M0
0000
M000
0000
000M
0000
0000
0000
00M0
0M00
000M
0M00
,  // measure 250
00M0
M000
00M0
0M00
000M
0000
M000
0000
00M0
0000
0000
0000
000M
0M00
M000
00M0
,  // measure 251
000M
0M00
000M
M000
00M0
0000
0M00
0000
0M00
0000
0000
0000
000M
00M0
0M00
M000
,  // measure 252
00M0
0M00
000M
M000
,  // measure 253
00M0
000M
0M00
M000
,  // measure 254
0M00
00M0
000M
000M
,  // measure 255
00M0
0000
0M00
0000
M000
0000
00M0
0000
0M00
0000
000M
0M00
0000
00M0
000M
0000
,  // measure 256
M000
0000
0M00
0000
00M0
0000
000M
0000
M000
0000
00M0
00M0
0000
0M00
M000
0000
,  // measure 257
00M0
0000
0M00
0000
M000
0000
00M0
0000
0M00
0000
000M
0M00
0000
00M0
000M
0000
,  // measure 258
M000
0000
0M00
0000
00M0
0000
000M
0000
M000
0000
00M0
00M0
0000
0M00
M000
0000
,  // measure 259
M000
0000
M00M
0000
000M
0000
M00M
0000
000M
00M0
0M00
M000
0M00
0000
00MM
0000
,  // measure 260
M00M
M0M0
0M00
M00M
,  // measure 261
0110
0000
1111
0000
1111
0000
1111
0000
000M
00M0
0M00
M000
0000
0000
0000
0000
,  // measure 262
0M00
0000
0000
00M0
0000
0000
M000
0000
0000
0M00
0000
0000
00M0
0000
0000
0000
000M
0000
00M0
0000
0M00
0000
M000
0000
0000
0000
0000
0000
0000
0000
0000
0000
,  // measure 263
0M00
0000
0000
00M0
0000
0000
M000
0000
0000
0M00
0000
0000
00M0
0000
0000
0000
M000
0000
0000
0M00
0000
0000
00M0
0000
000M
0M00
0000
0000
M00M
0000
0000
0000
,  // measure 264
0000
0000
0000
0000
,  // measure 265
0000
0000
0000
0000
,  // measure 266
0000
0000
0000
0000
,  // measure 267
0000
0000
0000
0000
0000
0000
0000
0000
0000
0000
0000
0001
0000
0000
1000
0000
,  // measure 268
00M0
0000
0000
M000
0000
00M0
0000
000M
0000
0000
0000
M000
0000
0M00
0000
0000
,  // measure 269
M000
0000
0000
00M0
0000
0000
M000
0000
M000
0000
0000
0M00
0000
0000
0M00
0000
,  // measure 270
M000
0000
0000
0000
00M0
0000
0000
0000
0000
0M00
0000
0000
0000
0000
0000
0000
0000
0000
000M
0000
0000
0000
0000
0000
000M
0000
0000
0000
0000
0000
0000
0000
0000
00M0
0000
0000
0000
0000
0000
0000
0000
0000
00M0
0000
0000
0000
0000
0000
,  // measure 271
000M
0000
0000
000M
0M00
0000
0000
0M00
00M0
0000
0000
00M0
M000
0M00
0M00
00M0
,  // measure 272
000M
0000
0000
000M
M000
0000
0000
M000
0M00
0000
0000
0M00
M000
00M0
00M0
0M00
,  // measure 273
000M
0000
0000
000M
M000
0000
0000
M000
00M0
0000
0000
00M0
M000
0M00
0M00
00M0
,  // measure 274
0M00
0000
0000
0M00
M000
0000
0000
M000
000M
0000
0000
000M
M000
0M00
0M00
M000
,  // measure 275
00M0
0000
0000
00M0
0M00
0000
0000
0M00
000M
0000
0000
000M
00M0
0M00
0M00
00M0
,  // measure 276
000M
0000
0000
00M0
M000
0000
0000
00M0
M000
0000
000M
00M0
000M
M000
000M
0M00
,  // measure 277
000M
0000
0000
M000
000M
0000
0000
0M00
000M
0000
M000
000M
00M0
000M
M000
000M
,  // measure 278
0M00
0000
0000
M000
0M00
0000
0000
00M0
000M
0000
M000
0M00
00M0
0M00
M000
00M0
,  // measure 279
M0M0
0000
0000
0M00
000M
0000
0000
0M00
000M
0000
M000
000M
00M0
0M00
0M00
00M0
,  // measure 280
M000
00M0
0M00
000M
,  // measure 281
0MM0
0MM0
M0M0
0M0M
,  // measure 282
M00M
0MM0
000M
M000
,  // measure 283
MM00
00MM
0MM0
M0M0
,  // measure 284
0M0M
M00M
0M0M
M00M
,  // measure 285
0M00
0M00
00M0
000M
,  // measure 286
000M
0000
00M0
0M00
0000
M000
0M00
0000
M000
00M0
0000
000M
0M0M
0000
0000
0000
,  // measure 287
M00M
0000
M000
000M
0000
000M
0M00
0000
M000
00M0
0000
0M00
00M0
0000
0000
0000
,  // measure 288
000M
0000
00M0
0M00
0000
M000
0M00
0000
M000
00M0
0000
000M
0M0M
0000
0000
0000
,  // measure 289
M00M
0000
M000
000M
0000
000M
0M00
0000
M000
00M0
0000
0M00
00M0
0000
0000
0000
,  // measure 290
0M00
00M0
000M
M000
00M0
0000
M000
0000
000M
0000
0000
0000
00M0
0M00
000M
0M00
,  // measure 291
00M0
M000
00M0
0M00
000M
0000
M000
0000
00M0
0000
0000
0000
000M
0M00
M000
00M0
,  // measure 292
000M
0M00
000M
M000
00M0
0000
0M00
0000
0M00
0000
0000
0000
000M
00M0
0M00
M000
,  // measure 293
00M0
0M00
000M
M000
,  // measure 294
00M0
000M
0M00
M000
,  // measure 295
0M00
00M0
000M
000M
,  // measure 296
00M0
0000
0M00
0000
M000
0000
00M0
0000
0M00
0000
000M
0M00
0000
00M0
000M
0000
,  // measure 297
M000
0000
0M00
0000
00M0
0000
000M
0000
M000
0000
00M0
00M0
0000
0M00
M000
0000
,  // measure 298
00M0
0000
0M00
0000
M000
0000
00M0
0000
0M00
0000
000M
0M00
0000
00M0
000M
0000
,  // measure 299
M000
0000
0M00
0000
00M0
0000
000M
0000
M000
0000
00M0
00M0
0000
0M00
M000
0000
,  // measure 300
M000
0000
M00M
0000
000M
0000
M00M
0000
000M
00M0
0M00
M000
0M00
0000
00MM
0000
,  // measure 301
M00M
M0M0
0M00
M00M
,  // measure 302
0110
0000
1111
0000
1111
0000
1111
0000
000M
00M0
0M00
M000
0000
0000
0000
0000
,  // measure 303
0M00
0000
0000
00M0
0000
0000
M000
0000
0000
0M00
0000
0000
00M0
0000
0000
0000
000M
0000
00M0
0000
0M00
0000
M000
0000
0000
0000
0000
0000
0000
0000
0000
0000
,  // measure 304
0M00
0000
0000
00M0
0000
0000
M000
0000
0000
0M00
0000
0000
00M0
0000
0000
0000
M000
0000
0000
0M00
0000
0000
00M0
0000
000M
0M00
0000
0000
M00M
0000
0000
0000
,  // measure 305
0000
0000
0000
0000
,  // measure 306
0000
0000
0000
0000
,  // measure 307
0000
0000
0000
0000
,  // measure 308
0000
0000
0000
0000
0000
0000
0000
0MM0
,  // measure 309
0010
0000
0000
1000
0000
0010
0000
0001
0000
0000
0000
1000
0000
0100
0000
0000
,  // measure 310
1000
0000
0000
0010
0000
0000
1000
0000
1000
0000
0000
0100
0000
0000
0100
0000
,  // measure 311
1000
0000
0000
0000
0020
0000
0000
0000
0000
0130
0000
0000
0000
0000
0000
0000
0000
0000
0001
0000
0000
0000
0000
0000
0001
0000
0000
0000
0000
0000
0000
0000
0000
0010
0000
0000
0000
0000
0000
0000
0000
0000
0010
0000
0000
0000
0000
0000
,  // measure 312
0001
0000
0000
0001
0100
0000
0000
0100
0010
0000
0000
0010
1000
0100
0100
0010
,  // measure 313
0001
0000
0000
0001
1000
0000
0000
1000
0100
0000
0000
0100
1000
0010
0010
0100
,  // measure 314
0001
0000
0000
0001
1000
0000
0000
1000
0010
0000
0000
0010
1000
0100
0100
0010
,  // measure 315
0100
0000
0000
0100
1000
0000
0000
1000
0001
0000
0000
0001
1000
0100
0100
1000
,  // measure 316
0010
0000
0000
0010
0100
0000
0000
0100
0001
0000
0000
0001
0010
0100
0100
0010
,  // measure 317
0001
0000
0000
0001
0100
0000
0000
0100
0010
0000
0000
0010
1000
0100
0100
1000
,  // measure 318
0010
0000
0000
0010
1000
0000
0000
1000
0100
0000
0000
0100
1000
0010
0010
0100
,  // measure 319
0010
0000
0000
0010
1000
0000
0000
1000
0001
0000
0000
0001
0100
0010
0010
1000
,  // measure 320
0100
0000
0000
0100
1000
0000
0000
1000
0001
0000
0000
0001
0100
0010
0010
0100
,  // measure 321
0001
0000
0000
0001
0010
0000
0000
0010
0100
0000
0000
0100
1000
0100
0100
0010
,  // measure 322
0100
0000
0000
0100
1000
0000
0000
1000
0010
0000
0000
0010
0100
0001
0001
0010
,  // measure 323
0001
0000
0000
0001
0100
0000
0100
0000
0100
0000
0100
0001
0000
0001
0100
0010
,  // measure 324
0100
0000
0000
0100
0001
0000
0001
0000
0001
0000
0001
0010
0000
0010
0100
1000
,  // measure 325
0001
0000
0000
0001
0000
0000
0100
0000
0000
0100
0000
0000
0010
0000
0000
0000
,  // measure 326
0000
0000
0000
1000
0000
0000
1000
0000
0000
0000
0000
0000
0001
0000
0000
0000
0000
0000
0010
0000
0000
0000
0010
0000
0000
0000
0000
0010
0000
0000
0000
0000
0000
0010
0000
0000
0100
0000
0000
0000
0000
0000
0100
0000
0000
0000
0000
0000
,  // measure 327
1000
0000
0001
0000
0020
0000
0032
0000
0103
0000
0000
0010
0000
1000
0100
0000
,  // measure 328
1000
0000
0010
0000
0000
0010
0100
0000
0100
0000
0000
0001
0000
0010
0001
0000
,  // measure 329
1000
0000
0100
0000
2000
0000
3020
0000
0130
0000
0000
0001
0000
0010
0001
0000
,  // measure 330
0100
0000
0000
0100
0000
0000
0010
0000
0000
0010
0000
0000
1000
0000
0000
0000
,  // measure 331
0001
0000
0100
0000
0002
0000
0023
0000
0130
1000
0100
1000
0010
0000
0100
0000
,  // measure 332
0001
0000
0000
0100
0000
0000
0010
0000
0000
1000
0000
0000
0001
0000
0000
0000
,  // measure 333
1000
0000
0100
0000
0020
0000
0032
0000
1003
0010
0100
0001
0100
0000
0010
0000
,  // measure 334
2002
3003
0000
2020
3030
0000
0202
0303
2002
0000
0000
0000
0000
0000
0000
3003
,  // measure 335
0110
0000
1111
0000
1111
0000
0111
M000
000M
00M0
0M00
M000
0000
0000
0000
0000
,  // measure 336
0M00
0000
0000
00M0
0000
0000
000M
0000
0000
0M00
0000
0000
00M0
0000
M000
0000
,  // measure 337
0M00
00M0
000M
M000
0000
0000
0000
0000
,  // measure 338
00M0
0000
0000
0M00
0000
0000
000M
0000
0000
0M00
0000
0000
00M0
0000
0000
0000
,  // measure 339
0000
0000
0000
0000
,  // measure 340
0000
0000
0000
0000
,  // measure 341
0MM0
0000
MMMM
0000
MMMM
0000
0MMM
1000
0001
0000
0010
0000
0200
0000
2300
0000
,  // measure 342
0000
0000
0000
0000
0000
0000
3000
0000
0100
0000
0000
0010
0000
0000
0001
0000
,  // measure 343
0000
0100
0000
0000
0010
0000
1000
0000
0100
0000
0010
0000
0002
0000
2003
0000
,  // measure 344
0000
0000
0000
0000
0000
0000
0000
3000
0010
0000
0000
0100
0000
0000
0001
0000
,  // measure 345
0000
0100
0000
0000
0010
0000
0000
0000
0000
0000
0000
0000
0000
0000
0000
0000
;

//---------------dance-single - ----------------
#NOTEDATA:;
#CHARTNAME:Laser Pointer;
#STEPSTYPE:dance-single;
#DESCRIPTION:;
#CHARTSTYLE:;
#DIFFICULTY:Beginner;
#METER:1;
#RADARVALUES:0.092306,0.132690,0.010256,0.000000,0.000000,63.000000,62.000000,1.000000,0.000000,0.000000,0.000000,0.000000,0.000000,0.000000,0.092306,0.132690,0.010256,0.000000,0.000000,63.000000,62.000000,1.000000,0.000000,0.000000,0.000000,0.000000,0.000000,0.000000;
#CREDIT:Jonathan Iraheta;
#OFFSET:0.000000;
#BPMS:0.000000=128.000000
;
#STOPS:;
#DELAYS:;
#WARPS:;
#TIMESIGNATURES:0.000000=4=4
;
#TICKCOUNTS:0.000000=4
;
#COMBOS:0.000000=1
;
#SPEEDS:0.000000=1.000000=0.000000=0
;
#SCROLLS:0.000000=1.000000
;
#FAKES:;
#LABELS:0.000000=Song Start
;
#NOTES:
0000
0000
0000
0000
,
0000
0000
0000
0000
,
1000
0000
0000
0000
,
0010
0000
0000
0000
,
1000
0000
0000
0000
,
0100
0000
0000
0000
,
0010
0000
0000
0000
0000
0000
0000
0001
,
0000
0000
0000
0000
,
1000
0000
0000
0000
0000
0000
0000
0100
,
0000
0000
0000
0000
,
1000
0000
0000
0000
0000
0000
0000
0001
,
0000
0000
0000
0000
,
0100
0000
0000
0000
0000
0000
0000
0010
,
0000
0000
0000
0000
,
1000
0000
0000
0000
0000
0000
0000
0001
,
0000
0000
0000
0000
,
0100
0000
0000
0000
,
0010
0000
0000
0000
,
1000
0000
0000
0000
,
0001
0000
0000
0000
,
0010
0000
0000
0000
,
0100
0000
0000
0000
,
1000
0000
0000
0000
,
0100
0000
0010
0000
,
0100
0000
0000
0000
,
1000
0000
0001
0000
,
1000
0000
0000
0000
,
0010
0000
1000
0000
,
0010
0000
0000
0000
,
1000
0000
0001
0000
,
1000
0000
0000
0000
,
0100
0000
1000
0000
,
0100
0000
0000
0000
,
0010
0000
0001
0000
,
0010
0000
0000
0000
,
0001
0000
0100
0000
,
0001
0000
0000
0000
,
1000
0000
0000
0001
,
1000
0000
0000
0000
,
0010
0000
0000
0000
,
1001
0000
1000
0000
,
0001
0000
0000
0000
,
1000
0000
0010
0000
,
1000
0000
0000
0000
,
0100
0000
1000
0000
,
0100
0000
0000
0000
,
0010
0000
0000
0000
,
0001
0000
0000
0000
,
1000
0000
0000
0000
,
0001
0000
0000
0000
,
1000
0000
0000
0000
,
0100
0000
0000
0100
;

//---------------dance-single - ----------------
#NOTEDATA:;
#CHARTNAME:Incandescent;
#STEPSTYPE:dance-single;
#DESCRIPTION:;
#CHARTSTYLE:;
#DIFFICULTY:Easy;
#METER:2;
#RADARVALUES:0.189007,0.185765,0.000000,0.092306,0.000000,129.000000,129.000000,0.000000,9.000000,0.000000,0.000000,0.000000,0.000000,0.000000,0.189007,0.185765,0.000000,0.092306,0.000000,129.000000,129.000000,0.000000,9.000000,0.000000,0.000000,0.000000,0.000000,0.000000;
#CREDIT:Jonathan Iraheta;
#OFFSET:0.000000;
#BPMS:0.000000=128.000000
;
#STOPS:;
#DELAYS:;
#WARPS:;
#TIMESIGNATURES:0.000000=4=4
;
#TICKCOUNTS:0.000000=4
;
#COMBOS:0.000000=1
;
#SPEEDS:0.000000=1.000000=0.000000=0
;
#SCROLLS:0.000000=1.000000
;
#FAKES:;
#LABELS:0.000000=Song Start
;
#NOTES:
// measure 0
0000
0000
0000
0000
,  // measure 1
0000
0000
0000
0000
,  // measure 2
0001
0000
0010
0000
,  // measure 3
0001
0001
0001
0001
,  // measure 4
1000
0000
0010
0000
,  // measure 5
1000
0100
0010
0000
,  // measure 6
0001
0000
0000
0000
0100
0000
0000
0010
,  // measure 7
0000
1000
0100
0000
,  // measure 8
1000
0000
0000
0000
0010
0000
0000
1000
,  // measure 9
0000
0100
0010
0000
,  // measure 10
0001
0000
0000
0000
0100
0000
0000
0010
,  // measure 11
0000
1000
0100
0000
,  // measure 12
1000
0000
0000
0002
0000
0000
0000
0000
,  // measure 13
0003
0010
0200
0000
,  // measure 14
1300
0000
0000
0000
0001
0000
0000
1000
,  // measure 15
0000
0001
0010
0000
,  // measure 16
0100
0000
0100
0000
,  // measure 17
0010
0000
0010
0000
,  // measure 18
0001
0000
1000
0000
,  // measure 19
1000
0000
1000
0000
,  // measure 20
1000
0000
0100
0000
,  // measure 21
1000
0000
0001
0000
,  // measure 22
0100
0000
0010
0000
,  // measure 23
1000
0100
0010
0000
,  // measure 24
0001
0100
0010
0000
,  // measure 25
1000
0100
1000
0000
,  // measure 26
0010
1000
0100
0000
,  // measure 27
0010
0001
1000
0000
,  // measure 28
0001
0010
0001
0000
,  // measure 29
1000
0001
0100
0000
,  // measure 30
0010
1000
0001
0000
,  // measure 31
1000
0100
1000
0000
,  // measure 32
0010
0100
0010
0000
,  // measure 33
1000
0001
0100
0000
,  // measure 34
0010
0100
0001
0000
,  // measure 35
0010
0100
1000
0000
,  // measure 36
0001
1000
0010
0000
,  // measure 37
1000
0100
0010
0000
,  // measure 38
0001
0000
0000
2000
0000
0000
0000
0000
,  // measure 39
3100
0000
0000
0100
0000
0000
0100
0000
,  // measure 40
0010
0000
0000
0002
0000
0000
0000
0000
,  // measure 41
1003
0000
0000
1000
0000
0000
1000
0000
,  // measure 42
0010
0000
0000
2000
0000
0000
0000
0000
,  // measure 43
3100
0000
0000
0100
0000
0000
0100
0000
,  // measure 44
0010
0000
0000
0200
0000
0000
0000
0000
,  // measure 45
1300
0000
0000
1000
0000
0000
1000
0000
,  // measure 46
0100
0000
0000
0020
0000
0000
0000
0000
,  // measure 47
0031
0000
0000
0001
0000
0000
0001
0000
,  // measure 48
0100
0000
0000
0020
0000
0000
0000
0000
,  // measure 49
1030
0000
0000
1000
0000
0000
1000
0000
,  // measure 50
0001
0000
0000
0020
0000
0000
0000
0000
,  // measure 51
0031
0000
0000
0001
0000
0000
0001
0000
;

//---------------dance-single - ----------------
#NOTEDATA:;
#CHARTNAME:Fluorescent;
#STEPSTYPE:dance-single;
#DESCRIPTION:;
#CHARTSTYLE:;
#DIFFICULTY:Medium;
#METER:5;
#RADARVALUES:0.329664,0.395184,0.071793,0.153843,0.138459,225.000000,218.000000,7.000000,15.000000,0.000000,0.000000,0.000000,0.000000,0.000000,0.329664,0.395184,0.071793,0.153843,0.138459,225.000000,218.000000,7.000000,15.000000,0.000000,0.000000,0.000000,0.000000,0.000000;
#CREDIT:Jonathan Iraheta;
#OFFSET:0.000000;
#BPMS:0.000000=128.000000
;
#STOPS:;
#DELAYS:;
#WARPS:;
#TIMESIGNATURES:0.000000=4=4
;
#TICKCOUNTS:0.000000=4
;
#COMBOS:0.000000=1
;
#SPEEDS:0.000000=1.000000=0.000000=0
,177.500000=0.500000=2.500000=0
;
#SCROLLS:0.000000=1.000000
;
#FAKES:;
#LABELS:0.000000=Song Start
;
#NOTES:
// measure 0
0000
0000
0000
0000
,  // measure 1
0000
0000
0000
0000
,  // measure 2
0001
0000
0001
0000
0000
0000
0001
0000
0001
0000
0000
0001
0000
0000
0001
0000
,  // measure 3
0100
0100
0100
0100
,  // measure 4
0001
1000
0000
1000
0100
0000
0000
0100
,  // measure 5
1000
0000
1000
0001
1000
0000
1000
0001
,  // measure 6
1000
0000
0001
0000
0100
0000
0000
0010
,  // measure 7
0000
0000
1000
0100
1000
0000
1000
0100
,  // measure 8
1000
0000
0001
0000
0010
0000
0000
0001
,  // measure 9
0000
0000
0100
0010
0100
0000
0100
0010
,  // measure 10
0100
0000
0001
0000
1000
0000
0000
0200
,  // measure 11
0000
1000
1000
1300
,  // measure 12
0001
0100
0001
0200
0000
0000
0000
0001
,  // measure 13
0301
0000
1000
0100
2000
0000
0001
0000
,  // measure 14
3001
0000
1000
0000
0100
0000
0000
1000
,  // measure 15
0000
0000
0001
0010
0001
0000
0001
0010
,  // measure 16
0022
0033
0000
2200
3300
0000
0000
0000
,  // measure 17
0202
0303
0000
2020
3030
0000
0000
0000
,  // measure 18
1001
0000
0000
0000
0000
0000
0000
0000
0001
0000
0000
0001
0000
0000
0001
0000
,  // measure 19
0101
0000
0001
0000
0001
0000
0000
0000
0100
0000
0000
0100
0000
0000
0100
0000
,  // measure 20
0101
0000
0100
0000
0000
0001
0000
0100
0000
0000
0000
0010
0000
0100
0000
0000
,  // measure 21
0001
0000
0000
0010
0000
0100
0000
0010
0000
0000
0000
0001
0000
1000
0000
0000
,  // measure 22
0001
0000
0000
0100
0000
0001
0000
0100
0000
0000
0000
0010
0000
0100
0000
0000
,  // measure 23
0001
0000
1000
0000
1000
0000
1000
0100
,  // measure 24
1000
0000
0010
0000
0010
0000
0010
0100
,  // measure 25
0010
0000
1000
0000
1000
0000
1000
0001
,  // measure 26
1000
0000
0100
0000
0100
0000
0100
0010
,  // measure 27
0100
0000
1000
0000
1000
0000
1000
0001
,  // measure 28
1000
0000
0010
0000
0010
0000
0010
0100
,  // measure 29
0010
0000
1000
0000
1000
0000
1000
0100
,  // measure 30
1000
0000
0001
0000
0001
0000
0001
0100
,  // measure 31
0001
0000
0010
0000
0010
0000
0010
0100
,  // measure 32
0010
0000
0001
0000
0001
0000
0001
0100
,  // measure 33
0001
0000
0010
0000
0010
0000
0010
0001
,  // measure 34
0010
0000
0100
0000
0100
0000
0100
1000
,  // measure 35
0100
0000
0010
0000
0010
0000
0010
0001
,  // measure 36
0010
0000
0000
0010
0000
0000
0010
0000
0000
0010
0000
0000
0010
0000
0000
0000
,  // measure 37
0001
0000
0000
0000
1000
0000
0000
1000
0000
1000
0000
0000
1000
0000
1000
0000
,  // measure 38
0001
0100
0001
0200
0000
0000
0000
0000
,  // measure 39
0301
0000
0000
0001
0000
0000
0100
0000
0000
0100
0000
0000
0010
0000
0000
0000
,  // measure 40
1000
0001
1000
0002
0000
0000
0000
0003
,  // measure 41
1000
0000
0000
1000
0000
0000
0100
0000
0000
0100
0000
0000
0010
0000
0000
0000
,  // measure 42
0100
1000
0100
2000
0000
0000
0000
3000
,  // measure 43
0001
0000
0000
0001
0000
0000
0100
0000
0000
0100
0000
0000
0010
0000
0000
0000
,  // measure 44
1000
0001
1000
0002
0000
0000
0000
0003
,  // measure 45
1000
0000
0000
0100
0000
0000
0000
0000
,  // measure 46
1000
0000
0000
0010
0000
0000
0000
0000
,  // measure 47
1000
0000
0000
0100
0000
0000
0000
0000
,  // measure 48
0010
0000
0000
0001
0000
0000
0000
0000
,  // measure 49
0100
0000
0000
0010
0000
0000
0000
0000
,  // measure 50
1000
0000
0000
0001
0000
0000
0000
0000
,  // measure 51
0010
0000
0000
0100
0000
0000
0000
0000
;

//---------------dance-single - ----------------
#NOTEDATA:;
#CHARTNAME:Neon;
#STEPSTYPE:dance-single;
#DESCRIPTION:;
#CHARTSTYLE:;
#DIFFICULTY:Hard;
#METER:8;
#RADARVALUES:0.455668,0.586655,0.010256,0.153843,0.502554,311.000000,310.000000,1.000000,15.000000,4.000000,0.000000,0.000000,0.000000,0.000000,0.455668,0.586655,0.010256,0.153843,0.502554,311.000000,310.000000,1.000000,15.000000,4.000000,0.000000,0.000000,0.000000,0.000000;
#CREDIT:Jonathan Iraheta;
#OFFSET:0.000000;
#BPMS:0.000000=128.000000
;
#STOPS:;
#DELAYS:;
#WARPS:;
#TIMESIGNATURES:0.000000=4=4
;
#TICKCOUNTS:0.000000=4
;
#COMBOS:0.000000=1
;
#SPEEDS:0.000000=1.000000=0.000000=0
,54.000000=0.500000=1.500000=0
,55.500000=1.000000=0.500000=0
,177.500000=0.500000=2.500000=0
;
#SCROLLS:0.000000=1.000000
;
#FAKES:;
#LABELS:0.000000=Song Start
;
#NOTES:
// measure 0
0000
0000
0000
0000
,  // measure 1
0000
0000
0000
0000
0000
0000
0000
1000
,  // measure 2
1000
0000
0000
0000
0000
0000
0001
0000
0000
0000
0100
0000
0000
0000
0000
0000
0000
0000
0001
0000
0000
0000
0000
0000
0010
0000
0000
0000
0000
0000
0000
0000
0000
0100
0000
0000
0000
0000
0000
0000
0000
0000
1000
0000
0000
0000
0000
0000
,  // measure 3
0001
0000
0100
0000
0010
0000
1000
0000
0100
1000
0000
0000
0010
0000
0100
0010
,  // measure 4
1000
0100
1000
0000
0001
0000
0001
0000
0100
0010
1000
0000
0001
0000
0001
0010
,  // measure 5
0100
0000
0010
0000
0001
0000
0001
0000
1000
0001
0010
0000
0100
0000
0100
0000
,  // measure 6
1000
0000
0000
0100
0000
0000
0010
0000
0010
0000
0000
0100
0000
0000
0100
0000
,  // measure 7
2000
0000
0000
0MM1
0000
0000
3001
0000
0200
0000
0000
M01M
0000
0000
0310
0000
,  // measure 8
1000
0000
0000
0100
0000
0000
0010
0000
0010
0000
0000
0100
0000
0000
0100
0000
,  // measure 9
1000
0000
0000
0010
0000
0000
0100
0000
0100
0000
0000
0001
0000
0000
0001
0000
,  // measure 10
1000
0000
0000
0001
0000
0000
0010
0000
0010
0000
0000
0100
0000
0000
0100
0000
,  // measure 11
1000
0000
0000
0001
0000
0000
0100
0000
0100
0000
0000
0001
0000
0000
0001
0000
,  // measure 12
1000
0001
0200
0320
1030
0001
0010
0100
,  // measure 13
0010
0000
0000
0001
0000
0000
1000
0000
2002
0000
0000
0000
0000
0000
3003
0000
,  // measure 14
1000
0000
0000
0001
0000
0000
0010
0000
0010
0000
0000
0100
0000
0000
0100
0000
,  // measure 15
1000
0000
0000
0010
0000
0000
0100
0000
0100
0000
0000
0010
0000
0000
0010
0000
,  // measure 16
1000
0000
0001
0000
0000
0000
1000
0000
1000
0000
0000
0010
0000
0000
1000
0000
,  // measure 17
1000
0000
0100
0000
0000
0000
1000
0000
1000
0000
0000
0001
0000
0000
0010
0000
,  // measure 18
0000
0000
0000
0001
0000
0100
0000
0001
1000
0000
0000
1000
0000
0000
1000
0000
,  // measure 19
1000
0000
0010
0000
0010
0000
0000
0000
1000
0000
0000
1000
0000
0000
1000
0000
,  // measure 20
1000
0000
0100
1000
0000
0001
0000
0001
0100
0000
0000
0010
0000
0010
0000
0000
,  // measure 21
1000
0000
0000
0010
0000
0100
0000
0100
0001
0000
0000
0010
0000
0010
0000
0000
,  // measure 22
0100
0000
0000
0010
0000
0001
0000
0001
1000
0000
0000
0100
0000
0100
0000
0000
,  // measure 23
1000
0000
0000
0100
0010
0000
0000
0001
1000
0000
0000
0001
0010
0000
0100
0000
,  // measure 24
0010
0000
0000
0001
1000
0000
0000
0010
1000
0000
0000
0001
0100
0000
0010
0000
,  // measure 25
1000
0000
0000
0100
1000
0000
0000
0010
1000
0000
0000
0001
0100
0000
0010
0000
,  // measure 26
1000
0000
0000
0001
0010
0000
0000
0001
0100
0000
0000
0001
1000
0000
0010
0000
,  // measure 27
0100
0000
0000
0001
1000
0000
0000
0010
1000
0000
0000
0001
0010
0000
0100
0000
,  // measure 28
1000
0000
0000
0100
0010
0000
0000
0001
0010
0000
0000
0100
1000
0000
0001
0000
,  // measure 29
0100
0000
0000
0001
0010
0000
0000
0100
1000
0000
0000
0010
1000
0000
0100
0000
,  // measure 30
1000
0000
0000
0100
0010
0000
0000
0100
1000
0000
0000
0001
0100
0000
0010
0000
,  // measure 31
1000
0000
0000
0001
0010
0000
0000
0100
1000
0000
0000
0010
1000
0000
0100
0000
,  // measure 32
1000
0000
0000
0001
0100
0000
0000
0001
0010
0000
0000
0100
1000
0000
0100
0000
,  // measure 33
0010
0000
0000
0001
1000
0000
0000
0100
0010
0000
0000
0100
1000
0000
0010
0000
,  // measure 34
0100
0000
0000
0001
0010
0000
0000
0001
1000
0000
0000
0100
0010
0000
0001
0000
,  // measure 35
0100
0000
0000
0010
1000
0000
0000
0100
1000
0000
0000
0010
0100
0000
0001
0000
,  // measure 36
0010
0000
0000
0100
0000
0000
1000
0000
0000
0001
0000
0000
1000
0000
0000
0000
,  // measure 37
0000
0000
0000
0100
0000
0000
1000
0000
0000
0000
0000
0000
0001
0000
0000
0000
0000
0000
0100
0000
0000
0000
0001
0000
0000
0000
0000
1000
0000
0000
0000
0000
0000
0010
0000
0000
1000
0000
0000
0000
0000
0000
0001
0000
0000
0000
0000
0000
,  // measure 38
1000
0100
0020
0002
0000
0033
1000
0000
,  // measure 39
0010
0000
0000
0100
0000
0000
0001
0000
0000
1000
0000
0000
0100
0000
0000
0000
,  // measure 40
1000
0001
0020
0002
0000
0033
1000
0000
,  // measure 41
0001
0000
0000
0010
0000
0000
0100
0000
0000
0010
0000
0000
0001
0000
0000
0000
,  // measure 42
1000
0100
2000
0002
0000
3003
0010
0000
,  // measure 43
0001
0000
0000
0100
0000
0000
0010
0000
0000
1000
0000
0000
0001
0000
0000
0000
,  // measure 44
1000
0100
0020
0002
0000
0033
0100
0000
,  // measure 45
0010
0000
0000
1000
0000
0000
0000
0000
,  // measure 46
0001
0000
0000
0100
0000
0000
0000
0000
,  // measure 47
0001
0000
0000
0010
0000
0000
0000
0000
,  // measure 48
0100
0000
0000
1000
0000
0000
0000
0000
,  // measure 49
0001
0000
0000
0100
0000
0000
0000
0000
,  // measure 50
0010
0000
0000
1000
0000
0000
0000
0000
,  // measure 51
0001
0000
0000
0020
0000
0000
0000
0000
,  // measure 52
0030
0000
0000
0000
;
