#VERSION:0.83;
#TITLE:Just Something;
#SUBTITLE:;
#ARTIST:Frantiszek;
#TITLETRANSLIT:;
#SUBTITLETRANSLIT:;
#ARTISTTRANSLIT:;
#GENRE:;
#ORIGIN:;
#CREDIT:;
#BANNER:;
#BACKGROUND:;
#PREVIEWVID:;
#JACKET:;
#CDIMAGE:;
#DISCIMAGE:;
#LYRICSPATH:;
#CDTITLE:;
#MUSIC:Just something.ogg;
#OFFSET:0.000000;
#SAMPLESTART:51.692001;
#SAMPLELENGTH:14.769234;
#SELECTABLE:YES;
#BPMS:0.000=130.005,
1.000=129.999,
6.000=130.005,
7.000=129.999,
13.000=130.005,
14.000=129.999,
19.000=130.005,
20.000=129.999,
26.000=130.005,
27.000=129.999,
32.000=130.005,
33.000=129.999,
39.000=130.005,
40.000=129.999,
45.000=130.005,
46.000=129.999,
52.000=130.005,
53.000=129.999,
58.000=130.005,
59.000=129.999,
65.000=130.005,
66.000=129.999,
71.000=130.005,
72.000=129.999,
78.000=130.005,
79.000=129.999,
84.000=130.005,
85.000=129.999,
91.000=130.005,
92.000=129.999,
97.000=130.005,
98.000=129.999,
104.000=130.005,
105.000=129.999,
111.000=130.005,
112.000=129.999,
117.000=130.005,
118.000=129.999,
124.000=130.005,
125.000=129.999,
130.000=130.005,
131.000=129.999,
137.000=130.005,
138.000=129.999,
143.000=130.005,
144.000=129.999,
150.000=130.005,
151.000=129.999,
156.000=130.005,
157.000=129.999,
163.000=130.005,
164.000=129.999,
169.000=130.005,
170.000=129.999,
176.000=130.005,
177.000=129.999,
182.000=130.005,
183.000=129.999,
189.000=130.005,
190.000=129.999,
195.000=130.005,
196.000=129.999,
202.000=130.005,
203.000=129.999,
209.000=130.005,
210.000=129.999,
216.000=130.005,
217.000=129.999,
222.000=130.005,
223.000=129.999,
229.000=130.005,
230.000=129.999,
235.000=130.005,
236.000=129.999;
#STOPS:;
#DELAYS:;
#WARPS:;
#TIMESIGNATURES:0.000=4=4;
#TICKCOUNTS:0.000=4;
#COMBOS:0.000=1;
#SPEEDS:0.000=1.000=0.000=0;
#SCROLLS:0.000=1.000;
#FAKES:0.000=8.000;
#LABELS:0.000=Song Start;
#BGCHANGES:;
#KEYSOUNDS:;
#ATTACKS:
;

//---------------dance-single - ----------------
#NOTEDATA:;
#CHARTNAME:Just Something to Pass By;
#STEPSTYPE:dance-single;
#DESCRIPTION:;
#CHARTSTYLE:;
#DIFFICULTY:Beginner;
#METER:1;
#RADARVALUES:0.117368,0.133167,0.000000,0.153481,0.000000,91.000000,91.000000,0.000000,17.000000,0.000000,0.000000,0.000000,0.000000,0.000000,0.117368,0.133167,0.000000,0.153481,0.000000,91.000000,91.000000,0.000000,17.000000,0.000000,0.000000,0.000000,0.000000,0.000000;
#CREDIT:Patrick Lake;
#NOTES:
// measure 0
0000
0000
0000
0000
,  // measure 1
0000
0000
0000
0000
,  // measure 2
2000
0000
0000
0000
,  // measure 3
3200
0000
0000
0000
,  // measure 4
2300
0000
0000
0000
,  // measure 5
3002
0000
0000
0000
,  // measure 6
0203
0000
0000
0000
,  // measure 7
0320
0000
0000
0000
,  // measure 8
0130
0000
0001
0000
,  // measure 9
1000
0000
0100
0000
,  // measure 10
0010
0000
0100
0000
,  // measure 11
1000
0000
0010
0000
,  // measure 12
0100
0000
0001
0000
,  // measure 13
0010
0000
0100
0000
,  // measure 14
0010
0000
0001
0000
,  // measure 15
0200
0000
0000
0000
,  // measure 16
0301
0000
1000
0000
,  // measure 17
0001
0000
0100
0000
,  // measure 18
0001
0000
1000
0000
,  // measure 19
0100
0000
1000
0000
,  // measure 20
0001
0000
0010
0000
,  // measure 21
0100
0000
0010
0000
,  // measure 22
0100
0000
0010
0000
,  // measure 23
0002
0000
0000
0000
,  // measure 24
1003
0000
0010
0000
,  // measure 25
1000
0000
0010
0000
,  // measure 26
0100
0000
0001
0000
,  // measure 27
0010
0000
0100
0000
,  // measure 28
0010
0000
0100
0000
,  // measure 29
1000
0000
0010
0000
,  // measure 30
1000
0000
0100
0000
,  // measure 31
0010
0000
0100
0000
,  // measure 32
2000
0000
0000
0000
,  // measure 33
3002
0000
0000
0000
,  // measure 34
0203
0000
0000
0000
,  // measure 35
0320
0000
0000
0000
,  // measure 36
2030
0000
0000
0000
,  // measure 37
3002
0000
0000
0000
,  // measure 38
0203
0000
0000
0000
,  // measure 39
0320
0000
0000
0000
,  // measure 40
1030
0000
0001
0000
,  // measure 41
0010
0000
0001
0000
,  // measure 42
1000
0000
0010
0000
,  // measure 43
0100
0000
0001
0000
,  // measure 44
1000
0000
0001
0000
,  // measure 45
0010
0000
0100
0000
,  // measure 46
0010
0000
0001
0000
,  // measure 47
0100
0000
0010
0000
,  // measure 48
0100
0000
0001
0000
,  // measure 49
0010
0000
0100
0000
,  // measure 50
1000
0000
0100
0000
,  // measure 51
1000
0000
0010
0000
,  // measure 52
1000
0000
0010
0000
,  // measure 53
0100
0000
0001
0000
,  // measure 54
0100
0000
0010
0000
,  // measure 55
0200
0000
0000
0000
,  // measure 56
0000
0000
0000
0000
,  // measure 57
0000
0000
0000
0000
,  // measure 58
0000
0000
0000
0000
,  // measure 59
0300
0000
0000
0000
;

//---------------dance-single - ----------------
#NOTEDATA:;
#CHARTNAME:Just Something Unimportant;
#STEPSTYPE:dance-single;
#DESCRIPTION:;
#CHARTSTYLE:;
#DIFFICULTY:Easy;
#METER:2;
#RADARVALUES:0.172827,0.186434,0.000000,0.207651,0.000000,134.000000,134.000000,0.000000,23.000000,0.000000,0.000000,0.000000,0.000000,0.000000,0.172827,0.186434,0.000000,0.207651,0.000000,134.000000,134.000000,0.000000,23.000000,0.000000,0.000000,0.000000,0.000000,0.000000;
#CREDIT:Patrick Lake;
#NOTES:
// measure 0
0000
0000
0000
0000
,  // measure 1
0000
0000
0000
0000
,  // measure 2
2000
0000
3002
0000
,  // measure 3
0203
0000
0320
0000
,  // measure 4
2030
0000
3002
0000
,  // measure 5
2003
0000
3020
0000
,  // measure 6
0230
0000
0302
0000
,  // measure 7
2003
0000
3020
0000
,  // measure 8
0130
0000
0001
0100
,  // measure 9
0010
0000
1000
0001
,  // measure 10
0100
0000
0001
0010
,  // measure 11
0001
0000
0100
0010
,  // measure 12
0100
0000
0001
1000
,  // measure 13
0001
0000
0100
0001
,  // measure 14
1000
0000
0010
1000
,  // measure 15
0002
0000
0000
0000
,  // measure 16
0103
0000
0001
1000
,  // measure 17
0100
0000
1000
0001
,  // measure 18
0010
0000
0001
0100
,  // measure 19
0001
0000
1000
0100
,  // measure 20
1000
0000
0100
0010
,  // measure 21
0100
0000
1000
0001
,  // measure 22
1000
0000
0100
0010
,  // measure 23
0002
0000
0000
0000
,  // measure 24
1003
0000
0001
0100
,  // measure 25
0001
0000
1000
0100
,  // measure 26
0010
0000
0001
1000
,  // measure 27
0010
0000
0100
0010
,  // measure 28
1000
0000
0001
0010
,  // measure 29
0100
0000
0010
0001
,  // measure 30
0010
0000
0100
1000
,  // measure 31
0010
0000
1000
0100
,  // measure 32
0020
0000
0000
0000
,  // measure 33
0032
0000
0000
0000
,  // measure 34
2003
0000
0000
0000
,  // measure 35
3020
0000
0000
0000
,  // measure 36
0230
0000
0000
0000
,  // measure 37
0302
0000
0000
0000
,  // measure 38
2003
0000
0000
0000
,  // measure 39
3200
0000
0000
0000
,  // measure 40
1300
0000
0001
0100
,  // measure 41
0001
0000
1000
0100
,  // measure 42
0010
0000
0001
1000
,  // measure 43
0001
0000
1000
0100
,  // measure 44
0010
0000
0001
0100
,  // measure 45
0001
0000
0010
0001
,  // measure 46
1000
0000
0100
0010
,  // measure 47
0001
0000
1000
0010
,  // measure 48
0100
0000
0001
1000
,  // measure 49
0100
0000
0010
0100
,  // measure 50
1000
0000
0001
1000
,  // measure 51
0010
0000
1000
0100
,  // measure 52
0010
0000
0001
0100
,  // measure 53
0001
0000
1000
0100
,  // measure 54
0010
0000
0001
0010
,  // measure 55
0200
0000
0000
0000
,  // measure 56
0000
0000
0000
0000
,  // measure 57
0000
0000
0000
0000
,  // measure 58
0000
0000
0000
0000
,  // measure 59
0300
0000
0000
0000
;

//---------------dance-single - ----------------
#NOTEDATA:;
#CHARTNAME:Just Something to Think About;
#STEPSTYPE:dance-single;
#DESCRIPTION:;
#CHARTSTYLE:;
#DIFFICULTY:Medium;
#METER:5;
#RADARVALUES:0.282456,0.372868,0.009028,0.207651,0.153481,219.000000,218.000000,1.000000,23.000000,0.000000,0.000000,0.000000,0.000000,0.000000,0.282456,0.372868,0.009028,0.207651,0.153481,219.000000,218.000000,1.000000,23.000000,0.000000,0.000000,0.000000,0.000000,0.000000;
#CREDIT:Patrick Lake;
#OFFSET:0.000000;
#BPMS:0.000000=130.005005
,1.000000=129.998993
,6.000000=130.005005
,7.000000=129.998993
,13.000000=130.005005
,14.000000=129.998993
,19.000000=130.005005
,20.000000=129.998993
,26.000000=130.005005
,27.000000=129.998993
,32.000000=130.005005
,33.000000=129.998993
,39.000000=130.005005
,40.000000=129.998993
,45.000000=130.005005
,46.000000=129.998993
,52.000000=130.005005
,53.000000=129.998993
,58.000000=130.005005
,59.000000=129.998993
,65.000000=130.005005
,66.000000=129.998993
,71.000000=130.005005
,72.000000=129.998993
,78.000000=130.005005
,79.000000=129.998993
,84.000000=130.005005
,85.000000=129.998993
,91.000000=130.005005
,92.000000=129.998993
,97.000000=130.005005
,98.000000=129.998993
,104.000000=130.005005
,105.000000=129.998993
,111.000000=130.005005
,112.000000=129.998993
,117.000000=130.005005
,118.000000=129.998993
,124.000000=130.005005
,125.000000=129.998993
,130.000000=130.005005
,131.000000=129.998993
,137.000000=130.005005
,138.000000=129.998993
,143.000000=130.005005
,144.000000=129.998993
,150.000000=130.005005
,151.000000=129.998993
,156.000000=130.005005
,157.000000=129.998993
,163.000000=130.005005
,164.000000=129.998993
,169.000000=130.005005
,170.000000=129.998993
,176.000000=130.005005
,177.000000=129.998993
,182.000000=130.005005
,183.000000=129.998993
,189.000000=130.005005
,190.000000=129.998993
,195.000000=130.005005
,196.000000=129.998993
,202.000000=130.005005
,203.000000=129.998993
,209.000000=130.005005
,210.000000=129.998993
,216.000000=130.005005
,217.000000=129.998993
,222.000000=130.005005
,223.000000=129.998993
,229.000000=130.005005
,230.000000=129.998993
,235.000000=130.005005
,236.000000=129.998993
;
#STOPS:;
#DELAYS:;
#WARPS:;
#TIMESIGNATURES:0.000000=4=4
;
#TICKCOUNTS:0.000000=4
;
#COMBOS:0.000000=1
;
#SPEEDS:0.000000=1.200000=1.000000=0
,1.000000=1.000000=1.000000=0
,2.000000=1.100000=1.000000=0
,3.000000=1.000000=1.000000=0
,4.000000=1.200000=1.000000=0
,5.000000=1.000000=1.000000=0
,6.000000=1.400000=1.000000=0
,7.000000=1.000000=1.000000=0
,8.000000=1.200000=1.000000=0
,9.000000=1.000000=1.000000=0
,10.000000=1.100000=1.000000=0
,11.000000=1.000000=1.000000=0
,12.000000=1.200000=1.000000=0
,13.000000=1.000000=1.000000=0
,14.000000=1.300000=1.000000=0
,15.000000=1.000000=1.000000=0
,16.000000=1.200000=1.000000=0
,17.000000=1.000000=1.000000=0
,18.000000=1.100000=1.000000=0
,19.000000=1.000000=1.000000=0
,20.000000=1.200000=1.000000=0
,21.000000=1.000000=1.000000=0
,22.000000=1.400000=1.000000=0
,23.000000=1.000000=1.000000=0
,24.000000=1.200000=1.000000=0
,25.000000=1.000000=1.000000=0
,26.000000=1.100000=1.000000=0
,27.000000=1.000000=1.000000=0
,28.000000=1.200000=1.000000=0
,29.000000=1.000000=1.000000=0
,30.000000=1.400000=1.000000=0
,31.000000=1.000000=1.000000=0
,60.000000=0.250000=0.333300=0
,60.333332=1.000000=3.666700=0
,92.000000=0.250000=0.333300=0
,92.333336=1.000000=3.666700=0
,156.000000=0.250000=0.333300=0
,156.333328=1.000000=3.666700=0
,224.000000=0.000000=12.000000=0
;
#SCROLLS:0.000000=1.000000
,130.000000=0.600000
,132.000000=1.000000
,134.000000=0.600000
,136.000000=1.000000
,138.000000=0.600000
,140.000000=1.000000
,142.000000=0.600000
,144.000000=1.000000
,146.000000=0.600000
,148.000000=1.000000
,150.000000=0.600000
,152.000000=1.000000
,154.000000=0.600000
,156.000000=1.000000
;
#FAKES:0.000000=8.000000
;
#LABELS:0.000000=Song Start
;
#ATTACKS:TIME=14.794641:LEN=0.115380:MODS=*100 25% Centered,*100 25% Stealth:TIME=15.717704:LEN=0.115385:MODS=*100 25% Centered,*100 25% Stealth:TIME=16.640787:LEN=0.115385:MODS=*100 25% Centered,*100 25% Stealth:TIME=17.563871:LEN=0.115385:MODS=*100 25% Centered,*100 25% Stealth:TIME=18.486935:LEN=0.115385:MODS=*100 25% Centered,*100 25% Stealth:TIME=19.410019:LEN=0.115385:MODS=*100 25% Centered,*100 25% Stealth:TIME=20.333103:LEN=0.115385:MODS=*100 25% Centered,*100 25% Stealth:TIME=21.256166:LEN=0.115385:MODS=*100 25% Centered,*100 25% Stealth:TIME=22.179251:LEN=0.115385:MODS=*100 25% Centered,*100 25% Stealth:TIME=23.102335:LEN=0.115385:MODS=*100 25% Centered,*100 25% Stealth:TIME=24.025419:LEN=0.115379:MODS=*100 25% Centered,*100 25% Stealth:TIME=24.948483:LEN=0.115385:MODS=*100 25% Centered,*100 25% Stealth:TIME=25.871567:LEN=0.115385:MODS=*100 25% Centered,*100 25% Stealth:TIME=26.794651:LEN=0.115379:MODS=*100 25% Centered,*100 25% Stealth:TIME=27.717714:LEN=0.153847:MODS=*8 Mini,*8 Stealth,*8 Dark:TIME=27.871561:LEN=1.692322:MODS=*.65 0% Mini,*.65 0% Stealth,*.65 0% Dark:TIME=42.486958:LEN=0.153847:MODS=*8 Mini,*8 Stealth,*8 Dark:TIME=42.640804:LEN=1.692322:MODS=*.65 0% Mini,*.65 0% Stealth,*.65 0% Dark:TIME=72.025444:LEN=0.153839:MODS=*8 Mini,*8 Stealth,*8 Dark:TIME=72.179283:LEN=1.692307:MODS=*.65 0% Mini,*.65 0% Stealth,*.65 0% Dark:TIME=101.578384:LEN=9.230759:MODS=*0.25 200% Mini;
#NOTES:
// measure 0
0000
0000
0000
0000
,  // measure 1
0000
0000
0000
0000
,  // measure 2
2000
0000
3002
0000
,  // measure 3
0203
0000
0320
0000
,  // measure 4
2030
0000
3002
0000
,  // measure 5
2003
0000
3200
0000
,  // measure 6
0320
0000
0032
0000
,  // measure 7
2003
0000
3020
0000
,  // measure 8
0130
0001
1000
0010
,  // measure 9
0100
0000
0000
0001
0000
0000
0000
1000
0000
0000
0000
0000
0100
0000
0010
0000
,  // measure 10
0100
1000
0001
1000
,  // measure 11
0100
0000
0000
0010
0000
0000
0000
0001
0000
0000
0000
0000
1000
0000
0010
0000
,  // measure 12
0100
0001
1000
0001
,  // measure 13
0100
0000
0000
0010
0000
0000
0000
0100
0000
0000
0000
0000
0001
0000
1000
0000
,  // measure 14
0001
0010
0100
0010
,  // measure 15
0002
0000
0000
0000
,  // measure 16
1003
0010
1000
0100
,  // measure 17
0010
0000
0000
0001
0000
0000
0000
0000
1000
0000
0000
0000
0010
0000
1000
0000
,  // measure 18
0100
0010
0001
1000
,  // measure 19
0010
0000
0000
0100
0000
0000
0000
0000
0001
0000
0000
0000
1000
0000
0100
0000
,  // measure 20
0010
0001
0100
0001
,  // measure 21
1000
0000
0000
0010
0000
0000
0000
0000
1000
0000
0000
0000
0100
0000
0010
0000
,  // measure 22
0100
1000
0100
0010
,  // measure 23
0002
0000
0000
0000
,  // measure 24
1003
0100
0010
0001
,  // measure 25
1000
0000
0000
0010
0000
0000
0000
0000
1000
0000
0000
0000
0001
0000
0010
0000
,  // measure 26
0100
1000
0100
0010
,  // measure 27
0001
0000
0000
0100
0000
0000
0000
0000
0010
0000
0000
0000
1000
0000
0001
0000
,  // measure 28
1000
0100
0010
0001
,  // measure 29
0100
0000
0000
0010
0000
0000
0000
0000
1000
0000
0000
0000
0001
0000
0010
0000
,  // measure 30
0100
1000
0010
0100
,  // measure 31
0001
0000
0000
0010
0000
0000
0000
0000
0100
0000
0000
0000
1000
0000
0001
0000
,  // measure 32
2000
0000
0010
0000
,  // measure 33
3020
0000
1000
0000
,  // measure 34
2030
0000
0001
0000
,  // measure 35
3002
0000
0010
0000
,  // measure 36
0023
0000
0001
0000
,  // measure 37
0032
0000
1000
0000
,  // measure 38
2003
0000
0010
0000
,  // measure 39
3020
0000
0000
0030
,  // measure 40
1001
0000
1000
0000
0001
0010
0100
1000
,  // measure 41
0001
0000
0000
1000
0000
0000
0000
0010
0000
1000
0000
0000
0100
0000
0010
0000
,  // measure 42
0100
0000
1000
0000
0001
0100
0010
0100
,  // measure 43
0001
0000
0000
1000
0000
0000
0000
0001
0000
0100
0000
0000
0010
0000
1000
0000
,  // measure 44
0001
0000
0010
0000
0001
1000
0100
1000
,  // measure 45
0001
0000
0000
0100
0000
0000
0000
0001
0000
0010
0000
0000
0100
0000
1000
0000
,  // measure 46
0001
0000
1000
0000
0010
0100
0001
0100
,  // measure 47
0010
0000
0000
1000
0000
0000
0000
0001
0000
0010
0000
0000
0100
0000
0010
0000
,  // measure 48
0001
0000
1000
0000
0010
0100
0001
1000
,  // measure 49
0010
0000
0000
1000
0000
0000
0000
0001
0000
0010
0000
0000
0100
0000
1000
0000
,  // measure 50
0010
0000
0100
0000
0001
0100
0010
0100
,  // measure 51
0001
0000
0000
1000
0000
0000
0000
0001
0000
0010
0000
0000
0100
0000
1000
0000
,  // measure 52
0001
0000
1000
0000
0010
0100
0010
1000
,  // measure 53
0001
0000
0000
0100
0000
0000
0000
0001
0000
0010
0000
0000
0100
0000
1000
0000
,  // measure 54
0010
0000
0100
0000
0001
1000
0001
0100
,  // measure 55
0002
0000
0000
0000
,  // measure 56
0000
0000
0000
0000
,  // measure 57
0000
0000
0000
0000
,  // measure 58
0000
0000
0000
0000
,  // measure 59
0003
0000
0000
0000
;

//---------------dance-single - ----------------
#NOTEDATA:;
#CHARTNAME:Just Something Cherished Dearly;
#STEPSTYPE:dance-single;
#DESCRIPTION:;
#CHARTSTYLE:;
#DIFFICULTY:Challenge;
#METER:8;
#RADARVALUES:0.550725,0.665836,0.018057,0.144453,0.609409,427.000000,425.000000,2.000000,16.000000,4.000000,0.000000,0.000000,0.000000,0.000000,0.550725,0.665836,0.018057,0.144453,0.609409,427.000000,425.000000,2.000000,16.000000,4.000000,0.000000,0.000000,0.000000,0.000000;
#CREDIT:Patrick Lake;
#OFFSET:0.000000;
#BPMS:0.000000=130.005005
,1.000000=129.998993
,6.000000=130.005005
,7.000000=129.998993
,13.000000=130.005005
,14.000000=129.998993
,19.000000=130.005005
,20.000000=129.998993
,26.000000=130.005005
,27.000000=129.998993
,32.000000=130.005005
,33.000000=129.998993
,39.000000=130.005005
,40.000000=129.998993
,45.000000=130.005005
,46.000000=129.998993
,52.000000=130.005005
,53.000000=129.998993
,58.000000=130.005005
,59.000000=129.998993
,65.000000=130.005005
,66.000000=129.998993
,71.000000=130.005005
,72.000000=129.998993
,78.000000=130.005005
,79.000000=129.998993
,84.000000=130.005005
,85.000000=129.998993
,91.000000=130.005005
,92.000000=129.998993
,97.000000=130.005005
,98.000000=129.998993
,104.000000=130.005005
,105.000000=129.998993
,111.000000=130.005005
,112.000000=129.998993
,117.000000=130.005005
,118.000000=129.998993
,124.000000=130.005005
,125.000000=129.998993
,130.000000=130.005005
,131.000000=129.998993
,137.000000=130.005005
,138.000000=129.998993
,143.000000=130.005005
,144.000000=129.998993
,150.000000=130.005005
,151.000000=129.998993
,156.000000=130.005005
,157.000000=129.998993
,163.000000=130.005005
,164.000000=129.998993
,169.000000=130.005005
,170.000000=129.998993
,176.000000=130.005005
,177.000000=129.998993
,182.000000=130.005005
,183.000000=129.998993
,189.000000=130.005005
,190.000000=129.998993
,195.000000=130.005005
,196.000000=129.998993
,202.000000=130.005005
,203.000000=129.998993
,209.000000=130.005005
,210.000000=129.998993
,216.000000=130.005005
,217.000000=129.998993
,222.000000=130.005005
,223.000000=129.998993
,229.000000=130.005005
,230.000000=129.998993
,235.000000=130.005005
,236.000000=129.998993
;
#STOPS:;
#DELAYS:;
#WARPS:;
#TIMESIGNATURES:0.000000=4=4
;
#TICKCOUNTS:0.000000=4
;
#COMBOS:0.000000=1
;
#SPEEDS:0.000000=1.200000=1.000000=0
,1.000000=1.000000=1.000000=0
,2.000000=1.100000=1.000000=0
,3.000000=1.000000=1.000000=0
,4.000000=1.200000=1.000000=0
,5.000000=1.000000=1.000000=0
,6.000000=1.400000=1.000000=0
,7.000000=1.000000=1.000000=0
,8.000000=1.200000=1.000000=0
,9.000000=1.000000=1.000000=0
,10.000000=1.100000=1.000000=0
,11.000000=1.000000=1.000000=0
,12.000000=1.200000=1.000000=0
,13.000000=1.000000=1.000000=0
,14.000000=1.300000=1.000000=0
,15.000000=1.000000=1.000000=0
,16.000000=1.200000=1.000000=0
,17.000000=1.000000=1.000000=0
,18.000000=1.100000=1.000000=0
,19.000000=1.000000=1.000000=0
,20.000000=1.200000=1.000000=0
,21.000000=1.000000=1.000000=0
,22.000000=1.400000=1.000000=0
,23.000000=1.000000=1.000000=0
,24.000000=1.200000=1.000000=0
,25.000000=1.000000=1.000000=0
,26.000000=1.100000=1.000000=0
,27.000000=1.000000=1.000000=0
,28.000000=1.200000=1.000000=0
,29.000000=1.000000=1.000000=0
,30.000000=1.400000=1.000000=0
,31.000000=1.000000=1.000000=0
,60.000000=1.000000=0.333300=0
,60.333332=1.000000=3.666700=0
,92.000000=0.250000=0.333300=0
,92.333336=1.000000=3.666700=0
,156.000000=1.000000=0.333300=0
,156.333328=1.000000=3.666700=0
,224.000000=0.000000=12.000000=0
;
#SCROLLS:0.000000=1.000000
,130.500000=0.600000
,132.000000=1.000000
,134.000000=0.600000
,136.000000=1.000000
,138.500000=0.600000
,140.000000=1.000000
,146.500000=0.600000
,148.000000=1.000000
,150.000000=0.600000
,152.000000=1.000000
,154.500000=0.600000
,156.000000=1.000000
;
#FAKES:0.000000=8.000000
;
#LABELS:0.000000=Song Start
;
#ATTACKS:TIME=14.794641:LEN=0.115380:MODS=*100 25% Centered,*100 25% Stealth:TIME=15.717704:LEN=0.115385:MODS=*100 25% Centered,*100 25% Stealth:TIME=16.640787:LEN=0.115385:MODS=*100 25% Centered,*100 25% Stealth:TIME=17.563871:LEN=0.115385:MODS=*100 25% Centered,*100 25% Stealth:TIME=18.486935:LEN=0.115385:MODS=*100 25% Centered,*100 25% Stealth:TIME=19.410019:LEN=0.115385:MODS=*100 25% Centered,*100 25% Stealth:TIME=20.333103:LEN=0.115385:MODS=*100 25% Centered,*100 25% Stealth:TIME=21.256166:LEN=0.115385:MODS=*100 25% Centered,*100 25% Stealth:TIME=22.179251:LEN=0.115385:MODS=*100 25% Centered,*100 25% Stealth:TIME=23.102335:LEN=0.115385:MODS=*100 25% Centered,*100 25% Stealth:TIME=24.025419:LEN=0.115379:MODS=*100 25% Centered,*100 25% Stealth:TIME=24.948483:LEN=0.115385:MODS=*100 25% Centered,*100 25% Stealth:TIME=25.871567:LEN=0.115385:MODS=*100 25% Centered,*100 25% Stealth:TIME=26.794651:LEN=0.115379:MODS=*100 25% Centered,*100 25% Stealth:TIME=27.717714:LEN=0.153847:MODS=*8 Mini,*8 44% Stealth,*8 Dark:TIME=27.871561:LEN=1.692322:MODS=*.65 0% Mini,*.65 0% Stealth,*.65 0% Dark:TIME=42.486958:LEN=0.153847:MODS=*8 Mini,*8 Stealth,*8 Dark:TIME=42.640804:LEN=1.692322:MODS=*.65 0% Mini,*.65 0% Stealth,*.65 0% Dark:TIME=72.025444:LEN=0.153839:MODS=*8 Mini,*8 44% Stealth,*8 Dark:TIME=72.179283:LEN=1.692307:MODS=*.65 0% Mini,*.65 0% Stealth,*.65 0% Dark:TIME=101.576958:LEN=10.615387:MODS=*0.25 200% Mini;
#NOTES:
// measure 0
0000
0000
0000
0000
,  // measure 1
0000
0000
0000
0000
,  // measure 2
2000
0000
0000
3010
0000
0000
0000
0000
0100
0001
0000
0000
1000
0000
0010
0000
,  // measure 3
2000
0000
0000
3100
0000
0000
0000
0000
1000
0001
0000
0000
0010
0000
0100
0000
,  // measure 4
2000
0000
0000
3010
0000
0000
0000
0000
1000
0001
0000
0000
0010
0000
0001
0000
,  // measure 5
2000
0000
0000
3010
0000
0000
0000
0000
0100
0010
0000
0000
1000
0000
0001
0000
,  // measure 6
0200
0000
0000
0310
0000
0000
0000
0000
1000
0001
0000
0000
0010
0000
0100
0000
,  // measure 7
2000
0000
0000
3001
0000
0000
0000
0000
0010
0100
0000
0000
1000
0000
0001
0000
,  // measure 8
1000
0000
0100
0000
0010
0001
0000
0000
0001
0000
0010
0000
0100
0000
1000
0000
,  // measure 9
0001
0000
0100
0010
0000
0100
0000
0001
0000
0010
0100
0000
1000
0000
1000
0000
,  // measure 10
0001
0000
0100
0000
0010
1000
0000
0000
1000
0000
0001
0000
0100
0000
0010
0000
,  // measure 11
0100
0000
0001
1000
0000
0100
0000
0010
0000
0001
0100
0000
0001
0000
0001
0000
,  // measure 12
1000
0000
0100
0000
0010
0001
0000
0000
0001
0000
1000
0000
0010
0000
0100
0000
,  // measure 13
0001
0000
1000
0010
0000
0100
0000
0010
0000
1000
0001
0000
0010
0000
0010
0000
,  // measure 14
0001
0000
0100
0000
0010
1000
0000
0000
1000
0000
0100
0000
0010
0000
0001
0000
,  // measure 15
1000
0000
0010
0100
0000
0010
0000
1000
0000
0001
0010
0000
0000
0000
0000
0000
,  // measure 16
0001
0000
0100
0000
0001
0010
0100
1000
0001
0010
0000
0000
0001
0000
0100
0000
,  // measure 17
0001
0000
0010
0001
0000
0100
0010
1000
0001
0010
0000
0000
0001
0000
1000
0000
,  // measure 18
0100
0000
1000
0000
0001
0100
0001
0010
0100
1000
0000
0000
0001
0000
0010
0000
,  // measure 19
0001
0000
0100
0001
0000
1000
0100
1000
0001
0010
0000
0000
0001
0000
0100
0000
,  // measure 20
0001
0000
1000
0000
0010
0100
0001
0010
0001
1000
0000
0000
0001
0000
0010
0000
,  // measure 21
0001
0000
0100
0001
0000
0010
0100
0010
0001
1000
0000
0000
0010
0000
1000
0000
,  // measure 22
0001
0000
1000
0000
0010
0100
0001
1000
0100
1000
0000
0000
0001
0000
1000
0000
,  // measure 23
0200
0000
0000
0000
,  // measure 24
1300
0100
0010
0001
1000
0100
0010
0001
1000
0100
0000
0000
1000
0000
0010
0000
,  // measure 25
1000
0001
0100
0001
0010
0100
0010
0001
1000
0100
0000
0000
1000
0000
0010
0000
,  // measure 26
1000
0100
0010
0001
1000
0010
0100
0010
1000
0001
0000
0000
1000
0000
0010
0000
,  // measure 27
0100
0001
1000
0001
0010
0100
1000
0001
0100
0001
0000
0000
1000
0000
0010
0000
,  // measure 28
0100
0001
1000
0100
0010
0001
1000
0100
0010
0100
0000
0000
1000
0000
0001
0000
,  // measure 29
1000
0010
0100
0001
1000
0010
0100
0001
1000
0100
0000
0000
0010
0000
0001
0000
,  // measure 30
0010
0100
1000
0010
0100
0001
0010
0001
1000
0010
0000
0000
0100
0000
0001
0000
,  // measure 31
0100
0010
1000
0001
0010
0100
1000
0001
1000
0010
0000
0000
1000
0000
0100
0000
,  // measure 32
0020
0000
0030
0010
0001
0010
0000
0000
,  // measure 33
0200
0000
0300
0100
1000
0000
0000
0000
,  // measure 34
0200
0000
0300
0100
0010
0100
0000
0000
,  // measure 35
2000
0000
0000
0000
3000
0000
1000
0000
0001
0000
0001
0000
0000
0001
0000
0000
,  // measure 36
2000
0000
3000
1000
0010
1000
0000
0000
,  // measure 37
0002
0000
0003
0001
0100
0000
0000
0000
,  // measure 38
0002
0000
0003
0001
0010
0001
0000
0000
,  // measure 39
1002
0000
0000
1000
0000
0000
1000
0000
0000
0000
1000
0000
0000
1000
0000
0000
,  // measure 40
1003
0000
0010
0000
0100
0001
0000
0000
0001
0000
1000
0000
0100
0000
0010
0000
,  // measure 41
0001
0000
1000
0010
0000
0100
0000
0010
0000
1000
0001
0000
0010
0000
0010
0000
,  // measure 42
0001
0000
0100
0000
0010
M000
0000
0000
0010
0000
1000
0000
0001
0000
0100
0000
,  // measure 43
0001
0000
0010
0001
0000
0100
0000
0010
0000
1000
0100
0000
1000
0000
1000
0000
,  // measure 44
0010
0000
0100
0000
0001
1000
0000
0000
1000
0000
0001
0000
0100
0000
0010
0000
,  // measure 45
1000
0000
0001
0010
0000
0100
0000
0100
0000
1000
0010
0000
0100
0000
0100
0000
,  // measure 46
0001
0000
0010
0000
0001
M000
0000
0000
0100
0000
0010
0000
0100
0000
0001
0000
,  // measure 47
1000
0000
0100
0010
0000
0100
0000
0100
0000
1000
0001
0000
0100
0000
0100
0000
,  // measure 48
1001
0000
0001
0000
0010
0001
0000
0000
0001
0000
0100
0000
0010
0000
1000
0000
,  // measure 49
0100
0000
0010
0001
0000
1000
0000
0100
0000
1000
0001
0000
1000
0000
1000
0000
,  // measure 50
0100
0000
0010
0000
0100
000M
0000
0000
0100
0000
1000
0000
0001
0000
1000
0000
,  // measure 51
0010
0000
1000
0001
0000
0010
0000
0100
0000
1000
0001
0000
0100
0000
0001
0000
,  // measure 52
1000
0000
0100
0000
0010
0001
0000
0000
0001
0000
0100
0000
0010
0000
1000
0000
,  // measure 53
0001
0000
0010
0100
0000
0010
0000
0010
0000
0001
0100
0000
0001
0000
0001
0000
,  // measure 54
0010
0000
0001
0000
1000
000M
0000
0000
0001
0000
0010
0000
0001
0000
1000
0000
,  // measure 55
0200
0000
0000
0000
,  // measure 56
0000
0000
0000
0000
,  // measure 57
0000
0000
0000
0000
,  // measure 58
0000
0000
0000
0000
,  // measure 59
0300
0000
0000
0000
;

//---------------dance-single - ----------------
#NOTEDATA:;
#CHARTNAME:Just Something to Be Loved Forever;
#STEPSTYPE:dance-single;
#DESCRIPTION:;
#CHARTSTYLE:;
#DIFFICULTY:Edit;
#METER:9;
#RADARVALUES:0.643588,0.852270,0.325018,0.315990,0.907343,499.000000,463.000000,36.000000,35.000000,96.000000,0.000000,0.000000,0.000000,12.000000,0.643588,0.852270,0.325018,0.315990,0.907343,499.000000,463.000000,36.000000,35.000000,96.000000,0.000000,0.000000,0.000000,12.000000;
#CREDIT:Patrick Lake;
#OFFSET:0.000000;
#BPMS:0.000000=130.005005
,1.000000=129.998993
,6.000000=130.005005
,7.000000=129.998993
,13.000000=130.005005
,14.000000=129.998993
,19.000000=130.005005
,20.000000=129.998993
,26.000000=130.005005
,27.000000=129.998993
,32.000000=130.005005
,33.000000=129.998993
,39.000000=130.005005
,40.000000=129.998993
,45.000000=130.005005
,46.000000=129.998993
,52.000000=130.005005
,53.000000=129.998993
,58.000000=130.005005
,59.000000=129.998993
,65.000000=130.005005
,66.000000=129.998993
,71.000000=130.005005
,72.000000=129.998993
,78.000000=130.005005
,79.000000=129.998993
,84.000000=130.005005
,85.000000=129.998993
,91.000000=130.005005
,92.000000=129.998993
,97.000000=130.005005
,98.000000=129.998993
,104.000000=130.005005
,105.000000=129.998993
,111.000000=130.005005
,112.000000=129.998993
,117.000000=130.005005
,118.000000=129.998993
,124.000000=130.005005
,125.000000=129.998993
,130.000000=130.005005
,131.000000=129.998993
,137.000000=130.005005
,138.000000=129.998993
,143.000000=130.005005
,144.000000=129.998993
,150.000000=130.005005
,151.000000=129.998993
,156.000000=130.005005
,157.000000=129.998993
,163.000000=130.005005
,164.000000=129.998993
,169.000000=130.005005
,170.000000=129.998993
,176.000000=130.005005
,177.000000=129.998993
,182.000000=130.005005
,183.000000=129.998993
,189.000000=130.005005
,190.000000=129.998993
,195.000000=130.005005
,196.000000=129.998993
,202.000000=130.005005
,203.000000=129.998993
,209.000000=130.005005
,210.000000=129.998993
,216.000000=130.005005
,217.000000=129.998993
,222.000000=130.005005
,223.000000=129.998993
,229.000000=130.005005
,230.000000=129.998993
,235.000000=130.005005
,236.000000=129.998993
;
#STOPS:;
#DELAYS:;
#WARPS:;
#TIMESIGNATURES:0.000000=4=4
;
#TICKCOUNTS:0.000000=4
;
#COMBOS:0.000000=1
;
#SPEEDS:0.000000=1.200000=1.000000=0
,1.000000=1.000000=1.000000=0
,2.000000=1.100000=1.000000=0
,3.000000=1.000000=1.000000=0
,4.000000=1.200000=1.000000=0
,5.000000=1.000000=1.000000=0
,6.000000=1.400000=1.000000=0
,7.000000=1.000000=1.000000=0
,8.000000=1.200000=1.000000=0
,9.000000=1.000000=1.000000=0
,10.000000=1.100000=1.000000=0
,11.000000=1.000000=1.000000=0
,12.000000=1.200000=1.000000=0
,13.000000=1.000000=1.000000=0
,14.000000=1.300000=1.000000=0
,15.000000=1.000000=1.000000=0
,16.000000=1.200000=1.000000=0
,17.000000=1.000000=1.000000=0
,18.000000=1.100000=1.000000=0
,19.000000=1.000000=1.000000=0
,20.000000=1.200000=1.000000=0
,21.000000=1.000000=1.000000=0
,22.000000=1.400000=1.000000=0
,23.000000=1.000000=1.000000=0
,24.000000=1.200000=1.000000=0
,25.000000=1.000000=1.000000=0
,26.000000=1.100000=1.000000=0
,27.000000=1.000000=1.000000=0
,28.000000=1.200000=1.000000=0
,29.000000=1.000000=1.000000=0
,30.000000=1.400000=1.000000=0
,31.000000=1.000000=1.000000=0
,60.000000=0.250000=0.333300=0
,60.333332=1.000000=3.666700=0
,92.000000=0.250000=0.333300=0
,92.333336=1.000000=3.666700=0
,156.000000=0.250000=0.333300=0
,156.333328=1.000000=3.666700=0
,224.000000=0.000000=12.000000=0
;
#SCROLLS:0.000000=1.000000
,134.000000=0.600000
,136.000000=1.000000
,138.500000=0.600000
,140.000000=1.000000
,150.000000=0.600000
,152.000000=1.000000
;
#FAKES:0.000000=8.000000
;
#LABELS:0.000000=Song Start
;
#ATTACKS:TIME=14.794641:LEN=0.115380:MODS=*100 25% Centered,*100 25% Stealth:TIME=15.717704:LEN=0.115385:MODS=*100 25% Centered,*100 25% Stealth:TIME=16.640787:LEN=0.115385:MODS=*100 25% Centered,*100 25% Stealth:TIME=17.563871:LEN=0.115385:MODS=*100 25% Centered,*100 25% Stealth:TIME=18.486935:LEN=0.115385:MODS=*100 25% Centered,*100 25% Stealth:TIME=19.410019:LEN=0.115385:MODS=*100 25% Centered,*100 25% Stealth:TIME=20.333103:LEN=0.115385:MODS=*100 25% Centered,*100 25% Stealth:TIME=21.256166:LEN=0.115385:MODS=*100 25% Centered,*100 25% Stealth:TIME=22.179251:LEN=0.115385:MODS=*100 25% Centered,*100 25% Stealth:TIME=23.102335:LEN=0.115385:MODS=*100 25% Centered,*100 25% Stealth:TIME=24.025419:LEN=0.115379:MODS=*100 25% Centered,*100 25% Stealth:TIME=24.948483:LEN=0.115385:MODS=*100 25% Centered,*100 25% Stealth:TIME=25.871567:LEN=0.115385:MODS=*100 25% Centered,*100 25% Stealth:TIME=26.794651:LEN=0.115379:MODS=*100 25% Centered,*100 25% Stealth:TIME=27.717714:LEN=0.153847:MODS=*8 Mini,*8 Stealth,*8 Dark:TIME=27.871561:LEN=1.692322:MODS=*.65 0% Mini,*.65 0% Stealth,*.65 0% Dark:TIME=42.486958:LEN=0.153847:MODS=*8 Mini,*8 Stealth,*8 Dark:TIME=42.640804:LEN=1.692322:MODS=*.65 0% Mini,*.65 0% Stealth,*.65 0% Dark:TIME=72.025444:LEN=0.153839:MODS=*8 Mini,*8 Stealth,*8 Dark:TIME=72.179283:LEN=1.692307:MODS=*.65 0% Mini,*.65 0% Stealth,*.65 0% Dark:TIME=103.307709:LEN=7.615395:MODS=,*0.3 200% Mini;
#NOTES:
// measure 0
M000
0000
0000
00M0
0000
0000
0000
0000
0M00
000M
0000
0000
000M
0000
000M
0000
,  // measure 1
M000
0000
0000
0M00
0000
0000
0000
0000
M000
00M0
0000
0000
00M0
0000
00M0
0000
,  // measure 2
2000
0000
0000
3100
0000
0000
0000
0000
0020
0001
0000
0000
0001
0000
0031
0000
,  // measure 3
0200
0000
0000
0001
0000
00M0
03M1
0000
2001
0001
0000
00M0
0001
0000
00M1
0000
,  // measure 4
3002
0000
0000
0013
0000
0000
0000
0000
0200
1000
0000
0000
1000
0000
1300
0000
,  // measure 5
0020
0000
0000
1030
0000
0000
0000
0000
0002
1000
0000
0000
1000
0000
1003
0000
,  // measure 6
0200
0000
0000
1300
0000
0000
0000
0000
0020
0100
0000
0000
0100
0000
0130
0000
,  // measure 7
0002
0000
0000
0010
0000
M000
M013
0000
1002
1000
0000
00M0
1000
0000
10M0
0000
,  // measure 8
1003
0000
0100
0000
0010
0001
0000
0000
0001
0000
1000
0000
0100
0000
0010
0000
,  // measure 9
0001
0000
0010
0100
0000
1000
0000
0010
0000
1000
0100
0000
000M
0000
000M
0000
,  // measure 10
0010
0000
0001
0000
0100
0001
0000
0000
0001
0000
1000
0000
0100
0000
0010
0000
,  // measure 11
0001
0000
0010
0100
0000
1M00
0M00
0010
0000
1000
0100
00M0
000M
0000
0M0M
0000
,  // measure 12
1000
0000
0010
0000
0100
0001
0000
0000
0001
0000
1000
0000
0001
0000
0100
0000
,  // measure 13
0001
0000
0010
0100
0000
1000
0000
0001
0000
1000
0010
0000
000M
0000
000M
0000
,  // measure 14
0200
0300
0000
0000
0002
0003
0000
0000
0020
0030
0002
0003
0000
0000
0000
0000
0002
0003
0000
0000
0200
0000
0300
0000
0020
0000
0030
0000
2000
0000
3000
0000
,  // measure 15
0002
0000
00M0
0M00
0000
M000
0000
00M0
0000
0M00
M000
0000
0000
0000
0000
0000
,  // measure 16
1003
0000
0100
0000
1000
0010
0100
0001
1000
0000
0000
0100
0010
0000
0000
0000
,  // measure 17
0001
0000
0100
0010
0000
1000
0010
0100
0001
1000
0000
0000
010M
0000
001M
0000
,  // measure 18
0001
0000
1000
0000
0010
0100
0001
1000
0100
0000
0000
1000
0001
0000
0000
0000
,  // measure 19
1000
0000
0100
1000
0000
001M
0100
0001
1000
0100
0000
M000
001M
0000
M10M
0000
,  // measure 20
1000
0000
0001
0000
1000
0010
0100
0001
1000
0000
0000
0100
1000
0000
0000
0000
,  // measure 21
0010
0000
1000
0001
0000
1000
0100
0010
0001
0100
0000
0000
001M
0000
010M
0000
,  // measure 22
0001
0000
0010
0000
0001
1000
0100
1000
0001
0000
0000
0100
0001
0000
0000
0000
,  // measure 23
M000
000M
0M00
00M0
M000
000M
0M00
00M0
M000
000M
0M00
000M
M000
00M0
0M00
000M
,  // measure 24
1000
0001
0100
0001
1000
0100
1000
0010
0100
0010
1000
0100
0010
0001
1000
0000
,  // measure 25
0100
1000
0001
0010
0100
0010
0001
0100
0010
1000
0001
0010
010M
1000
001M
0100
,  // measure 26
0001
1000
0100
0010
0001
1000
0010
0100
0010
1000
0100
0010
0100
1000
0010
0000
,  // measure 27
1000
0001
1000
0100
0010
010M
1000
0001
1000
0010
1000
010M
M010
0001
M100
0001
,  // measure 28
1000
0010
0100
0001
0010
0100
1000
0001
1000
0010
0100
0010
1000
0001
0010
0000
,  // measure 29
0001
0100
0010
0100
0001
0010
0100
1000
0100
0010
0001
1000
001M
0100
001M
1000
,  // measure 30
0001
0010
0100
0010
0001
0100
0010
0100
0001
1000
0100
0010
0001
1000
0100
0000
,  // measure 31
1000
0001
1000
0010
0100
001M
100M
0100
1000
0001
1000
010M
M010
0001
M010
0100
,  // measure 32
1000
0001
0000
0100
0010
0000
0000
1000
0001
0010
0000
0001
0100
0001
0000
0000
,  // measure 33
2200
3300
0000
0000
0000
0000
1100
0000
0011
0000
0000
0000
0000
0000
0000
0000
,  // measure 34
2200
3300
0000
0000
0000
0000
1100
0000
0011
0000
1100
0000
0000
0000
0000
0000
,  // measure 35
2200
3300
0000
0000
0000
0000
1100
0000
0002
0003
0002
0003
0000
0002
0003
0000
,  // measure 36
1000
0001
0000
0100
0001
0000
0000
0010
0100
1000
0000
0010
0100
0010
0000
0000
,  // measure 37
2200
3300
0000
0000
0000
0000
1100
0000
2002
3003
0000
0000
0000
0000
0000
0000
,  // measure 38
0001
0000
1000
0000
0010
0100
0000
0010
0000
0000
1000
0000
0001
0000
1000
0000
,  // measure 39
000M
M000
0M00
00M0
000M
0M00
00M0
00M0
M000
000M
0M00
00M0
M000
000M
0M00
00M0
,  // measure 40
1001
0000
0001
0000
0100
0001
0000
0000
0001
0000
1000
0000
0100
0000
0010
0000
,  // measure 41
0001
0000
0100
0010
0000
0100
0000
0001
0000
1000
0001
0000
0011
0000
0011
0000
,  // measure 42
1100
0000
1000
0000
0100
0000
0010
0100
1000
0000
0001
0000
0100
0000
0010
0000
,  // measure 43
1000
0000
0100
0010
0000
0001
0000
0100
0000
0001
1000
0000
1100
0000
1100
0000
,  // measure 44
1001
0000
0001
0000
1000
0010
0000
0000
0010
0000
0100
0000
0001
0000
1000
0000
,  // measure 45
0100
0000
0010
0100
0000
1000
0000
1000
0000
0010
1000
0000
0011
0000
0011
0000
,  // measure 46
1100
0000
1000
0000
0010
0000
0100
0001
0010
0000
0100
0000
1000
0000
0001
0000
,  // measure 47
0100
0000
0010
0100
0000
0001
0000
0001
0000
1000
0100
0000
1001
0000
1001
0000
,  // measure 48
0011
0000
0001
0000
0100
0001
0000
0000
0001
0000
1000
0000
0100
0000
0010
0000
,  // measure 49
0001
0000
0100
0010
0000
0100
0000
0001
0000
1000
0001
0000
1100
0000
1100
0000
,  // measure 50
0011
0000
0010
0000
0001
0000
1000
0001
0010
0000
0100
0000
1000
0000
0001
0000
,  // measure 51
1000
0000
0010
0100
0000
0001
0000
1000
0000
0001
0010
0000
0101
0000
0101
0000
,  // measure 52
1001
0000
0001
0000
1000
0100
0000
0000
0100
0000
0010
0000
0100
0000
1000
0000
,  // measure 53
0010
0000
0100
0010
0000
1000
0000
1000
0000
0010
1000
0000
1100
0000
1100
0000
,  // measure 54
0011
0000
0010
0000
0001
0000
0100
0001
1000
0000
0100
0000
0010
0000
0001
0000
,  // measure 55
100M
0M00
00M0
M001
0M00
00MM
M000
01MM
0000
0M0M
M000
0M10
100M
00M0
0001
2M00
,  // measure 56
00M0
0000
0000
0000
,  // measure 57
0000
0000
0000
0000
,  // measure 58
0000
0000
0000
0000
,  // measure 59
3000
0000
0000
0000
;

//---------------dance-single - ----------------
#NOTEDATA:;
#CHARTNAME:Just Something I Value a Lot;
#STEPSTYPE:dance-single;
#DESCRIPTION:;
#CHARTSTYLE:;
#DIFFICULTY:Hard;
#METER:7;
#RADARVALUES:0.441096,0.452769,0.108339,0.054170,0.460443,342.000000,330.000000,12.000000,6.000000,3.000000,0.000000,19.000000,0.000000,6.000000,0.441096,0.452769,0.108339,0.054170,0.460443,342.000000,330.000000,12.000000,6.000000,3.000000,0.000000,19.000000,0.000000,6.000000;
#CREDIT:Phil Lee;
#OFFSET:0.000000;
#BPMS:0.000000=130.005005
,1.000000=129.998993
,6.000000=130.005005
,7.000000=129.998993
,13.000000=130.005005
,14.000000=129.998993
,19.000000=130.005005
,20.000000=129.998993
,26.000000=130.005005
,27.000000=129.998993
,32.000000=130.005005
,33.000000=129.998993
,39.000000=130.005005
,40.000000=129.998993
,45.000000=130.005005
,46.000000=129.998993
,52.000000=130.005005
,53.000000=129.998993
,58.000000=130.005005
,59.000000=129.998993
,65.000000=130.005005
,66.000000=129.998993
,71.000000=130.005005
,72.000000=129.998993
,78.000000=130.005005
,79.000000=129.998993
,84.000000=130.005005
,85.000000=129.998993
,91.000000=130.005005
,92.000000=129.998993
,97.000000=130.005005
,98.000000=129.998993
,104.000000=130.005005
,105.000000=129.998993
,111.000000=130.005005
,112.000000=129.998993
,117.000000=130.005005
,118.000000=129.998993
,124.000000=130.005005
,125.000000=129.998993
,130.000000=130.005005
,131.000000=129.998993
,137.000000=130.005005
,138.000000=129.998993
,143.000000=130.005005
,144.000000=129.998993
,150.000000=130.005005
,151.000000=129.998993
,156.000000=130.005005
,157.000000=129.998993
,163.000000=130.005005
,164.000000=129.998993
,169.000000=130.005005
,170.000000=129.998993
,176.000000=130.005005
,177.000000=129.998993
,182.000000=130.005005
,183.000000=129.998993
,189.000000=130.005005
,190.000000=129.998993
,195.000000=130.005005
,196.000000=129.998993
,202.000000=130.005005
,203.000000=129.998993
,209.000000=130.005005
,210.000000=129.998993
,216.000000=130.005005
,217.000000=129.998993
,222.000000=130.005005
,223.000000=129.998993
,229.000000=130.005005
,230.000000=129.998993
,235.000000=130.005005
,236.000000=129.998993
;
#STOPS:;
#DELAYS:;
#WARPS:;
#TIMESIGNATURES:0.000000=4=4
;
#TICKCOUNTS:0.000000=4
;
#COMBOS:0.000000=1
;
#SPEEDS:0.000000=1.200000=1.000000=0
,1.000000=1.000000=1.000000=0
,2.000000=1.100000=1.000000=0
,3.000000=1.000000=1.000000=0
,4.000000=1.200000=1.000000=0
,5.000000=1.000000=1.000000=0
,6.000000=1.400000=1.000000=0
,7.000000=1.000000=1.000000=0
,8.000000=1.200000=1.000000=0
,9.000000=1.000000=1.000000=0
,10.000000=1.100000=1.000000=0
,11.000000=1.000000=1.000000=0
,12.000000=1.200000=1.000000=0
,13.000000=1.000000=1.000000=0
,14.000000=1.300000=1.000000=0
,15.000000=1.000000=1.000000=0
,16.000000=1.200000=1.000000=0
,17.000000=1.000000=1.000000=0
,18.000000=1.100000=1.000000=0
,19.000000=1.000000=1.000000=0
,20.000000=1.200000=1.000000=0
,21.000000=1.000000=1.000000=0
,22.000000=1.400000=1.000000=0
,23.000000=1.000000=1.000000=0
,24.000000=1.200000=1.000000=0
,25.000000=1.000000=1.000000=0
,26.000000=1.100000=1.000000=0
,27.000000=1.000000=1.000000=0
,28.000000=1.200000=1.000000=0
,29.000000=1.000000=1.000000=0
,30.000000=1.400000=1.000000=0
,31.000000=1.000000=1.000000=0
,156.333328=1.000000=3.666700=0
,220.000000=0.000000=0.000000=0
,220.020828=1.000000=4.250000=0
,224.000000=0.000000=12.000000=0
;
#SCROLLS:0.000000=1.000000
,130.500000=0.600000
,132.000000=1.000000
,134.000000=0.600000
,136.000000=1.000000
,138.500000=0.600000
,140.000000=1.000000
,146.500000=0.600000
,148.000000=1.000000
,150.000000=0.600000
,152.000000=1.000000
,154.500000=0.600000
,156.000000=1.000000
;
#FAKES:0.000000=8.000000
,220.250000=2.500000
;
#LABELS:0.000000=Song Start
;
#ATTACKS:TIME=14.794641:LEN=0.115380:MODS=*100 25% Centered,*100 25% Stealth:TIME=15.717705:LEN=0.115385:MODS=*100 25% Centered,*100 25% Stealth:TIME=16.640785:LEN=0.115385:MODS=*100 25% Centered,*100 25% Stealth:TIME=17.563869:LEN=0.115385:MODS=*100 25% Centered,*100 25% Stealth:TIME=18.486933:LEN=0.115385:MODS=*100 25% Centered,*100 25% Stealth:TIME=19.410017:LEN=0.115385:MODS=*100 25% Centered,*100 25% Stealth:TIME=20.333101:LEN=0.115385:MODS=*100 25% Centered,*100 25% Stealth:TIME=21.256165:LEN=0.115385:MODS=*100 25% Centered,*100 25% Stealth:TIME=22.179249:LEN=0.115385:MODS=*100 25% Centered,*100 25% Stealth:TIME=23.102333:LEN=0.115385:MODS=*100 25% Centered,*100 25% Stealth:TIME=24.025417:LEN=0.115379:MODS=*100 25% Centered,*100 25% Stealth:TIME=24.948481:LEN=0.115385:MODS=*100 25% Centered,*100 25% Stealth:TIME=25.871565:LEN=0.115385:MODS=*100 25% Centered,*100 25% Stealth:TIME=26.794649:LEN=0.115379:MODS=*100 25% Centered,*100 25% Stealth:TIME=27.717712:LEN=0.153847:MODS=*8 Mini,*8 Stealth,*8 Dark:TIME=27.871559:LEN=1.692322:MODS=*.65 0% Mini,*.65 0% Stealth,*.65 0% Dark:TIME=42.486961:LEN=0.153847:MODS=*8 Mini,*8 Stealth,*8 Dark:TIME=42.640808:LEN=1.692322:MODS=*.65 0% Mini,*.65 0% Stealth,*.65 0% Dark:TIME=72.025444:LEN=0.153839:MODS=*8 Mini,*8 44% Stealth,*8 Dark:TIME=72.179283:LEN=1.692307:MODS=*.65 0% Mini,*.65 0% Stealth,*.65 0% Dark:TIME=101.580620:LEN=15.000000:MODS=*0.25 200% Mini;
#NOTES:
// measure 0
0000
0000
0000
0000
,  // measure 1
0000
0000
0000
0000
,  // measure 2
1000
0000
0000
0100
0000
0000
0000
0000
1000
0001
0000
0000
0010
0000
0001
0000
,  // measure 3
0100
0000
0000
0010
0000
0000
0010
0000
1000
0100
0000
0000
1000
0000
0010
0000
,  // measure 4
1000
0000
0000
0001
0000
0000
0000
0000
0100
0010
0000
0000
1000
0000
0100
0000
,  // measure 5
1000
0000
0000
0010
0000
0000
0000
0000
0100
0001
0000
0000
1000
0000
0001
0000
,  // measure 6
0100
0000
0000
0010
0000
0000
0000
0000
1000
0100
0000
0000
0010
0000
0100
0000
,  // measure 7
1000
0000
0000
0001
0000
0000
0001
0000
0010
0001
0000
0000
1000
0000
0010
0000
,  // measure 8
1000
0000
0100
0000
0010
0001
0000
0000
0001
0000
1000
0000
0100
0000
1000
0000
,  // measure 9
0010
0000
1000
0001
0000
0010
0000
0001
0000
0100
0001
0000
0000
0000
0000
0000
,  // measure 10
1000
0000
0100
0000
0010
0100
0000
0000
0100
0000
1000
0000
0001
0000
1000
0000
,  // measure 11
0010
0000
1000
0001
0000
0100
0000
0010
0000
1000
0100
0000
0000
0000
0000
0000
,  // measure 12
0010
0000
0001
0000
1000
0001
0000
0000
0001
0000
0100
0000
0001
0000
1000
0000
,  // measure 13
0001
0000
0010
0100
0000
0010
0000
0001
0000
1000
0001
0000
0000
0000
0000
0000
,  // measure 14
0100
0000
0010
0000
0100
0001
0000
0000
0001
0000
0010
0000
0100
0000
1000
0000
,  // measure 15
2020
0000
0000
3030
,  // measure 16
1000
0000
0100
0000
0040
0000
0000
0000
0031
0000
0000
0100
0001
0000
0000
0000
,  // measure 17
0010
0000
0001
0100
0000
0040
0000
0000
1030
0001
0000
0010
0000
0000
0000
0000
,  // measure 18
0001
0000
1000
0000
0400
0000
0000
0000
0310
0000
0000
0001
0100
0000
0000
0000
,  // measure 19
0010
0000
1000
0010
0000
0400
0000
0000
0301
0010
0000
0001
0000
0000
0000
0000
,  // measure 20
1000
0000
0010
0000
0400
0000
0000
0000
0310
0000
0000
1000
0100
0000
0000
0000
,  // measure 21
1000
0000
0001
0100
0000
0040
0000
0000
0130
0001
0000
0010
0000
0000
0000
0000
,  // measure 22
0100
0000
1000
0000
0040
0000
0000
0000
1030
0000
0000
0100
0010
0000
0000
0000
,  // measure 23
0202
0000
0000
0303
,  // measure 24
1001
0000
1000
0000
0004
0000
0000
0000
0103
0000
0000
0010
1000
0000
0000
0000
,  // measure 25
0001
0000
0010
0100
0000
0040
0000
0000
0031
0100
0000
0001
0000
0000
0000
0000
,  // measure 26
1000
0000
0100
0000
0040
0000
0000
0000
0031
0000
0000
1000
0010
0000
0000
0000
,  // measure 27
0100
0000
0001
1000
0000
0400
0000
0000
0310
0001
0000
0100
0000
0000
0000
0000
,  // measure 28
0010
0000
1000
0000
0400
0000
0000
0000
1300
0000
0000
0010
0100
0000
0000
0000
,  // measure 29
0001
0000
1000
0100
0000
0040
0000
0000
0130
1000
0000
0001
0000
0000
0000
0000
,  // measure 30
0010
0000
0001
0000
4000
0000
0000
0000
3010
0000
0000
0100
0001
0000
0000
0000
,  // measure 31
1000
0000
0001
0010
0000
0400
0000
0000
1300
0001
0000
0100
0000
0000
0000
0000
,  // measure 32
0001
0000
0000
0001
1001
0001
0000
0000
,  // measure 33
0010
0000
0000
0010
0110
0000
0000
0000
,  // measure 34
0001
0000
0000
0001
0101
0001
0000
0000
,  // measure 35
1000
0000
0000
0000
0000
0000
1000
0000
1100
0000
1100
0000
0000
1100
0000
0000
,  // measure 36
1000
0000
0000
1000
1001
1000
0000
0000
,  // measure 37
0010
0000
0000
0010
0110
0000
0000
0000
,  // measure 38
1000
0000
0000
1000
1100
1000
0000
0000
,  // measure 39
2000
0000
0000
0010
0000
0000
3010
0000
0000
0000
0000
0000
M0M0
0000
0000
0000
,  // measure 40
1000
0000
0100
0000
1000
0001
0000
0000
0001
0000
0010
0000
1000
0000
0010
0000
,  // measure 41
0001
0000
0100
0010
0000
1000
0000
0100
0000
0010
0100
0000
0000
0000
0000
0000
,  // measure 42
1000
0010
0400
0000
0301
0010
1000
0010
,  // measure 43
0100
0000
1000
0100
0000
0010
0000
0100
0000
1000
0001
0000
0000
0000
0000
0000
,  // measure 44
0100
0000
0010
0000
0100
0001
0000
0000
0001
0000
0010
0000
0100
0000
0001
0000
,  // measure 45
0100
0000
1000
0010
0000
0100
0000
0100
0000
0001
1000
0000
0000
0000
0000
0000
,  // measure 46
0001
0010
0400
0000
0310
1000
0010
0001
,  // measure 47
0001
0000
1000
0010
0000
0100
0000
0100
0000
0001
0010
0000
0000
0000
0000
0000
,  // measure 48
0001
0000
0100
0000
0001
1000
0000
0000
1000
0000
0010
0000
0001
0000
0010
0000
,  // measure 49
1000
0000
0100
0010
0000
0001
0000
0100
0000
0010
0100
0000
0000
0000
0000
0000
,  // measure 50
0001
0010
0400
0000
1300
0010
0001
0010
,  // measure 51
0100
0000
0001
0100
0000
0010
0000
0100
0000
0001
1000
0000
0000
0000
0000
0000
,  // measure 52
0100
0000
0010
0000
0100
1000
0000
0000
1000
0000
0010
0000
0100
0000
1000
0000
,  // measure 53
0100
0000
0001
0010
0000
0100
0000
0100
0000
1000
0001
0000
0000
0000
0000
0000
,  // measure 54
1000
0010
0400
0000
0310
0001
0010
1000
,  // measure 55
002M
0000
0M00
000M
0000
M000
0000
0M00
0000
M000
000M
0000
0000
0000
0000
0000
,  // measure 56
0000
0000
0000
0000
,  // measure 57
0000
0000
0000
0000
,  // measure 58
0000
0000
0000
0000
,  // measure 59
0030
0000
0000
0000
;
