#VERSION:0.83;
#TITLE:Impossible;
#SUBTITLE:;
#ARTIST:Antagon & Limbertimbre;
#TITLETRANSLIT:;
#SUBTITLETRANSLIT:;
#ARTISTTRANSLIT:;
#GENRE:;
#ORIGIN:;
#CREDIT:;
#BANNER:impossible-banner.png;
#BACKGROUND:impossible-bg.png;
#PREVIEWVID:;
#JACKET:;
#CDIMAGE:;
#DISCIMAGE:;
#LYRICSPATH:;
#CDTITLE:;
#MUSIC:Antagon_&_Limbertimbre_-_impossible_170-180bpm_441_16bit1.ogg;
#OFFSET:0.000000;
#SAMPLESTART:50.823502;
#SAMPLELENGTH:16.941177;
#SELECTABLE:YES;
#DISPLAYBPM:170.000000:180.000000;
#BPMS:0.000=170.000,
256.000=87.500,
264.000=180.000;
#STOPS:;
#DELAYS:;
#WARPS:;
#TIMESIGNATURES:0.000=4=4;
#TICKCOUNTS:0.000=4;
#COMBOS:0.000=1;
#SPEEDS:0.000=1.000=0.000=0;
#SCROLLS:0.000=1.000;
#FAKES:;
#LABELS:0.000=Song Start;
#BGCHANGES:;
#KEYSOUNDS:;
#ATTACKS:
;

//---------------dance-single - Blank----------------
#NOTEDATA:;
#CHARTNAME:Division By Zero;
#STEPSTYPE:dance-single;
#DESCRIPTION:Blank;
#CHARTSTYLE:;
#DIFFICULTY:Beginner;
#METER:1;
#RADARVALUES:0.142191,0.252690,0.007009,0.049066,0.000000,142.000000,141.000000,1.000000,7.000000,0.000000,0.000000,0.000000,0.000000,0.000000,0.142191,0.252690,0.007009,0.049066,0.000000,142.000000,141.000000,1.000000,7.000000,0.000000,0.000000,0.000000,0.000000,0.000000;
#CREDIT:Phil Lee;
#OFFSET:0.000000;
#BPMS:0.000000=170.000000
,256.000000=175.000000
,272.000000=180.000000
;
#STOPS:;
#DELAYS:;
#WARPS:;
#TIMESIGNATURES:0.000000=4=4
;
#TICKCOUNTS:0.000000=4
;
#COMBOS:0.000000=1
;
#SPEEDS:0.000000=1.000000=0.000000=0
;
#SCROLLS:0.000000=1.000000
;
#FAKES:;
#LABELS:0.000000=Song Start
;
#DISPLAYBPM:170.000000:180.000000;
#NOTES:
0000
0000
0000
0000
,
0000
0000
0000
0000
,
0000
0000
0000
0000
,
0000
0000
0000
0000
,
1000
0000
0000
0000
,
0100
0000
0000
0000
,
0010
0000
0010
0000
,
0001
0001
0002
0000
,
1003
0000
0000
0000
,
0010
0000
0000
0000
,
1000
0000
0000
0000
,
0100
0000
0000
0000
,
0010
0000
0000
0000
,
0001
0000
0000
0000
,
0100
0000
0000
0000
,
0001
0000
0001
0000
,
1000
1000
0000
0000
,
0010
0000
0000
0000
,
0000
1000
0000
0000
,
0001
0000
0000
0000
,
0200
0300
0000
0000
,
0001
0000
0000
0000
,
0010
0000
0000
0000
,
0001
0000
0000
0000
,
1000
0000
1000
0000
,
0100
0100
0100
0000
,
0000
0010
0000
0010
,
0001
0000
0000
0000
,
0100
0100
0000
0000
,
0010
0000
0000
1000
,
2000
3000
1000
0100
,
0010
0000
0000
0000
,
0001
0000
0001
0000
,
0001
0000
0001
0000
,
1000
0000
0000
0000
,
0010
0000
0000
0000
,
0100
0000
0000
0000
,
0001
0000
0000
0000
,
0010
0000
0000
0000
,
0000
0000
0000
0000
,
1001
0000
0000
0000
,
1000
0000
0000
0000
,
0010
0000
0000
0000
,
1000
0000
0000
0000
,
0100
0000
0000
0000
,
0010
0000
0000
0000
,
0100
0000
0000
0000
,
1000
0000
0000
0000
,
0000
0001
0001
0000
,
0000
0100
0100
0000
,
0010
0000
0010
0000
,
0100
0000
0100
0000
,
0001
0000
0001
0000
,
1000
0000
1000
0000
,
0000
0001
0001
0000
,
0010
0000
0000
0100
,
0100
0000
0000
0000
,
1000
0000
0000
0000
,
0010
0000
0000
0000
,
1000
0000
0000
0000
,
0100
0000
0000
0000
,
0010
0000
0000
0000
,
0001
0000
0000
0000
,
0100
0000
0000
0000
,
0010
0000
0000
0000
,
0000
0000
0000
0000
,
0000
0000
0000
0000
,
0000
0000
0000
0000
,
2000
0000
0000
0000
,
3000
0200
0000
0000
0000
0000
0000
0000
,
0000
0300
0000
0000
0000
0000
0000
0000
,
0000
0000
0000
0000
,
1000
0000
1000
0000
,
0010
0000
0010
0000
,
0100
0000
0100
0000
,
0010
0000
0010
0000
,
1000
0000
1000
0000
,
0001
0000
0001
0000
,
0010
0000
0010
0000
,
0001
0000
0000
0000
0002
0000
0000
0003
,
0100
0000
0100
0000
,
0010
0000
0010
0000
,
1000
0000
1000
0000
,
0100
0000
0100
0000
,
1000
1000
1000
1000
,
1000
0000
0000
0001
,
0000
0000
0000
0100
,
0000
0001
0001
0000
,
0000
0000
0000
0000
,
0000
0000
0000
0010
,
0000
0000
0100
0000
,
1000
0000
1000
0000
,
0010
0000
0010
0000
,
0100
0000
0100
0000
,
0010
0000
0010
0000
,
1000
0000
1000
0000
,
0100
0000
0100
0000
,
0010
0000
0010
0000
,
0001
0000
0001
0000
,
0100
0000
0100
0000
,
0010
0000
0010
0000
,
0200
0000
0000
0000
,
0000
0000
0000
0000
,
0300
0000
0000
0000
;

//---------------dance-single - Blank----------------
#NOTEDATA:;
#CHARTNAME:P vs. NP;
#STEPSTYPE:dance-single;
#DESCRIPTION:Blank;
#CHARTSTYLE:;
#DIFFICULTY:Easy;
#METER:5;
#RADARVALUES:0.335451,0.397084,0.007009,0.154207,0.028038,335.000000,334.000000,1.000000,22.000000,7.000000,0.000000,0.000000,0.000000,0.000000,0.335451,0.397084,0.007009,0.154207,0.028038,335.000000,334.000000,1.000000,22.000000,7.000000,0.000000,0.000000,0.000000,0.000000;
#CREDIT:Phil Lee;
#OFFSET:0.000000;
#BPMS:0.000000=170.000000
,256.000000=175.000000
,272.000000=180.000000
;
#STOPS:;
#DELAYS:;
#WARPS:;
#TIMESIGNATURES:0.000000=4=4
;
#TICKCOUNTS:0.000000=4
;
#COMBOS:0.000000=1
;
#SPEEDS:0.000000=1.000000=0.000000=0
;
#SCROLLS:0.000000=1.000000
;
#FAKES:;
#LABELS:0.000000=Song Start
;
#DISPLAYBPM:170.000000:180.000000;
#NOTES:
// measure 0
0000
0000
0000
0000
,  // measure 1
0000
0000
0000
0000
,  // measure 2
0000
0000
0000
0000
,  // measure 3
0000
0000
0000
0000
,  // measure 4
1000
0000
1000
0000
,  // measure 5
0100
0000
0100
0000
,  // measure 6
0010
0000
0010
0001
,  // measure 7
0010
0001
0020
0000
,  // measure 8
0130
0000
0000
0100
0000
0000
0100
0000
0000
0100
0000
0000
0100
0000
0000
0100
,  // measure 9
0000
1000
0000
0000
0010
0000
1000
0000
,  // measure 10
0020
0000
0130
0001
,  // measure 11
0100
0001
0010
0100
,  // measure 12
0010
0001
1000
0001
,  // measure 13
1000
0000
0000
2000
0000
3000
0000
0000
0000
0000
2000
0000
0000
3000
0000
0000
,  // measure 14
0010
1000
0010
0100
,  // measure 15
0001
0010
0100
0100
,  // measure 16
2000
3010
1000
0100
,  // measure 17
0010
0100
1000
0001
,  // measure 18
0100
0000
0010
0000
0100
0000
0000
0100
0000
0000
0100
0000
0000
0100
0000
0000
,  // measure 19
0100
0001
1000
0001
,  // measure 20
2000
3100
0010
0001
,  // measure 21
0100
0010
0100
0001
,  // measure 22
0010
0100
0010
0001
,  // measure 23
1000
0000
0010
0000
1000
1000
0200
0000
,  // measure 24
1300
0010
1000
0100
,  // measure 25
1000
0001
0001
0001
,  // measure 26
0000
0100
0010
0100
,  // measure 27
0001
0010
0100
0100
,  // measure 28
2000
3010
0000
0010
,  // measure 29
0200
0000
0000
0301
0000
0100
0002
0000
,  // measure 30
2003
0000
3200
0320
,  // measure 31
0031
0000
0000
0001
0000
0000
0001
0000
0000
0001
0000
0000
0001
0000
0001
0000
,  // measure 32
0001
0000
0001
0000
,  // measure 33
0001
0000
0001
0000
,  // measure 34
1000
0000
0010
0000
,  // measure 35
1000
0000
0010
0000
,  // measure 36
0100
0001
0100
0001
,  // measure 37
0010
0100
0010
0100
,  // measure 38
0010
0010
0000
0000
0000
0000
0000
0000
,  // measure 39
0000
0000
0000
0000
,  // measure 40
0001
1000
0001
1000
,  // measure 41
0020
0000
0000
0000
0030
0020
0000
0030
,  // measure 42
0100
0001
0100
0001
,  // measure 43
1000
0001
1000
0001
,  // measure 44
0200
0301
0100
0001
,  // measure 45
0010
0100
0010
0100
,  // measure 46
1000
0000
0000
0000
1000
0100
1000
0000
,  // measure 47
0001
0100
0010
0100
,  // measure 48
0001
0010
0100
0020
,  // measure 49
0031
1000
0010
2000
,  // measure 50
3100
0010
0100
1000
,  // measure 51
0001
0100
0010
0100
,  // measure 52
0001
0010
0100
1000
,  // measure 53
0001
0010
0100
1000
,  // measure 54
0001
1000
0010
2000
,  // measure 55
3100
0010
0001
0100
,  // measure 56
0010
0100
0010
1000
,  // measure 57
0100
0010
0100
0010
,  // measure 58
0001
1000
0001
1000
,  // measure 59
0010
1000
0010
1000
,  // measure 60
0100
0010
0100
0010
,  // measure 61
0001
1000
0001
1000
,  // measure 62
0010
0100
0010
0100
,  // measure 63
0001
1000
0001
1000
,  // measure 64
1001
0000
000M
0000
,  // measure 65
0M00
0000
00M0
0000
,  // measure 66
M000
0000
0M00
0000
,  // measure 67
00M0
0000
0M00
0000
,  // measure 68
2000
0000
0000
0000
,  // measure 69
3000
0200
0000
0000
0000
0000
0000
0000
,  // measure 70
0000
0300
0000
0000
0000
0000
0000
0000
,  // measure 71
0000
0000
0000
0000
,  // measure 72
0010
0000
0010
0000
,  // measure 73
0001
0000
0001
0000
,  // measure 74
1000
0000
1000
0000
,  // measure 75
0010
0000
0010
0000
,  // measure 76
1000
0001
1000
0001
,  // measure 77
0010
0100
0010
0100
,  // measure 78
1000
0000
0010
0000
1000
0010
1000
0000
,  // measure 79
0010
0000
0100
0000
0001
0010
0001
0000
,  // measure 80
0010
0100
1000
0001
,  // measure 81
0100
0010
0100
0001
,  // measure 82
0010
0100
1000
0010
,  // measure 83
0100
0010
1000
0100
,  // measure 84
1000
0000
0001
0000
1000
0010
1000
0000
,  // measure 85
0100
0010
0001
0100
,  // measure 86
0010
1000
0100
0010
,  // measure 87
0001
1000
0010
1000
,  // measure 88
0100
0010
0100
1000
,  // measure 89
0001
0100
0010
0100
,  // measure 90
0001
0010
0100
0010
,  // measure 91
0001
1000
0001
0100
,  // measure 92
0010
0100
0001
0010
,  // measure 93
0100
1000
0010
0100
,  // measure 94
0010
1000
0100
0010
,  // measure 95
0001
1000
0010
1000
,  // measure 96
0100
1000
0010
0100
,  // measure 97
0010
1000
0100
0010
,  // measure 98
0001
0100
0010
0100
,  // measure 99
0001
0010
0001
0100
,  // measure 100
0010
0100
0001
0010
,  // measure 101
0200
0000
0000
0000
,  // measure 102
0000
0000
0000
0000
,  // measure 103
0300
0000
0000
0000
;

//---------------dance-single - Blank----------------
#NOTEDATA:;
#CHARTNAME:Riemann Hypothesis;
#STEPSTYPE:dance-single;
#DESCRIPTION:Blank;
#CHARTSTYLE:;
#DIFFICULTY:Medium;
#METER:6;
#RADARVALUES:0.389524,0.469281,0.007009,0.175236,0.241825,389.000000,388.000000,1.000000,25.000000,0.000000,0.000000,2.000000,0.000000,181.000000,0.389524,0.469281,0.007009,0.175236,0.241825,389.000000,388.000000,1.000000,25.000000,0.000000,0.000000,2.000000,0.000000,181.000000;
#CREDIT:Phil Lee;
#OFFSET:0.000000;
#BPMS:0.000000=170.000000
,256.000000=175.000000
,272.000000=180.000000
;
#STOPS:;
#DELAYS:;
#WARPS:;
#TIMESIGNATURES:0.000000=4=4
;
#TICKCOUNTS:0.000000=4
;
#COMBOS:0.000000=1
;
#SPEEDS:0.000000=1.000000=0.000000=0
,152.000000=0.500000=4.000000=0
,156.000000=1.000000=3.000000=0
;
#SCROLLS:0.000000=1.000000
,64.000000=0.750000
,64.750000=2.000000
,65.000000=1.000000
,73.000000=0.750000
,73.250000=2.000000
,73.500000=1.000000
,73.750000=0.750000
,74.000000=2.000000
,74.250000=1.000000
,74.500000=0.750000
,74.750000=2.000000
,75.000000=1.000000
,75.250000=0.750000
,75.500000=2.000000
,75.750000=1.000000
,94.000000=0.000000
,94.250000=1.500000
,94.500000=0.000000
,94.750000=1.500000
,95.000000=0.750000
,96.000000=1.000000
,112.000000=0.750000
,112.750000=2.000000
,113.000000=1.000000
,124.000000=0.750000
,124.500000=2.000000
,124.750000=0.750000
,125.250000=2.000000
,125.500000=0.750000
,126.000000=2.000000
,126.250000=0.750000
,126.750000=2.000000
,127.000000=0.750000
,127.250000=2.000000
,127.500000=0.750000
,127.750000=2.000000
,128.000000=1.000000
,159.250000=0.750000
,159.750000=2.000000
,160.000000=1.000000
,319.500000=0.000000
,319.750000=2.000000
,320.000000=1.000000
,335.000000=0.000000
,335.750000=2.000000
,336.000000=1.000000
;
#FAKES:256.500000=15.500000
;
#LABELS:0.000000=Song Start
;
#DISPLAYBPM:170.000000:180.000000;
#NOTES:
0000
0000
0000
0000
,
0000
0000
0000
0000
,
0000
0000
0000
0000
,
0000
0000
0000
0000
,
1000
0100
1000
0010
,
0100
0001
0010
0001
,
0100
0010
2000
3200
,
2300
3002
2003
0000
,
3010
0000
0000
0100
0000
0000
0010
0000
0000
0100
0000
0000
0010
0000
0000
0100
,
0000
0001
0010
0000
0001
0000
1000
0000
,
0020
0130
0001
0010
,
0100
0010
0001
0100
,
0010
0100
0001
0010
,
0100
0000
0000
0100
0000
0000
0100
0000
0000
0000
0100
0000
0000
0100
0000
0000
,
1000
0001
0010
0100
,
0010
0000
0001
0000
1000
0000
1000
0100
,
2000
3010
1000
0100
,
1000
0001
0100
0001
,
0010
0000
0000
0000
0100
0000
0000
1000
0000
0000
0100
0000
0000
1000
0000
0000
,
0100
0010
0001
1000
,
0002
0000
0103
0000
0010
0000
1000
0100
,
1000
0010
0100
0001
,
0010
0100
0010
0001
,
1000
0000
0100
0000
0010
0010
0001
0000
,
1000
0100
1000
0100
1000
0000
0001
0000
,
0100
0000
0020
0030
0020
0030
0020
0030
,
1000
0100
0010
0100
,
1000
0000
0010
0000
1000
0000
0000
0000
0100
0000
0000
0100
0000
0000
0100
0000
,
0020
0000
0031
0000
0000
1000
0001
0000
,
0100
0001
0000
0020
0000
0130
0020
0000
,
0032
0000
0000
0000
0103
0010
0100
0010
,
0100
0000
0000
0100
0000
0000
0100
0000
0000
0100
0000
0000
0100
0000
0100
0000
,
0001
0000
0000
0001
0001
0000
0000
0001
,
0001
0000
0000
0000
0000
0000
0000
0000
0000
0010
0000
0000
0000
0000
0000
0000
0000
0000
0100
0000
0100
0000
0000
0000
,
1000
0100
1000
0001
,
0100
0001
0010
0100
,
1000
0010
0100
0010
,
1000
0001
0100
0001
,
0010
0010
0000
0000
0000
0000
0000
0000
,
0000
0000
0000
0000
,
1001
0001
0100
0001
,
0040
0000
0000
0000
0030
0004
0000
0000
,
1003
0000
0100
0000
1000
0000
0000
0100
0000
1000
0000
0000
0001
0000
0000
0000
,
0100
0010
0100
0010
0200
0000
0302
0000
,
2003
0000
0000
0000
3010
0000
0000
0100
0000
0000
0010
0000
0000
0100
0000
0000
,
0001
0010
0001
0010
0000
0001
0100
0000
,
0010
0000
0000
0000
0010
1000
0010
0000
,
1000
0010
1000
0100
,
0010
0000
0001
0100
0001
0100
0001
0000
,
0000
0000
1000
0100
1000
0100
1000
0000
,
0010
0100
0010
1000
,
0100
0010
0001
0100
,
0001
0010
0001
0010
0002
0000
0000
0000
,
1003
0010
1000
0010
2000
0000
0000
0000
,
3000
0000
0100
0010
0100
0010
0100
0000
,
1000
0010
0100
0001
,
1000
0100
0010
0001
,
0100
0000
0000
0010
0000
0100
0001
0000
,
0010
0100
1000
0010
,
1000
0000
0100
0000
0000
0010
0000
0001
,
0010
0100
1000
0010
,
0100
0000
0000
0001
0000
0010
0001
0000
,
0100
0010
1000
0100
,
0010
0000
0001
0000
0000
0100
0000
0001
,
1000
0000
0000
0000
MMM0
M00M
M00M
M00M
MMM0
M00M
M00M
M00M
MMM0
0000
0000
0000
MMM0
M00M
M00M
M00M
MMM0
M00M
M00M
M00M
M00M
0000
0000
0000
MMMM
M000
M000
M000
,
MMMM
M000
M000
M000
MMMM
0000
0000
0000
0MM0
M00M
M00M
M00M
MMMM
M00M
M00M
M00M
M00M
0000
0000
0000
M00M
M00M
M0M0
M0M0
MM00
M0M0
M0M0
M00M
M00M
0000
0000
0000
,
0000
0000
0000
0000
0000
0000
0000
0000
0000
0000
0000
0000
MMMM
0MM0
0MM0
0MM0
0MM0
0MM0
0MM0
0MM0
0MM0
0000
0000
0000
MMMM
0MM0
0MM0
0MM0
0MM0
0MM0
0MM0
0MM0
,
MMMM
0000
0000
0000
M00M
M00M
MMMM
MMMM
MMMM
M00M
M00M
M00M
M00M
0000
0000
0000
MMMM
M000
M000
M000
MMMM
M000
M000
M000
MMMM
0000
0000
0000
0000
0000
0000
0000
,
0002
0000
0000
0000
,
0003
0020
0000
0000
0000
0000
0000
0000
,
0000
0030
0000
0000
0000
0000
0000
0000
,
0000
0000
0000
0000
,
0001
0000
1000
0100
1000
0000
1000
0100
,
1000
0000
0000
0010
0000
0000
0100
0001
,
0100
0001
0010
0100
0020
0000
0000
0000
,
0030
0000
0001
0000
,
1000
0010
0100
0010
,
1000
0100
0010
0001
,
0100
0000
0001
0000
0010
0100
0010
0000
,
0001
0000
1000
0000
0010
0100
0010
0000
,
1000
0001
0010
0100
,
0010
0001
1000
0100
,
0010
0001
0100
0010
,
1000
0000
0001
0000
0010
0100
0010
0000
,
0001
0100
0010
1000
,
0001
0000
0100
0000
0010
0000
0100
0001
,
0100
0000
0010
0000
1000
0000
0100
0010
,
0000
0000
0001
0100
0001
0100
0001
0000
,
1000
0010
1000
0010
2000
0000
3000
0000
,
0001
0000
1000
0000
0001
0000
0010
0100
,
0010
0000
0001
0000
1000
0010
1000
0000
,
0100
1000
0001
0010
,
0100
1000
0010
0100
,
0001
1000
0001
0100
,
0010
1000
0010
0100
,
0010
1000
0100
0010
,
0100
1000
0001
0010
,
0001
0100
0001
0010
,
0100
1000
0010
0100
,
0001
1000
0001
0100
,
0010
0100
0001
1000
,
0200
0000
0000
0000
,
0000
0000
0000
0000
,
0300
0000
0000
0000
;

//---------------dance-single - Blank----------------
#NOTEDATA:;
#CHARTNAME:Hodge Conjecture;
#STEPSTYPE:dance-single;
#DESCRIPTION:Blank;
#CHARTSTYLE:;
#DIFFICULTY:Hard;
#METER:9;
#RADARVALUES:0.688927,0.902464,0.056075,0.392528,0.546735,688.000000,680.000000,8.000000,56.000000,8.000000,0.000000,18.000000,0.000000,194.000000,0.688927,0.902464,0.056075,0.392528,0.546735,688.000000,680.000000,8.000000,56.000000,8.000000,0.000000,18.000000,0.000000,194.000000;
#CREDIT:Phil Lee;
#OFFSET:0.000000;
#BPMS:0.000000=170.000000
,256.000000=175.000000
,272.000000=180.000000
;
#STOPS:;
#DELAYS:;
#WARPS:;
#TIMESIGNATURES:0.000000=4=4
;
#TICKCOUNTS:0.000000=4
;
#COMBOS:0.000000=1
;
#SPEEDS:0.000000=1.000000=0.000000=0
,30.000000=2.000000=1.500000=0
,31.500000=1.000000=0.500000=0
,40.000000=0.750000=1.000000=0
,41.000000=1.000000=1.000000=0
,119.500000=1.000000=0.000000=0
,152.000000=0.500000=4.000000=0
,156.000000=1.000000=3.000000=0
;
#SCROLLS:0.000000=1.000000
,64.000000=0.750000
,64.750000=2.000000
,65.000000=1.000000
,73.000000=0.750000
,73.250000=2.000000
,73.500000=1.000000
,73.750000=0.750000
,74.000000=2.000000
,74.250000=1.000000
,74.500000=0.750000
,74.750000=2.000000
,75.000000=1.000000
,75.250000=0.750000
,75.500000=2.000000
,75.750000=1.000000
,94.000000=0.000000
,94.250000=1.500000
,94.500000=0.000000
,94.750000=1.500000
,95.000000=0.750000
,96.000000=1.000000
,112.000000=0.750000
,112.750000=2.000000
,113.000000=1.000000
,124.000000=0.750000
,124.500000=2.000000
,124.750000=0.750000
,125.250000=2.000000
,125.500000=0.750000
,126.000000=2.000000
,126.250000=0.750000
,126.750000=2.000000
,127.000000=0.750000
,127.250000=2.000000
,127.500000=0.750000
,127.750000=2.000000
,128.000000=0.750000
,144.000000=1.000000
,159.250000=0.750000
,159.750000=2.000000
,160.000000=1.000000
,303.000000=0.750000
,303.750000=2.000000
,304.000000=1.000000
,318.000000=1.500000
,319.500000=0.000000
,319.750000=2.000000
,320.000000=1.000000
,335.000000=0.000000
,335.750000=2.000000
,336.000000=1.000000
;
#FAKES:256.250000=14.750000
;
#LABELS:0.000000=Song Start
;
#DISPLAYBPM:170.000000:180.000000;
#NOTES:
0000
0000
0000
0000
,
0000
0000
0000
0000
,
0000
0000
0000
0000
,
0000
0000
0000
0000
,
0001
0100
0010
0100
0001
0010
0100
0010
,
0001
1000
0010
0100
0001
1000
0100
1000
,
0010
0100
0010
0100
0002
0000
0000
0000
2003
0000
0000
0000
3020
0000
0000
0000
,
0230
0302
0023
0000
,
0031
0000
0000
0100
0000
0000
0010
0000
0000
0100
0000
0000
0001
0000
0000
0010
,
0000
0100
1000
0010
1000
0100
1000
0010
,
2000
0000
0000
0000
3001
0010
0100
0010
,
0001
1000
0010
1000
0001
0010
0100
0010
,
0001
1000
0000
1000
0001
0000
0010
0100
0010
0100
0010
0000
0001
1000
0000
1000
,
0100
0000
0000
0020
0000
0000
0031
0000
0000
0000
0200
0000
0000
0301
0000
0000
,
1000
0100
0010
0100
1000
0001
1000
0010
,
1000
0000
0000
0100
0000
0000
0010
0000
0000
0001
0000
0000
1001
0000
0000
0000
0000
1000
0004
0000
0000
0003
0000
0000
,
0040
0000
0130
1000
0100
0010
0001
0100
,
0010
0100
0001
0010
0001
1000
0100
0010
,
0000
0000
0000
0000
0001
0000
0000
0010
0000
0000
0100
0000
0000
1000
0000
0000
,
1001
1001
1000
1001
,
0002
0000
0103
0010
0400
0000
0301
0010
,
0001
1000
0100
0010
0100
1000
0001
0100
,
0001
1000
0010
0100
0010
1000
0001
0010
,
0001
0000
0100
0000
0010
0000
1000
0000
0001
0000
0001
0000
0010
0000
0001
0100
,
0001
0000
1000
0000
0010
0000
1000
0000
0200
0000
0000
0000
0310
0002
0000
0000
,
1003
0000
0000
0000
0002
0000
0003
0000
0002
0000
0003
0000
0001
1000
0001
1000
,
0000
0100
0000
0100
0010
0000
0001
0100
0001
0100
0001
0000
1000
0100
0000
0100
,
1000
0010
1000
0000
0001
0000
1000
0010
1000
0010
1000
0020
0000
0000
0130
0000
,
0004
0000
0000
0000
4003
0000
0000
0000
0000
0000
3100
0010
0100
0010
0100
0010
,
0001
1000
0000
0400
0000
0310
0004
0000
,
4003
0000
0000
0000
0000
0000
0000
0000
3100
0010
0100
0010
0001
0000
0001
0000
,
2000
0000
3000
2000
0000
3000
2000
0000
3000
2000
0000
3000
2000
3000
2000
3000
,
0100
0000
0000
0100
0100
0000
0000
0100
,
0100
0000
0000
0000
0000
0000
0000
0000
0000
0000
0000
0000
0000
0000
0000
0000
0000
0000
0000
0000
0000
0000
0000
0000
0000
0000
0000
0000
0000
0000
0000
0000
0000
0000
0000
0000
0000
0000
0000
0000
0000
0000
0000
0000
0000
0000
0000
0000
0000
0000
0000
0000
0000
0000
0000
0000
0000
0000
0000
0000
0000
0000
0000
0000
0000
0000
0000
0000
0000
0000
0000
0000
0000
0000
0000
0000
0000
0000
0000
0000
0000
0000
0000
0000
0000
0000
0000
0000
0000
0000
0010
0000
0000
0000
0000
0000
0000
0000
0000
0000
0000
0000
0000
0000
0000
0000
0000
0000
0000
0000
0000
0000
0000
0000
0000
0000
0000
0000
0000
0000
0000
0000
0000
0000
0000
0000
0000
0000
0000
0000
0000
0000
0000
0000
0000
0000
0000
0000
0000
0000
0000
0000
0000
0000
0001
0000
0000
0000
0000
0000
0000
0000
0000
0000
0000
0000
0000
0000
0000
0000
0001
0000
0000
0000
0000
0000
0000
0000
0000
0000
0000
0000
0000
0000
0000
0000
0000
0000
0000
0000
0000
0000
0000
0000
0000
0000
0000
0000
0000
0000
0000
0000
,
0100
0001
0010
0001
0100
0010
1000
0100
,
0010
0000
0100
0000
1000
0000
0010
0000
0100
0000
0001
0000
1000
0200
0000
0000
,
1300
0010
1000
0100
0010
0001
0100
0001
,
1000
0000
0010
0000
0100
0000
0001
0000
0010
0000
0100
0000
1000
0020
0000
0030
,
1001
1001
0000
0000
M000
0000
000M
0000
,
M000
000M
M000
000M
,
0001
0000
1000
0000
0000
0010
0000
1000
0000
0100
0000
0010
0000
0001
0000
0100
,
0004
0000
0000
0000
0000
0000
0000
0000
0000
0003
0400
0000
0000
0000
0000
0000
,
0301
0000
0010
0000
0001
0000
0000
0100
0000
0000
0010
0000
1000
0000
0100
0000
,
1000
0000
0010
0000
0100
0000
0001
0000
0020
0000
0000
0000
0130
0001
0100
0001
,
0200
0000
0000
0000
0301
0000
0000
0100
0000
0000
0010
0000
0000
0100
0000
0000
,
0001
0000
1000
0000
0010
0000
0100
0000
0000
0000
0010
0000
1000
0001
0000
1000
,
0010
0100
0000
0010
0000
1000
0100
1000
0100
0000
0010
0000
0001
0000
0000
0000
,
0010
0000
0000
0010
0100
0000
0000
0100
1000
0000
0000
1000
0020
0000
0000
0000
,
1030
0000
0000
0000
0002
0000
0203
0000
0320
0000
2030
0000
3100
0000
0000
0010
,
0001
0000
0000
0000
2000
0000
3020
0000
0230
0000
0320
0000
1030
0000
0000
0001
,
1000
0100
1000
0000
0001
0010
0001
0000
,
0100
0010
0100
0000
0001
1000
0001
0000
,
0010
0100
1000
0010
0200
0302
0023
0032
,
0103
0010
1000
0100
0020
0230
2300
3020
,
0030
0000
0000
0000
0200
0000
0302
0000
0023
0000
0230
0000
1300
0000
0000
0010
,
0100
0001
0010
0001
0100
0001
0040
0000
,
0130
1000
0010
1000
0001
0010
0001
0100
,
0001
0010
0100
0010
1000
0010
0001
1000
,
0001
0010
0001
0100
0001
0010
0100
0010
,
0001
0100
0010
0001
0010
1000
0100
0001
,
0100
1000
0001
0010
0001
0100
0010
0100
,
0001
1000
0001
0010
0100
0001
0100
1000
,
0010
0100
0001
0010
0100
1000
0010
0100
,
0010
1000
0001
0100
1000
0100
0010
1000
,
1001
0000
0000
0000
M00M
M00M
M00M
M00M
M00M
MMMM
MMMM
MMMM
M00M
0000
0000
0000
M00M
M00M
M00M
M00M
MMMM
M00M
M00M
M00M
M00M
0000
0000
0000
0MM0
M00M
M00M
M00M
,
M00M
M00M
M00M
M00M
0MM0
0000
0000
0000
0MM0
M00M
M00M
M00M
M00M
M00M
M00M
M00M
0MM0
0000
0000
0000
0MM0
M00M
M00M
M00M
M00M
M00M
M00M
M00M
0MM0
0000
0000
0000
,
0MM0
M00M
M00M
M00M
M00M
M00M
M00M
M00M
0MM0
0000
0000
0000
0MM0
M00M
M00M
M00M
MMMM
M00M
M00M
M00M
M00M
0000
0000
0000
0MM0
M00M
M00M
M00M
MMMM
M00M
M00M
M00M
,
M00M
0000
0000
0000
0MM0
M00M
M00M
M00M
MMMM
M00M
M00M
M00M
M00M
0000
0000
0000
0MM0
M00M
M00M
M00M
MMMM
M00M
M00M
M00M
M00M
0000
0000
0000
0000
0000
0000
0000
,
0001
0010
0100
1000
0010
0100
0001
0020
,
0000
0130
1000
0001
1000
0100
0010
0100
,
2000
0000
3001
0100
0002
0000
0003
0000
,
0000
0000
0000
0000
,
1000
0100
4000
0000
3010
0100
0040
0000
,
1030
0004
0000
0103
0040
0000
4030
0000
,
3400
0000
1300
0010
4000
0000
0000
0000
,
3001
0000
0010
0000
0100
0000
1000
0000
0002
0000
0013
0100
0010
0000
0000
0000
,
0201
0000
0300
0200
0302
0003
0001
0002
,
1003
0010
0100
0010
1000
0100
1000
0010
,
1000
0000
0001
0000
0100
0000
0001
0000
1000
0010
1000
0000
0010
0000
0100
0000
,
0010
0000
1000
0000
0001
0000
1000
0000
0001
0100
0001
0100
0001
0100
0001
0000
,
0100
0010
1000
0100
1000
0001
1000
0010
,
0001
0010
0100
0001
1000
0010
1000
0001
,
0100
0001
0100
0001
0010
0000
0100
0000
0010
0000
1000
0000
0010
0000
0001
0000
,
1000
0000
0010
0000
1000
0100
0000
0100
0010
0000
0001
0000
1000
0000
0000
0000
,
0001
0100
0001
0010
0100
1000
0010
1000
,
0100
0010
0100
0010
0001
0000
1000
0000
0001
0000
0100
0000
0010
1000
0010
1000
,
0001
0100
0001
0100
0010
0000
1000
0000
0001
0000
0010
0000
0100
1000
0100
1000
,
0100
0000
0000
0000
0010
0001
0000
0001
0100
0010
0100
0010
0100
0010
0000
0000
,
1000
0100
1000
0100
1000
0000
0010
0000
0200
0000
0000
0000
0301
0000
0010
0000
,
0100
1000
0100
1000
0001
0000
0100
0000
0001
0000
0010
0000
0100
0010
0100
0010
,
0001
0010
0001
0010
0001
0000
1000
0000
0001
0100
0000
0100
0001
0000
0000
0000
,
1000
0010
0100
0010
1000
0100
0001
0100
,
1000
0010
1000
0100
1000
0010
0100
1000
,
0100
0001
0010
0100
1000
0010
0001
0010
,
1000
0001
0010
1000
0010
0100
1000
0010
,
0100
0001
1000
0100
0001
0100
0010
0001
,
0010
0100
0001
0100
1000
0001
1000
0100
,
0010
0001
0100
0010
0100
0001
0100
1000
,
0100
0010
1000
0100
0010
1000
0010
0001
,
1000
0010
0100
0001
0100
1000
0100
0001
,
1000
0001
0010
1000
0010
0001
0100
0010
,
0200
0000
0000
0000
,
0000
0000
0000
0000
,
0300
0000
0000
0000
;

//---------------dance-single - Blank----------------
#NOTEDATA:;
#CHARTNAME:Yang-Mills Theorem;
#STEPSTYPE:dance-single;
#DESCRIPTION:Blank;
#CHARTSTYLE:;
#DIFFICULTY:Challenge;
#METER:10;
#RADARVALUES:0.840130,1.046858,0.322434,0.357481,0.925245,839.000000,793.000000,46.000000,51.000000,16.000000,0.000000,43.000000,0.000000,62.000000,0.840130,1.046858,0.322434,0.357481,0.925245,839.000000,793.000000,46.000000,51.000000,16.000000,0.000000,43.000000,0.000000,62.000000;
#CREDIT:Phil Lee;
#OFFSET:0.000000;
#BPMS:0.000000=170.000000
,256.000000=175.000000
,272.000000=180.000000
;
#STOPS:;
#DELAYS:;
#WARPS:;
#TIMESIGNATURES:0.000000=4=4
;
#TICKCOUNTS:0.000000=4
;
#COMBOS:0.000000=1
;
#SPEEDS:0.000000=1.000000=0.000000=0
,23.000000=0.750000=1.000000=0
,30.000000=2.000000=1.500000=0
,31.500000=1.000000=0.500000=0
,40.000000=0.750000=1.000000=0
,41.000000=1.000000=1.000000=0
,119.500000=1.000000=0.000000=0
,120.000000=99.000000=0.000000=0
,121.250000=1.000000=0.000000=0
,152.000000=0.500000=4.000000=0
,156.000000=1.000000=3.000000=0
,404.000000=999.000000=3.000000=0
;
#SCROLLS:0.000000=1.000000
,64.000000=0.750000
,64.750000=2.000000
,65.000000=1.000000
,73.000000=0.750000
,73.250000=2.000000
,73.500000=1.000000
,73.750000=0.750000
,74.000000=2.000000
,74.250000=1.000000
,74.500000=0.750000
,74.750000=2.000000
,75.000000=1.000000
,75.250000=0.750000
,75.500000=2.000000
,75.750000=1.000000
,94.000000=0.000000
,94.250000=1.500000
,94.500000=0.000000
,94.750000=1.500000
,95.000000=0.750000
,96.000000=1.000000
,112.000000=0.750000
,112.750000=2.000000
,113.000000=1.000000
,124.000000=0.750000
,124.500000=2.000000
,124.750000=0.750000
,125.250000=2.000000
,125.500000=0.750000
,126.000000=2.000000
,126.250000=0.750000
,126.750000=2.000000
,127.000000=0.750000
,127.250000=2.000000
,127.500000=0.750000
,127.750000=2.000000
,128.000000=0.750000
,144.000000=1.000000
,159.250000=0.750000
,159.750000=2.000000
,160.000000=1.000000
,256.000000=0.500000
,272.000000=1.000000
,303.000000=0.750000
,303.750000=2.000000
,304.000000=1.000000
,318.000000=1.500000
,319.500000=0.000000
,319.750000=2.000000
,320.000000=1.000000
,335.000000=0.000000
,335.750000=2.000000
,336.000000=1.000000
;
#FAKES:256.250000=15.750000
;
#LABELS:0.000000=Song Start
;
#ATTACKS:TIME=43.452904:LEN=4.235294:MODS=*.65 Dark,*.65 Mini:TIME=47.688198:LEN=1.764706:MODS=*2.5 0% Dark,*2.5 0% Mini,*2.5 0% Stealth:TIME=90.394081:LEN=4.800003:MODS=*3 300% Tornado,*3 1000% Drunk,*3 Dark:TIME=95.194084:LEN=4.019043:MODS=*50 0% Tornado,*30 0% Drunk,*30 0% Dark:TIME=8.308118:LEN=2.294118:MODS=*2 Dark, *2 Mini:TIME=21.896353:LEN=0.529413:MODS=*100 Beat:TIME=22.425766:LEN=0.529411:MODS=,*100 0% Beat:TIME=28.955177:LEN=0.088236:MODS=,*10 Mini:TIME=29.043413:LEN=0.264706:MODS=*3.5 0% Mini:TIME=109.852654:LEN=0.083336:MODS=*100 25% Centered:TIME=109.935989:LEN=0.083328:MODS=*100 50% Centered:TIME=110.019318:LEN=0.083336:MODS=*100 75% Centered:TIME=110.102654:LEN=0.083336:MODS=,*100 0% Centered:TIME=57.896355:LEN=1.411766:MODS=Confusion:TIME=59.308121:LEN=1.411762:MODS=,*100 0% Confusion:TIME=104.519318:LEN=0.666672:MODS=,Confusion:TIME=105.185989:LEN=1.333328:MODS=,*100 0% Confusion:TIME=62.131649:LEN=0.352940:MODS=,Confusion:TIME=62.484589:LEN=1.411766:MODS=,*100 0% Confusion:TIME=28.278419:LEN=0.088236:MODS=*100 65% Stealth:TIME=28.366655:LEN=1.323530:MODS=,*3 0% Stealth;
#DISPLAYBPM:170.000000:180.000000;
#NOTES:
0000
0000
0000
0000
,
0000
0000
0000
0000
,
0000
0000
0000
0000
,
0000
0000
0000
0000
,
1000
0100
1000
0000
0010
0000
0100
0000
0001
0010
0001
0000
0100
0000
0010
0000
,
1000
0001
1000
0000
0100
0000
0010
0000
0001
1000
0001
0000
0100
0000
0010
0000
,
1000
0100
1000
0100
2000
0000
0000
0000
3020
0000
0000
0000
0230
0000
0000
0000
,
0302
0043
0430
0000
,
1300
0010
0000
0010
0100
0000
0100
0001
0000
0001
0010
0000
0010
0100
0000
0100
,
1000
0000
0004
0400
0000
0000
0000
0000
0000
0000
0000
0000
0000
0000
0000
0303
,
0020
0000
0000
0000
0000
0000
0000
0000
1030
0100
1000
0000
0010
0000
0100
0000
,
0001
1000
0001
0000
0010
0000
0100
0000
1000
0010
1000
0000
0100
0000
0010
0000
,
0100
1000
0000
0100
1000
0000
0001
0100
0001
0100
0010
0000
1000
0010
0000
1000
,
0010
0100
0010
0200
0000
0000
0301
0010
0001
0010
0002
0000
1000
0103
0000
0100
,
0010
0001
0010
0000
0100
0000
1000
0000
0010
0100
0010
0000
1000
0000
0010
0000
,
0100
0000
0000
0001
0000
0000
0100
0000
0000
0000
0000
0000
0010
0000
0000
0000
0000
0000
1000
0000
0000
0000
0000
0000
0001
0000
0000
0000
0000
0000
0000
0000
0000
0000
1000
0000
0040
0000
0000
0000
0000
0000
2030
0000
0000
3000
0000
0000
,
0004
0000
0000
0000
0013
0000
0100
0000
1000
0001
1000
0000
1001
0000
1000
0000
,
0001
0010
0001
0000
0101
0000
0001
0000
0010
0100
0010
0000
0110
0000
0001
0000
,
1000
0000
0010
0000
0100
0000
0100
0010
0000
0010
1000
0000
1000
0001
0000
0001
,
0100
0010
0100
0000
1001
0000
1000
0000
0100
0010
0100
0000
1001
0000
0001
0000
,
2000
0000
0000
0000
0000
0000
0000
0000
0000
3000
0000
0000
1100
0000
0000
0000
0000
0000
1000
0000
0000
0000
0000
0000
0000
0000
0000
0000
0000
0000
0004
0000
0000
0000
0000
0000
0103
0000
0010
0000
0100
0000
0010
0000
0100
0000
0000
0000
,
0001
1000
0001
0000
1001
0000
0001
0000
1000
0010
1000
0000
0110
0000
0001
0000
,
1000
0010
1000
0000
1100
0000
1000
0000
0010
0100
0010
0000
0101
0000
0001
0000
,
1000
0100
1000
0000
0110
0000
0001
0000
1000
0000
1000
0000
0010
0000
0010
0100
,
0010
1000
0100
1000
0001
0000
0010
0000
0001
0000
0000
0000
1000
0020
0000
0000
,
0130
0000
0000
0000
0001
0020
0000
0030
0010
0200
0000
0300
0100
1000
0001
1000
,
0000
0010
0000
0100
0001
0010
0001
0010
0001
0100
0001
0000
1000
0010
0000
1000
,
0010
0100
0010
0000
2000
0000
3000
0001
0100
0010
0100
0002
0000
0000
1003
0000
,
0040
0000
0000
0000
0430
0000
0000
0000
0000
0000
0301
0010
0001
0100
0010
0100
,
0004
0000
0000
0000
0003
0000
4000
0000
0000
3000
0004
0000
0403
0000
0000
0000
,
0340
0000
0000
0000
0M3M
0M0M
1000
1000
,
1100
0000
0000
1100
0000
0000
1100
0000
0000
1100
0000
0000
1100
0000
1100
0000
,
4000
0000
0000
0000
3001
0100
0001
0100
0004
0000
0000
0000
0013
0100
0010
0100
,
0040
0000
0000
0000
0000
0000
0000
0000
0000
0000
0000
0000
0000
0000
0000
0000
0000
0000
0000
0000
0000
0000
0000
0000
0000
0000
0000
0000
0000
0000
0000
0000
0000
0000
0000
0000
0000
0000
0000
0000
0000
0000
0000
0000
0000
0000
0000
0000
0030
0000
0000
0000
0000
0000
0000
0000
0000
0000
0000
0000
0000
0000
0000
0000
0000
0000
0000
0000
0000
0000
0000
0000
0004
0000
0000
0000
0000
0000
4000
0000
0000
0000
0000
0000
0000
0000
0000
0000
0000
0000
0000
0000
0000
0000
0000
0000
3003
0000
0000
0000
0000
0000
0000
0000
0000
0000
0000
0000
0000
0000
0000
0000
0000
0000
0000
0000
0000
0000
0000
0000
0000
0000
0000
0000
0000
0000
0000
0000
0000
0000
0000
0000
0000
0000
0000
0000
0000
0000
0000
0000
0000
0000
0000
0000
0100
0000
0000
0000
0000
0000
0000
0000
0000
0000
0000
0000
0000
0000
0000
0000
0100
0000
0000
0000
0000
0000
0000
0000
0000
0000
0000
0000
0000
0000
0000
0000
0000
0000
0000
0000
0000
0000
0000
0000
0000
0000
0000
0000
0000
0000
0000
0000
,
0001
0100
0001
0100
0001
0000
1000
0100
1000
0100
1000
0000
0010
0100
0010
0100
,
0010
0000
1000
0001
1000
0001
1000
0000
0100
0010
0100
0010
0001
0200
0000
0000
,
0301
0010
0001
0010
0001
0000
1000
0010
1000
0010
1000
0000
0010
0100
0010
0100
,
0010
0000
1000
0100
1000
0100
1000
0000
0001
0010
0001
0010
0100
0020
0000
0030
,
0011
0011
0000
0000
0000
0000
0004
0000
,
0403
0000
0000
0000
0000
0000
0000
0000
0000
0000
0000
0000
0301
2000
0000
0000
,
3001
0010
0001
0010
0001
1000
0000
0001
0000
0100
0001
0100
0000
0010
0000
1000
,
0004
0000
0000
0403
0000
0340
0000
0030
,
1000
0000
0100
0000
1000
0010
1000
0010
0000
0100
0000
0000
0001
0010
0001
0000
,
1000
0010
1000
0000
0100
0000
0010
0000
0002
0000
0000
0000
0103
0010
0100
0010
,
2000
0000
0000
0000
3001
0010
0001
0100
0010
0100
0001
0010
0001
0100
0010
0100
,
0001
1000
0010
1000
0100
1000
0000
0000
0001
0100
0001
0000
1000
0100
0000
0100
,
0010
0001
0000
0001
0000
1000
0001
0100
0001
0010
0001
0010
0100
4000
0000
0000
,
3001
0100
0000
0100
0010
1000
0000
1000
0100
0010
0000
0010
0001
0100
0001
0100
,
0001
0000
0000
0000
2000
0000
3200
0000
0302
0000
0203
0000
1300
0000
0000
0010
,
1000
0000
0000
0000
0200
0000
0302
0000
0203
0000
0320
0000
0031
0000
0000
0010
,
0100
4000
0000
0000
3004
0000
0000
0000
,
0403
0000
0000
0000
,
0310
1000
0001
1000
0200
0302
0203
2300
,
3001
0100
0010
0100
0002
0203
2300
3200
,
0300
0000
0000
0000
0002
0000
0203
0000
0320
0000
0230
0000
0301
0000
0000
0010
,
0100
0000
1000
0000
0010
0000
1000
0000
0100
0020
0000
0000
0032
0000
0000
0103
,
0001
0010
0001
0000
4000
0040
0000
0000
0M0M
0000
0000
0000
0M0M
0000
0000
0000
,
0M0M
0000
0000
0000
0M0M
0000
0000
0000
0M0M
0000
0000
0000
0M0M
0000
0000
3030
,
0100
0001
0100
0000
0101
0000
0100
0000
0001
0000
0010
0000
0100
1000
0100
1000
,
0400
0040
0000
0000
0000
0000
0000
0330
0004
4000
0000
0000
0000
0000
0000
3003
,
0010
0000
0100
0000
0001
0010
0000
0010
0001
0000
4000
0040
0000
0000
0000
0000
,
0000
0000
0000
0000
0000
0000
0000
0000
0000
3030
0100
0000
0101
0000
0001
0100
,
0001
1000
0001
0000
1010
0000
0010
0000
1000
0001
1000
0000
0101
0000
0001
0000
,
1000
0100
1000
0000
0110
0000
1000
0000
0001
0010
0001
0000
0101
0000
0001
0000
,
1000
0000
000M
00M0
000M
M000
00M0
0M00
00M0
M000
000M
0M00
00M0
0M00
000M
00M0
,
0M00
M000
0M00
00M0
000M
0M00
00M0
0M00
000M
00M0
0M00
M000
00M0
0M00
000M
M000
,
0M00
M000
00M0
0M00
000M
00M0
0M00
M000
0M00
00M0
000M
M000
00M0
M000
0M00
00M0
,
0M00
M000
00M0
0M00
000M
00M0
0M00
M000
000M
0M00
00M0
0M00
000M
00M0
0M00
M000
,
0001
0010
0100
1000
0010
0100
0001
0020
,
0000
0130
1000
0001
1000
0100
1000
0010
,
0200
0000
0301
0010
0002
0000
1003
0100
,
0010
0100
0001
0100
1000
0010
0100
0001
,
0010
0000
0100
0000
1000
0010
1000
0010
1000
0000
0100
0000
0010
0001
0010
0001
,
0010
0000
0100
1000
0100
1000
0100
0000
1000
0010
1000
0010
0100
0001
0100
0001
,
0010
0001
0010
0001
1000
0000
0100
0000
4000
0000
0000
0000
0000
0000
0000
0000
,
3000
0000
0000
0000
0000
0000
0000
0000
0200
0000
0310
0100
0010
0000
0000
0000
,
2001
0000
3000
1000
0002
0003
0001
0001
,
0400
0040
0000
0000
0000
0000
0000
0000
0000
0000
0000
0000
0000
0000
0000
0330
,
4000
0000
0000
0000
3002
0000
0000
0000
0103
0010
0100
0000
0001
0000
0000
0000
,
4000
0000
0000
0000
3400
0000
0000
0000
0310
0001
0010
0001
0010
0001
0010
0000
,
0100
1000
0100
0000
0010
0000
0000
0000
0001
0100
0001
0100
0010
1000
0010
1000
,
0100
0010
0100
0000
1000
0100
0000
0100
0010
0001
0010
0001
0200
0000
0000
0000
,
0310
1000
0010
1000
0100
0000
0010
0000
0002
0000
0000
0000
1003
0010
1000
0000
,
0001
1000
0001
0000
0100
0010
0000
0010
1000
0000
1000
0000
0001
0000
0000
0000
,
1000
1000
0100
0100
0010
0010
0001
0001
,
1000
0000
0010
0000
1000
0000
0001
0000
0010
0000
0100
0000
1000
0010
1000
0010
,
0100
0000
0001
0000
0010
0000
0100
0000
1000
0000
0001
0000
0100
0010
0100
0010
,
0000
0000
0000
0000
1000
0100
0000
0100
0010
0001
0010
0001
0010
0001
0000
0000
,
1000
0010
1000
0010
0100
0000
0001
0000
0040
0000
0000
0000
0030
0000
0000
0000
,
0001
0000
0100
0000
0001
0000
1000
0000
0010
0000
0100
0000
0001
0010
0001
0010
,
0100
0000
1000
0000
0010
0000
0100
0000
0001
0010
0000
0010
0001
0000
0000
0000
,
1000
0010
1000
0000
1010
0000
1000
0000
0001
0100
0001
0000
0011
0000
0001
0000
,
0010
0100
0010
0000
0101
0000
0001
0000
1000
0010
1000
0000
1100
0000
1000
0000
,
0001
0100
0001
0000
1100
0000
1000
0000
0001
0010
0001
0000
0101
0000
0001
0000
,
0010
0100
0010
0000
0110
0000
0100
0000
1000
0001
1000
0000
1010
0000
0010
0000
,
0100
0001
0100
0000
0101
0000
0001
0000
0010
0100
0010
0000
0011
0000
1000
0000
,
0100
0010
0100
0000
1100
0000
0100
0000
1000
0001
1000
0000
0101
0000
0100
0000
,
0001
1000
0001
0000
1100
0000
1000
0000
0001
0010
0001
0000
0110
0000
0001
0000
,
1000
0100
1000
0000
1001
0000
0001
0000
0100
0010
0100
0000
0011
0000
0001
0000
,
1000
0010
1000
0000
0110
0000
0001
0000
0100
0010
0100
0000
0011
0000
0010
0000
,
0001
1000
0001
0000
0011
0000
0001
0000
0100
0010
0100
0000
0101
0000
0001
0000
,
2000
0000
0000
0000
,
0000
0000
0000
0000
,
3000
0000
0000
0000
;

//---------------dance-single - Blank----------------
#NOTEDATA:;
#CHARTNAME:Convincing VGKing1 to Go Into a Bouncy House;
#STEPSTYPE:dance-single;
#DESCRIPTION:Blank;
#CHARTSTYLE:;
#DIFFICULTY:Edit;
#METER:13;
#RADARVALUES:1.119506,1.215435,0.056075,0.273368,2.579469,1118.000000,1110.000000,8.000000,39.000000,47.000000,0.000000,60.000000,0.000000,326.000000,1.119506,1.215435,0.056075,0.273368,2.579469,1118.000000,1110.000000,8.000000,39.000000,47.000000,0.000000,60.000000,0.000000,326.000000;
#CREDIT:Phil Lee;
#OFFSET:0.000000;
#BPMS:0.000000=170.000000
,256.000000=175.000000
,272.000000=180.000000
;
#STOPS:;
#DELAYS:;
#WARPS:;
#TIMESIGNATURES:0.000000=4=4
;
#TICKCOUNTS:0.000000=4
;
#COMBOS:0.000000=1
;
#SPEEDS:0.000000=1.000000=0.000000=0
,23.000000=0.750000=1.000000=0
,30.000000=2.000000=1.500000=0
,31.500000=1.000000=0.500000=0
,40.000000=0.750000=1.000000=0
,41.000000=1.000000=1.000000=0
,119.500000=1.000000=0.000000=0
,120.000000=99.000000=0.000000=0
,121.250000=1.000000=0.000000=0
,152.000000=0.500000=4.000000=0
,156.000000=1.000000=3.000000=0
,404.000000=999.000000=3.000000=0
;
#SCROLLS:0.000000=1.000000
,64.000000=0.750000
,64.750000=2.000000
,65.000000=1.000000
,73.000000=0.750000
,73.250000=2.000000
,73.500000=1.000000
,73.750000=0.750000
,74.000000=2.000000
,74.250000=1.000000
,74.500000=0.750000
,74.750000=2.000000
,75.000000=1.000000
,75.250000=0.750000
,75.500000=2.000000
,75.750000=1.000000
,94.000000=0.000000
,94.250000=1.500000
,94.500000=0.000000
,94.750000=1.500000
,95.000000=0.750000
,96.000000=1.000000
,112.000000=0.750000
,112.750000=2.000000
,113.000000=1.000000
,124.000000=0.750000
,124.500000=2.000000
,124.750000=0.750000
,125.250000=2.000000
,125.500000=0.750000
,126.000000=2.000000
,126.250000=0.750000
,126.750000=2.000000
,127.000000=0.750000
,127.250000=2.000000
,127.500000=0.750000
,127.750000=2.000000
,128.000000=0.750000
,144.000000=1.000000
,159.250000=0.750000
,159.750000=2.000000
,160.000000=1.000000
,256.000000=0.500000
,272.000000=1.000000
,303.000000=0.750000
,303.750000=2.000000
,304.000000=1.000000
,318.000000=1.500000
,319.500000=0.000000
,319.750000=2.000000
,320.000000=1.000000
,335.000000=0.000000
,335.750000=2.000000
,336.000000=1.000000
;
#FAKES:153.000000=3.000000
,256.250000=15.750000
,281.500000=6.500000
,300.000000=2.000000
,404.020844=4.020833
;
#LABELS:0.000000=Song Start
;
#ATTACKS:TIME=43.452904:LEN=4.235294:MODS=*.65 Dark,*.65 Mini:TIME=47.688198:LEN=1.764706:MODS=*2.5 0% Dark,*2.5 0% Mini,*2.5 0% Stealth:TIME=90.394081:LEN=4.800003:MODS=*3 300% Tornado,*3 1000% Drunk,*3 Dark:TIME=95.194084:LEN=4.019043:MODS=*50 0% Tornado,*30 0% Drunk,*30 0% Dark:TIME=8.308118:LEN=2.294118:MODS=*2 Dark, *2 Mini:TIME=21.896353:LEN=0.529413:MODS=*100 Beat:TIME=22.425766:LEN=0.529411:MODS=,*100 0% Beat:TIME=28.955177:LEN=0.088236:MODS=,*10 Mini:TIME=29.043413:LEN=0.264706:MODS=*3.5 0% Mini:TIME=109.852654:LEN=0.083336:MODS=*100 25% Centered:TIME=109.935989:LEN=0.083328:MODS=*100 50% Centered:TIME=110.019318:LEN=0.083336:MODS=*100 75% Centered:TIME=110.102654:LEN=0.083336:MODS=,*100 0% Centered:TIME=57.896355:LEN=1.411766:MODS=Confusion:TIME=59.308121:LEN=1.411762:MODS=,*100 0% Confusion:TIME=104.519318:LEN=0.666672:MODS=,Confusion:TIME=105.185989:LEN=1.333328:MODS=,*100 0% Confusion:TIME=62.131649:LEN=0.352940:MODS=,Confusion:TIME=62.484589:LEN=1.411766:MODS=,*100 0% Confusion:TIME=28.278419:LEN=0.088236:MODS=*100 65% Stealth:TIME=28.366655:LEN=1.323530:MODS=,*3 0% Stealth;
#DISPLAYBPM:170.000000:180.000000;
#NOTES:
0000
0000
0000
0000
,
0000
0000
0000
0000
,
0000
0000
0000
0000
,
0000
0000
0000
0000
,
0001
0010
0100
0010
0001
0010
0100
0010
0001
1000
0100
1000
0001
1000
0100
1000
,
0001
0100
0010
0100
0001
0100
0010
0100
0001
1000
0010
1000
0001
1000
0010
1000
,
0001
0100
0010
1000
0200
0000
0000
0000
0320
0000
0000
0000
0032
0000
0000
0000
,
0103
0010
0100
0010
4000
0000
0000
0000
3004
0000
0000
0000
0000
0000
0000
0000
,
1003
0010
0000
0010
0100
0000
0100
0001
0000
0001
0010
0000
0010
0100
0000
0100
,
1000
0000
0001
0100
0001
0100
0001
0100
0001
0100
0001
0100
0001
0100
0001
0100
,
0020
0000
0000
0000
0000
0000
0000
0000
1030
0100
1000
0001
0100
0001
0010
0100
,
0010
0001
1000
0010
0100
0001
0010
0100
1000
0010
0100
0010
1000
0100
0010
0001
,
1000
0100
00MM
0100
0001
0000
0010
0100
0010
0100
1000
0000
0010
0100
M00M
0100
,
1000
0010
0100
0002
0000
0000
0013
0100
1000
0010
0200
0000
0301
0020
0030
0001
,
1000
0100
0010
0001
1000
0010
0100
0001
0100
0010
0100
0001
0010
0100
1000
0010
,
1000
0000
0000
0100
0000
0000
0010
0000
0000
0001
0000
0000
1000
0000
0000
0001
0000
0000
0100
0000
0000
0010
0000
0000
1000
0000
0000
0000
0000
0000
0000
0000
0000
0000
0001
0000
0400
0000
0000
0000
0000
0000
0320
0000
0000
0030
0000
0000
,
4000
0000
0000
0000
3100
0010
0001
0100
0010
0100
0001
0010
0100
1000
0001
0100
,
0010
1000
0100
0010
0001
1000
0010
1000
0100
0010
0100
1000
0001
0100
0001
0010
,
0001
0000
1000
0000
0001
0000
0001
0100
M0M0
0100
1000
0000
1000
0010
0M0M
0010
,
0001
1000
0010
1000
0100
0010
0001
1000
0010
0100
0001
1000
0010
1000
0001
0100
,
0002
0000
0000
0013
0000
0000
0100
0000
0000
1000
0000
0000
0001
0000
0000
0100
0000
0000
0010
0000
0000
0100
0000
0000
0002
0000
0000
0000
0000
0000
0000
0000
0000
0000
0000
0000
0013
0000
0100
0000
0010
0000
0100
0000
1000
0000
0000
0000
,
0100
0010
0001
1000
0010
1000
0100
0010
0100
1000
0001
0100
0001
0010
0100
1000
,
0001
1000
0010
1000
0100
0010
0100
1000
0001
0100
0001
0010
0100
1000
0001
0100
,
0001
0010
0100
1000
0001
0100
0010
1000
0100
0000
0100
0000
1000
0000
0010
0100
,
0001
0000
0000
0010
0000
0000
0100
0000
0000
1000
0000
0000
0001
0000
0100
0000
0000
0000
0010
0000
1000
0000
0000
0000
0002
0000
0000
0000
0000
0000
0000
0000
0000
0000
0000
0000
1003
0000
0000
0400
0000
0000
0000
0000
0000
0000
0000
0000
,
0310
0000
0000
0000
0001
0010
0100
1000
0001
0010
0100
1000
0001
0100
0010
1000
,
0000
0100
0000
0010
0001
0000
0010
0100
1000
0010
1000
0000
0010
0100
M00M
0100
,
1000
0010
1000
0000
0002
0000
0003
0100
0010
1000
0100
0020
0000
0000
0031
0000
,
0400
0000
0000
0000
0000
0000
0000
0000
0000
0000
0000
0000
0000
0000
0000
0000
0340
0000
0000
0000
0000
0000
0000
0000
0000
0000
0000
0000
0000
0000
0000
0000
0030
0000
0000
0000
0000
0000
0000
0000
1000
0000
0000
0000
0100
0000
0000
0000
1000
0000
0000
0010
0000
0000
0000
0000
0100
0000
0000
0001
0000
0000
0000
0000
,
0400
0000
0000
0000
0300
0000
0040
0000
0000
0030
4000
0000
3400
0000
0000
0000
,
0340
0000
0000
0000
0000
0000
0000
0000
0031
0100
0001
0100
0010
0000
0010
0000
,
1010
0000
0000
1010
0000
0000
1010
0000
0000
1010
0000
0000
1010
0000
1010
0000
,
0040
0000
0000
0000
1030
0100
0010
0001
0400
0000
0000
0000
0310
1000
0100
1000
,
0004
0000
0000
0000
0000
0000
0000
0000
0000
0000
0000
0000
0000
0000
0000
0000
0000
0000
0000
0000
0000
0000
0000
0000
0000
0000
0000
0000
0000
0000
0000
0000
0000
0000
0000
0000
0000
0000
0000
0000
0000
0000
0000
0000
0000
0000
0000
0000
1003
0000
0000
0000
0000
0000
0000
0000
0000
0000
0000
0000
0100
0000
0000
0000
0000
0000
0000
0000
0000
0000
0000
0000
1000
0000
0000
0000
0000
0000
0010
0000
0000
0000
0000
0000
1000
0000
0000
0000
0000
0000
0010
0000
0000
0000
0000
0000
4000
0000
0000
0000
0000
0000
0000
0000
0000
0000
0000
0000
0000
0000
0000
0000
0000
0000
0000
0000
0000
0000
0000
0000
0000
0000
0000
0000
0000
0000
0000
0000
0000
0000
0000
0000
0000
0000
0000
0000
0000
0000
0000
0000
0000
0000
0000
0000
3001
0000
0000
0000
0000
0000
0000
0000
0000
0000
0000
0000
0000
0000
0000
0000
0001
0000
0000
0000
0000
0000
0000
0000
0000
0000
0000
0000
0000
0000
0000
0000
0000
0000
0000
0000
0000
0000
0000
0000
0000
0000
0000
0000
0000
0000
0000
0000
,
1000
0100
1000
0010
0100
0001
0010
0100
0010
0001
0100
0010
0100
0001
1000
0010
,
0100
0010
1000
0100
0010
0001
1000
0010
1000
0100
0010
0100
1000
0002
0000
0000
,
0013
0100
1000
0001
1000
0010
1000
0001
0010
0100
1000
0100
0010
0001
1000
0010
,
1000
0100
0010
0100
1000
0001
0100
0010
0100
0001
1000
0100
0010
0002
0000
0003
,
1001
1001
0000
0000
MMMM
0000
MMMM
0000
,
0004
0000
0000
0000
0000
0000
0000
0000
0000
0000
0000
0000
1003
0200
0000
0000
,
1300
0010
1000
0100
0010
0100
0000
1000
0000
0010
1000
0100
0000
1000
0000
0010
,
4000
0000
0000
3400
0000
0340
0000
0000
,
0031
0000
0100
0000
0010
1000
0100
1000
0000
0010
0000
0000
0100
0001
0010
0000
,
0001
0100
0001
0000
1000
0000
0010
0000
0400
0000
0000
0000
0301
0010
0001
0100
,
0040
0000
0000
0000
1030
0001
1000
0010
0100
0010
1000
0100
1000
0001
0100
0001
,
1000
0001
0100
0001
0010
0001
1000
0001
0100
0001
0010
0001
1000
0100
00MM
0100
,
0001
0000
0010
0000
0000
0000
0100
0000
0000
0000
1000
0000
0010
0000
0100
0000
0001
0000
1000
0000
0001
1000
0001
1000
0001
0000
0010
0000
0100
0000
1000
0000
,
0010
0100
M00M
0100
1000
0010
0M0M
0010
0001
0100
M0M0
0100
0010
0001
0100
0001
,
1000
0010
0100
0010
2000
0000
3200
0000
0320
0000
0032
0000
0203
0000
0000
0310
,
0100
0001
0010
0100
2000
0000
3020
0000
0230
0000
0320
0000
2030
0000
0000
3100
,
1000
0000
0004
0000
M000
00M0
M000
00M0
M403
00M0
M000
00M0
M000
000M
M000
000M
,
M340
000M
M000
0M00
M000
000M
0M00
000M
4030
0M00
000M
00M0
000M
0M00
00M0
000M
,
3100
0010
1000
0010
0002
0203
2300
3200
,
0301
0010
1000
0010
0200
2300
3020
0230
,
0301
1000
0010
1000
0002
0000
0023
0000
0230
0000
0320
0000
0032
0000
0000
1003
,
0100
0000
0010
0000
0001
0000
0100
0000
0010
0000
0100
0000
0001
0000
0010
0000
0100
0000
1000
0000
0010
0000
1000
0000
0001
0100
0001
0100
0001
0000
0000
0000
,
1000
0100
0010
0100
1000
0001
0100
0001
0010
0100
1000
0001
0100
0001
0010
0001
,
0100
0010
0100
0001
1000
0100
0010
0100
1000
0010
0100
0001
1000
0100
1000
0010
,
0100
0001
1000
0100
1000
0010
0100
0001
0010
0100
1000
0001
0100
0010
1000
0100
,
0010
0100
1000
0001
0100
0001
0010
0001
1000
0010
1000
0100
0010
0001
0100
0010
,
0100
0001
0010
0100
1000
0001
1000
0010
1000
0100
0010
0100
1000
0100
0010
0001
,
0100
0010
0100
0001
0010
0100
1000
0001
1000
0100
0010
0100
1000
0001
0100
0010
,
0100
0001
0010
0100
1000
0100
0010
0001
1000
0010
1000
0100
0010
0100
1000
0010
,
0100
0001
0100
0010
1000
0100
0010
0001
0100
0001
0010
0100
1000
0010
1000
0001
,
0010
M000
0M00
00M0
000M
M000
0M00
00M0
000M
M000
0M00
00M0
000M
M000
0M00
00M0
,
000M
M000
0M00
00M0
000M
M000
0M00
00M0
000M
M000
0M00
00M0
000M
M000
0M00
00M0
,
000M
M000
0M00
00M0
000M
M000
0M00
00M0
000M
M000
0M00
00M0
000M
M000
0M00
00M0
,
000M
M000
0M00
00M0
000M
M000
0M00
00M0
000M
M000
0M00
00M0
000M
M000
0M00
00M0
,
0004
0403
0340
0430
0304
0043
0430
4300
,
0000
3040
0430
0304
0043
0034
4003
3040
,
4030
0000
0000
0000
3000
0000
0M00
00M0
000M
M000
0M00
00M0
000M
M000
0M00
00M0
,
000M
M000
0M00
00M0
000M
M000
0M00
00M0
000M
M000
0M00
00M0
000M
M000
0M00
00M0
,
0004
0000
0403
0000
0310
1000
0100
1000
0040
0000
0430
0000
0301
0010
0001
1000
,
0040
0000
0130
0001
0010
0001
4000
0000
3100
0010
0001
1000
0010
0100
0010
1000
,
0100
0010
0001
0010
0400
0000
4300
0000
3040
0000
0000
0000
0000
0000
0000
0000
,
M030
000M
M000
000M
M000
000M
M000
000M
4000
0000
3010
0100
0010
0000
0000
0000
,
1000
0100
1000
0001
0100
0001
0010
0001
0100
0010
0100
0001
0010
0001
1000
0010
,
1000
0100
0010
0001
0100
0010
0100
0001
0010
0100
1000
0001
0100
0001
1000
0100
,
0010
0100
1000
0010
0100
0001
0010
0001
1000
0010
1000
0000
0001
0000
0000
0000
,
1000
0100
0010
0001
0100
0010
1000
0001
0100
0010
0100
0010
0100
0010
0100
0000
,
0001
0010
0001
0100
0010
1000
0100
0010
0001
1000
0010
0100
0001
0010
0100
1000
,
0010
0100
0001
0010
0100
0010
0001
1000
0010
1000
0100
0010
0100
1000
0001
0100
,
0001
1000
0100
0010
0001
1000
0010
0100
0001
0010
0100
1000
0001
1000
0010
1000
,
0100
0010
0001
1000
0010
0100
0001
0010
0100
0000
0400
0000
0300
0000
0000
0000
,
1000
1000
0010
0010
0100
0100
0001
0001
,
1000
0000
0010
0000
0100
0000
0001
0000
0010
0000
0100
0000
1000
0100
0010
0001
,
1000
0000
0010
0000
0100
0000
0001
0000
0010
0000
0100
0000
1000
0010
1000
0100
,
0010
0000
0001
0000
1000
0010
0M0M
0010
0100
1000
0010
0100
0001
0010
0000
0000
,
0100
1000
0010
1000
0400
0000
0340
0000
0034
0000
0003
0000
0000
0000
0000
0000
,
1000
0010
0100
0001
0040
0000
0430
0000
4300
0000
3000
0000
0001
0100
0010
1000
,
0100
0010
0001
0100
0010
0100
0001
0010
0100
1000
0010
1000
0100
0010
0100
1000
,
0010
0100
0001
0010
0001
1000
0010
1000
0100
0010
0100
1000
0001
0100
0001
0010
,
0001
0100
0010
1000
0100
0010
0001
1000
0010
0100
0001
1000
0100
0010
0100
1000
,
0001
0100
0010
1000
0100
1000
0010
0100
0001
0010
0100
0010
0001
1000
0010
1000
,
0100
0010
0001
1000
0001
0100
0001
0010
0100
1000
0010
1000
0100
0010
0001
1000
,
0010
0100
0001
0010
0100
1000
0001
0100
0010
1000
0100
0010
0001
1000
0010
1000
,
0001
0010
0100
1000
0001
1000
0010
1000
0100
0010
0001
1000
0100
0010
0100
1000
,
0010
0100
0010
1000
0010
0100
0001
0010
0001
0100
0010
0100
0001
0010
0100
1000
,
0001
1000
0010
1000
0100
0010
0001
1000
0001
0100
0010
1000
0100
0010
0001
1000
,
0010
0100
0010
1000
0100
0010
0001
0100
0010
0100
0001
0010
0100
1000
0001
0010
,
0100
0010
0001
1000
0010
0100
0010
1000
0100
0010
0001
1000
0001
0100
0010
1000
,
0400
000M
M000
00M0
M000
000M
M000
00M0
000M
M000
M00M
00M0
000M
M000
00M0
M000
000M
M000
00M0
000M
0000
M000
00MM
M000
000M
00M0
000M
M000
000M
M000
00M0
M000
000M
M000
000M
00M0
000M
M000
000M
0000
M00M
00M0
0000
M000
000M
00M0
000M
M000
000M
00M0
000M
M000
M000
M000
M000
M000
000M
000M
000M
000M
000M
00M0
00M0
00M0
00M0
00M0
000M
M000
000M
M000
00M0
M000
000M
M000
00M0
M000
000M
00M0
000M
M000
00M0
M000
00M0
M000
000M
M000
000M
M000
000M
00M0
000M
00M0
000M
00M0
M000
000M
M000
000M
M000
00M0
M000
000M
M000
00M0
M000
0000
000M
00M0
000M
M000
000M
00M0
M000
000M
M000
000M
00M0
000M
M000
00M0
M000
M000
00M0
00M0
000M
000M
M000
M000
000M
000M
00M0
000M
M000
000M
000M
M000
000M
00M0
000M
M000
000M
00M0
00M0
M000
000M
M000
000M
00M0
000M
M000
000M
M000
00M0
M000
000M
M000
00M0
M000
000M
M000
00M0
M000
000M
M000
00M0
M000
M000
M000
000M
000M
00M0
000M
M000
000M
00M0
M00M
M00M
00MM
00MM
M00M
M00M
M0MM
M0MM
M0MM
M0MM
M0MM
M0MM
M0MM
M0MM
M0MM
M0MM
M0MM
,
M3MM
0000
0000
0000
;
