#VERSION:0.83;
#TITLE:I Hate You;
#SUBTITLE:;
#ARTIST:Romantique;
#TITLETRANSLIT:;
#SUBTITLETRANSLIT:;
#ARTISTTRANSLIT:;
#GENRE:;
#ORIGIN:;
#CREDIT:;
#BANNER:ihateyou-banner.png;
#BACKGROUND:ihateyou-bg.png;
#PREVIEWVID:;
#JACKET:;
#CDIMAGE:;
#DISCIMAGE:;
#LYRICSPATH:ihateyoulyrics.lrc;
#CDTITLE:;
#MUSIC:DiN RADiO-I Hate You (ReMastered).ogg;
#OFFSET:0.000000;
#SAMPLESTART:43.154202;
#SAMPLELENGTH:15.923077;
#SELECTABLE:YES;
#BPMS:0.000=130.000;
#STOPS:;
#DELAYS:;
#WARPS:;
#TIMESIGNATURES:0.000=4=4;
#TICKCOUNTS:0.000=4;
#COMBOS:0.000=1;
#SPEEDS:0.000=1.000=0.000=0;
#SCROLLS:0.000=1.000;
#FAKES:;
#LABELS:0.000=Song Start;
#BGCHANGES:;
#KEYSOUNDS:;
#ATTACKS:
;

//---------------dance-single - ----------------
#NOTEDATA:;
#CHARTNAME:Sick and Tired;
#STEPSTYPE:dance-single;
#DESCRIPTION:;
#CHARTSTYLE:;
#DIFFICULTY:Hard;
#METER:6;
#RADARVALUES:0.345241,0.476218,0.169322,0.923574,0.003848,314.000000,292.000000,22.000000,120.000000,0.000000,0.000000,9.000000,0.000000,62.000000,0.345241,0.476218,0.169322,0.923574,0.003848,314.000000,292.000000,22.000000,120.000000,0.000000,0.000000,9.000000,0.000000,62.000000;
#CREDIT:Phil Lee;
#OFFSET:0.000000;
#BPMS:0.000000=130.000000
;
#STOPS:;
#DELAYS:;
#WARPS:;
#TIMESIGNATURES:0.000000=4=4
;
#TICKCOUNTS:0.000000=4
;
#COMBOS:0.000000=1
;
#SPEEDS:0.000000=1.000000=0.000000=0
;
#SCROLLS:0.000000=1.000000
;
#FAKES:32.000000=2.000000
,43.000000=7.000000
,75.000000=4.500000
,91.000000=2.500000
,106.000000=4.000000
,138.000000=4.000000
,157.000000=3.000000
,244.000000=4.000000
;
#LABELS:0.000000=Song Start
;
#NOTES:
// measure 0
0000
0000
0000
0000
,  // measure 1
0000
0000
0000
0000
,  // measure 2
2000
3002
0003
0002
2003
3000
0010
0000
,  // measure 3
0100
0000
0002
0000
0020
0000
0033
1001
,  // measure 4
2000
3200
0300
0200
2300
3000
0001
0000
,  // measure 5
0100
0000
0002
0000
0020
0033
1100
0000
,  // measure 6
2000
3020
0030
0020
2030
3000
0001
0000
,  // measure 7
1000
0000
0200
0000
0020
0330
0001
0001
,  // measure 8
M000
0000
000M
0000
2000
3200
0000
2300
,  // measure 9
3000
0000
0002
0203
0302
0000
0023
0230
,  // measure 10
0000
2300
0000
0000
3000
0000
M0M0
0000
,  // measure 11
0M0M
0MM0
M00M
0MM0
,  // measure 12
MM00
0000
00MM
0000
0002
2003
3000
2000
,  // measure 13
3000
0200
0300
0200
0300
0020
0030
0020
,  // measure 14
0030
0000
0002
0003
0002
0003
0200
0000
0300
0000
4002
0000
0000
0000
0003
0000
,  // measure 15
0000
0000
0000
0000
0000
0000
0000
3000
,  // measure 16
0002
0023
0030
0020
0032
2003
0000
3020
,  // measure 17
0030
0000
0200
0320
2030
3000
0002
0023
,  // measure 18
0030
0200
0000
0000
0300
0000
M0M0
0000
,  // measure 19
0M0M
0000
00MM
0000
M0M0
0000
0MM0
1000
,  // measure 20
0002
0000
0103
0002
0000
0003
0000
1000
,  // measure 21
0020
0000
0130
0002
0003
0020
0030
0002
,  // measure 22
0203
0320
0030
0020
0230
0300
0MM0
0000
,  // measure 23
M0M0
0000
0M0M
0000
0001
0100
0000
0001
,  // measure 24
2000
3000
1001
0000
1001
0000
0002
0000
0013
0000
0000
0000
1001
0000
0000
0000
,  // measure 25
0101
0000
0110
0000
1000
0010
0100
0010
,  // measure 26
0000
1000
0000
0000
M00M
0000
0MM0
0000
,  // measure 27
M00M
0000
0MM0
0000
0010
0100
0000
0001
,  // measure 28
2000
3200
0300
0200
2300
3000
1001
0000
,  // measure 29
1010
0000
0001
0010
0004
0000
1003
0010
,  // measure 30
0100
0000
0001
0010
0000
1001
0000
0014
,  // measure 31
0000
0000
0003
0000
1000
0010
0000
1000
,  // measure 32
0002
0023
0030
0020
0032
0003
1010
0000
,  // measure 33
0110
0000
0101
0000
0100
0001
0010
0001
,  // measure 34
0000
1000
0000
0000
00MM
0000
0MM0
0000
,  // measure 35
MM00
0000
MM00
0000
0001
1000
0000
0001
,  // measure 36
0200
0320
0030
0020
0230
0300
0011
0000
,  // measure 37
0110
0000
1000
0001
0400
0000
0301
0010
,  // measure 38
0100
0000
1000
0001
0000
1010
0000
0104
,  // measure 39
0000
0003
MM00
0000
0MM0
0000
00MM
0000
,  // measure 40
2000
3200
2300
3002
0003
0002
0003
0100
,  // measure 41
0100
0100
0200
0300
0002
0000
0003
0010
,  // measure 42
0200
0300
1000
0200
0300
0020
0032
2003
,  // measure 43
3200
0320
0032
0203
0302
0023
0230
0000
,  // measure 44
2300
0000
3000
2000
3000
0020
2030
3020
,  // measure 45
0000
0000
0000
0030
0200
0000
0000
0302
,  // measure 46
0203
0000
0300
1001
0000
2000
0000
0000
,  // measure 47
0000
0000
3001
0000
0001
0000
0001
0000
0004
0400
0000
0000
0000
0000
0000
0303
,  // measure 48
0020
2030
3000
2000
3002
0003
0100
0000
,  // measure 49
0001
0000
0020
0000
0200
0330
1000
0000
,  // measure 50
0002
2003
3000
2000
3020
0030
1000
0000
,  // measure 51
0100
0000
0020
0000
0002
0033
1000
0000
,  // measure 52
0001
0100
0100
0010
0100
0100
0001
1000
,  // measure 53
1000
0100
1000
1000
0000
0000
0000
0000
,  // measure 54
0001
0100
0100
0010
0100
0100
0001
0010
,  // measure 55
0010
0100
1000
1000
0000
0000
0000
0000
,  // measure 56
0010
1000
1000
0001
1000
1000
0100
1000
,  // measure 57
1000
0001
1000
1000
0010
0010
0100
0100
,  // measure 58
0001
0004
0000
0000
0000
0000
0000
0003
,  // measure 59
1000
0000
1010
0000
0000
0010
0100
0002
,  // measure 60
0000
0000
0000
2003
0000
0000
0000
3000
,  // measure 61
0M0M
M0M0
0MM0
M00M
,  // measure 62
0001
0100
0100
0010
1000
1000
0100
0010
,  // measure 63
0010
0001
1000
0020
0030
0200
0300
0001
,  // measure 64
1000
0010
0010
0100
0001
0001
0010
0100
,  // measure 65
0100
1000
0010
0010
4000
0000
3001
0001
,  // measure 66
0100
0010
0010
1000
0001
0001
0100
0010
,  // measure 67
0010
1000
0100
0100
1000
0001
0000
2002
,  // measure 68
0000
0000
0000
3003
;

//---------------dance-single - ----------------
#NOTEDATA:;
#CHARTNAME:Staying Away;
#STEPSTYPE:dance-single;
#DESCRIPTION:;
#CHARTSTYLE:;
#DIFFICULTY:Edit;
#METER:9;
#RADARVALUES:0.580532,0.661414,0.346340,1.431540,0.215501,528.000000,483.000000,45.000000,186.000000,7.000000,0.000000,5.000000,0.000000,0.000000,0.580532,0.661414,0.346340,1.431540,0.215501,528.000000,483.000000,45.000000,186.000000,7.000000,0.000000,5.000000,0.000000,0.000000;
#CREDIT:Phil Lee;
#OFFSET:0.000000;
#BPMS:0.000000=130.000000
;
#STOPS:;
#DELAYS:;
#WARPS:;
#TIMESIGNATURES:0.000000=4=4
;
#TICKCOUNTS:0.000000=4
;
#COMBOS:0.000000=1
;
#SPEEDS:0.000000=1.000000=0.000000=0
,163.500000=1.400000=0.000000=0
,164.000000=1.300000=0.000000=0
,164.500000=1.200000=0.000000=0
,165.000000=1.100000=0.000000=0
,166.000000=1.000000=0.000000=0
,188.500000=1.200000=0.000000=0
,189.000000=1.100000=0.000000=0
,189.500000=1.000000=0.000000=0
;
#SCROLLS:0.000000=1.000000
,14.000000=0.750000
,15.500000=1.250000
,16.000000=1.000000
,190.000000=0.000000
,190.125000=2.000000
,190.250000=0.000000
,190.375000=2.000000
,190.500000=0.000000
,190.625000=2.000000
,190.750000=0.000000
,190.875000=2.000000
,191.000000=0.000000
,191.125000=2.000000
,191.250000=0.000000
,191.375000=2.000000
,191.500000=0.000000
,191.625000=2.000000
,191.750000=0.000000
,191.875000=2.000000
,192.000000=1.000000
;
#FAKES:;
#LABELS:0.000000=Song Start
;
#ATTACKS:TIME=120.968498:LEN=0.115387:MODS=*100 -10% Centered:TIME=121.083885:LEN=0.115379:MODS=*100 10% Centered:TIME=121.199265:LEN=0.115387:MODS=*100 -10% Centered:TIME=121.314651:LEN=0.115387:MODS=*100 10% Centered:TIME=121.430038:LEN=1.384613:MODS=,*100 0% Centered:TIME=44.583893:LEN=0.230770:MODS=,*100 10% Centered:TIME=44.814663:LEN=0.230770:MODS=,*100 20% Centered:TIME=45.045433:LEN=2.076920:MODS=,*100 0% Centered:TIME=25.881157:LEN=3.230768:MODS=*.2 centered:TIME=29.111925:LEN=0.461538:MODS=,*1.5 0% Centered:TIME=66.035004:LEN=0.115379:MODS=,*100 10% Centered:TIME=66.150383:LEN=0.115387:MODS=,*100 20% Centered:TIME=66.265770:LEN=0.115387:MODS=,*100 30% Centered:TIME=66.381157:LEN=0.115379:MODS=,*100 40% Centered:TIME=66.496536:LEN=1.846161:MODS=,*100 0% Centered;
#NOTES:
// measure 0
0000
0000
0000
0000
,  // measure 1
0000
0000
0000
0000
,  // measure 2
2000
3000
0200
0300
1001
0000
0002
0003
0200
0300
0001
0010
0001
0000
1000
0010
,  // measure 3
1000
0000
0100
0010
0200
0000
0000
0000
2000
0000
0000
0000
3300
0000
0001
0100
,  // measure 4
0002
0003
2000
3000
0011
0000
0020
0030
0002
0003
1000
0100
1000
0000
0001
0100
,  // measure 5
0001
0000
1000
0010
2000
0000
0000
0000
0200
0000
0000
0000
3300
0000
0000
0000
,  // measure 6
2000
3000
0002
0003
0110
0000
0002
0003
0020
0030
0001
0100
0001
0000
0010
0100
,  // measure 7
0010
0000
0100
1000
0200
0000
0000
0000
0020
0000
0330
0000
1001
0000
1001
0000
,  // measure 8
1000
0000
0001
0000
0100
0000
0010
0000
2000
0000
0200
0300
0000
0000
0200
3300
,  // measure 9
0000
0000
0000
0000
2000
3000
0002
0003
0200
0000
0000
0000
0302
0003
0020
0000
,  // measure 10
0000
0000
0230
0000
0000
0000
0300
0000
1000
0000
0100
0010
0100
0000
1000
0001
,  // measure 11
1000
0000
0010
0100
0010
0000
1000
0100
1000
0000
0100
0010
0100
0000
1000
0001
,  // measure 12
1000
0000
0010
0100
0010
0000
0100
0001
0200
0000
0020
0030
0000
0000
0020
0330
,  // measure 13
0000
0000
2002
3003
0000
0000
2020
3030
0000
0000
0202
0303
0000
0000
0022
0033
,  // measure 14
0000
0000
2200
3300
0200
0300
0220
0330
0000
0000
2004
3000
0000
0000
0000
0000
,  // measure 15
00M0
M000
00M0
M000
00M0
M000
00M0
0003
,  // measure 16
1000
0000
0001
0100
0001
0000
2000
3010
2000
3000
0002
0003
0000
0000
0200
0300
,  // measure 17
0000
0000
0002
0023
0230
0000
0320
0032
,  // measure 18
0003
0000
0200
0000
0300
0000
0000
0000
0001
0000
1000
0100
1000
0000
0010
0100
,  // measure 19
0010
0000
1000
0001
1000
0000
0010
0100
0010
0000
0100
0001
0100
0000
0020
0000
,  // measure 20
2030
3000
0002
0023
0030
0000
0000
0200
,  // measure 21
2300
0000
3002
0203
0300
0020
0030
0200
,  // measure 22
0301
0000
1000
0100
1000
0000
0010
0100
0010
0000
1000
0001
1000
0000
0001
0010
,  // measure 23
0001
0000
0100
0010
0100
0000
0001
1000
0002
0000
0023
0000
0031
0000
1000
0010
,  // measure 24
1000
1001
1001
1000
0001
0010
0011
0001
,  // measure 25
0010
0100
1010
1000
0002
0023
0230
2300
,  // measure 26
3000
0000
2002
3003
0000
0000
0000
0000
0001
0000
1000
0000
1010
0000
1000
0000
,  // measure 27
0001
0000
0010
0000
0200
0000
1300
0000
0002
0000
0203
0000
0301
0000
0020
0031
,  // measure 28
1000
0010
1010
0010
0100
0001
1100
0100
,  // measure 29
0010
0100
2000
3020
4030
0000
3002
0203
,  // measure 30
0302
0000
2003
3020
0030
2020
3030
0402
,  // measure 31
0003
0000
0000
0000
0302
0000
0000
0000
2003
0000
3200
0000
1300
0000
0002
0013
,  // measure 32
0001
0100
0110
1000
0001
1000
0110
1000
,  // measure 33
0001
0010
1001
1000
0020
0230
0302
2003
,  // measure 34
3000
0000
2200
3300
0000
0000
0000
0000
1000
0000
0100
0000
0110
0000
0010
0000
,  // measure 35
0001
0000
0100
0000
0011
0000
0001
0000
2000
0000
3002
0000
1003
0100
0020
0130
,  // measure 36
2000
3001
0101
0001
0010
0100
1001
0001
,  // measure 37
1000
0001
0200
0302
4003
0000
3002
0023
,  // measure 38
0230
0300
2000
3002
0003
0202
0303
4002
,  // measure 39
0003
0000
0000
0000
3020
0000
0000
0000
0200
0000
0330
0000
0001
0000
0000
1000
,  // measure 40
0020
0230
0302
2003
0000
3020
0000
0100
,  // measure 41
0100
0100
0230
0000
0302
0000
2003
3020
,  // measure 42
2030
0000
3000
0000
0002
0000
0203
0000
0300
0000
0002
0000
0023
0000
0200
0300
,  // measure 43
0000
0000
0200
0000
0000
0000
0330
1000
0002
0003
0200
0300
0202
0303
0001
0000
,  // measure 44
2000
3000
1001
0002
0003
0200
0320
0230
,  // measure 45
0301
0000
1000
0000
1001
0000
0001
0100
0002
0000
1003
0000
1001
0000
2000
3000
,  // measure 46
2100
3000
0000
0000
1000
0000
1002
0003
0000
0000
0102
0000
0000
0000
0000
0000
,  // measure 47
0000
0000
1000
0000
1000
0000
1003
0000
0001
0100
0001
0010
0100
1000
0010
1000
,  // measure 48
0002
0003
2000
3000
1010
0000
2000
3000
0002
0003
0100
0010
0100
0000
0001
0010
,  // measure 49
0001
0000
1000
0010
2000
0000
0000
0000
0020
0000
0000
0000
3030
0000
0000
0000
,  // measure 50
2000
3000
0002
0003
0110
0000
0002
0003
0020
0030
0001
1000
0001
0000
0100
0010
,  // measure 51
0100
0000
0001
0010
0002
0000
0000
0000
2000
0000
3003
0000
0001
0000
0200
0301
,  // measure 52
2000
3100
1000
0002
0103
0001
2000
3010
,  // measure 53
1000
0001
0010
0001
1000
0000
1001
0000
,  // measure 54
0002
0103
0001
0020
0130
1000
0020
1030
,  // measure 55
0100
0000
1000
0000
0010
0000
1000
0000
0001
0000
1000
0000
0010
0000
1000
0100
,  // measure 56
2000
3001
0010
0002
1003
0010
0200
0310
,  // measure 57
1000
0001
0010
0100
2000
3100
0020
0130
,  // measure 58
1000
0010
0100
0001
0100
0000
1001
0000
,  // measure 59
0001
0000
0101
0100
0000
0002
0023
0032
,  // measure 60
2003
3100
0010
0200
1300
0001
0200
0301
,  // measure 61
1000
0010
0100
0001
1000
0000
1001
0000
,  // measure 62
2000
3100
0010
0002
1003
0001
0200
0310
,  // measure 63
1000
0000
0002
0000
0203
0000
0302
0000
0003
0000
2000
0000
3000
0000
0020
0130
,  // measure 64
0020
1030
0100
0020
0031
1000
0002
0103
,  // measure 65
0010
0000
1000
0000
0001
0000
0010
0000
0100
1000
0100
1000
0001
0000
0100
0000
,  // measure 66
0001
1000
0010
0100
0010
1000
0001
0010
,  // measure 67
0001
0000
0100
0000
0010
0000
1000
0000
0002
0000
2003
3010
1000
0000
0000
0001
,  // measure 68
2000
0000
0000
3000
;

//---------------dance-single - ----------------
#NOTEDATA:;
#CHARTNAME:Can't Take it Anymore;
#STEPSTYPE:dance-single;
#DESCRIPTION:;
#CHARTSTYLE:;
#DIFFICULTY:Challenge;
#METER:8;
#RADARVALUES:0.509065,0.648811,0.400216,1.308397,0.046179,463.000000,411.000000,52.000000,170.000000,6.000000,0.000000,6.000000,0.000000,34.000000,0.509065,0.648811,0.400216,1.308397,0.046179,463.000000,411.000000,52.000000,170.000000,6.000000,0.000000,6.000000,0.000000,34.000000;
#CREDIT:Phil Lee;
#OFFSET:0.000000;
#BPMS:0.000000=130.000000
,190.000000=520.000000
,198.000000=130.000000
;
#STOPS:;
#DELAYS:;
#WARPS:;
#TIMESIGNATURES:0.000000=4=4
;
#TICKCOUNTS:0.000000=4
;
#COMBOS:0.000000=1
;
#SPEEDS:0.000000=1.000000=0.000000=0
,58.500000=0.500000=4.500000=0
,63.000000=1.000000=1.000000=0
,87.500000=0.500000=5.500000=0
,93.000000=1.000000=1.000000=0
;
#SCROLLS:0.000000=1.000000
,163.500000=0.000000
,163.750000=2.000000
,164.000000=0.000000
,164.250000=2.000000
,164.500000=0.000000
,164.750000=2.000000
,165.000000=1.000000
,188.500000=0.000000
,188.750000=2.000000
,189.000000=0.000000
,189.250000=2.000000
,189.500000=0.000000
,189.750000=2.000000
,190.000000=0.250000
,198.000000=1.000000
;
#FAKES:59.000000=4.500000
,88.000000=5.500000
,278.500000=3.500000
;
#LABELS:0.000000=Song Start
;
#ATTACKS:TIME=87.737740:LEN=0.865387:MODS=,*100 Beat:TIME=88.603127:LEN=3.519234:MODS=,*100 0% Beat:TIME=44.583889:LEN=0.230770:MODS=,*100 10% Centered:TIME=44.814659:LEN=0.230770:MODS=,*100 20% Centered:TIME=45.045429:LEN=2.076920:MODS=,*100 0% Centered:TIME=66.035004:LEN=0.115379:MODS=,*100 -13% Flip:TIME=66.150383:LEN=0.115387:MODS=,*100 -26% Flip:TIME=66.265770:LEN=0.115387:MODS=,*100 -39% Flip:TIME=66.381157:LEN=0.115379:MODS=,*100 -26% Flip:TIME=66.496536:LEN=1.846161:MODS=,*100 0% Flip;
#NOTES:
// measure 0
0000
0000
0000
0000
,  // measure 1
0000
0000
0000
0000
,  // measure 2
2000
3200
0310
0200
2300
3000
1001
0000
,  // measure 3
0011
0000
0000
0000
0020
0000
0000
0000
0200
0000
0000
0000
0330
0000
1000
0010
,  // measure 4
2000
3002
0103
0002
2003
3000
1001
0000
,  // measure 5
0101
0002
0020
0033
,  // measure 6
0002
0203
0301
2000
3020
0030
1010
0000
,  // measure 7
0101
0000
0200
0000
0002
0303
0101
0101
,  // measure 8
1001
0001
1000
0101
0200
0302
0000
2003
,  // measure 9
0000
3000
0002
0023
0230
0000
2300
3002
,  // measure 10
0000
0203
0000
0000
0301
0010
0101
0100
,  // measure 11
0010
1000
1001
0001
1001
1000
0100
0010
,  // measure 12
1001
1000
0010
1001
2000
3020
0000
0230
,  // measure 13
0000
0302
0003
2000
3000
0200
0300
2000
,  // measure 14
3000
0002
2003
3200
0300
0040
M00M
0M00
,  // measure 15
M00M
0M00
M00M
0M00
M00M
0M00
M00M
0030
,  // measure 16
0001
0000
1000
0100
2000
3000
0001
0100
0002
0003
0020
0030
0000
0000
0200
0300
,  // measure 17
0000
0000
2000
3020
2030
0000
3002
0203
,  // measure 18
0000
0302
0000
0000
1003
0100
1001
0001
,  // measure 19
0100
0001
0110
0100
0110
1000
0001
0200
,  // measure 20
0302
0003
2000
3200
0300
0000
0000
0020
,  // measure 21
0032
0003
2000
3020
0030
2000
3000
0004
,  // measure 22
M0M0
0M00
M0M0
0M00
M0M0
0M00
M0M0
0M00
,  // measure 23
M0M0
0000
0M00
0000
M0M0
0000
0003
0000
2000
0000
3200
0000
0300
0000
0020
0031
,  // measure 24
1000
1001
1001
1000
0001
0010
0101
0100
,  // measure 25
0001
1000
0011
0010
0002
0203
0320
2030
,  // measure 26
3000
0002
0003
0000
1000
0100
1001
0001
,  // measure 27
0100
0001
0110
0001
2000
3020
0030
0200
,  // measure 28
0301
0010
0011
0001
0100
0010
1010
0001
,  // measure 29
1000
0100
0020
0032
4003
0000
3200
2300
,  // measure 30
3020
0030
0200
0302
0003
2000
3000
0200
,  // measure 31
0000
0000
0300
0000
0020
0032
0003
0020
,  // measure 32
0130
1000
1001
0001
1000
0001
0101
0001
,  // measure 33
1000
0001
0011
0001
2000
3200
0320
0032
,  // measure 34
0003
2000
3000
0000
0001
0100
0110
1000
,  // measure 35
0001
0000
1000
0000
0011
0000
0010
0000
0002
0000
0203
0000
0301
1000
0002
1003
,  // measure 36
0001
0010
0101
0001
0100
0010
1100
1000
,  // measure 37
0001
0100
0020
0230
0304
0000
2003
3200
,  // measure 38
2300
3000
0002
0203
0300
0002
0003
0020
,  // measure 39
0000
0000
0000
0000
0032
0000
0000
0000
2003
0000
3001
0000
1001
0000
0000
0001
,  // measure 40
2000
0000
0000
3200
0000
0000
2300
0000
0000
0001
0000
0000
0000
0000
0000
3002
0000
0000
0000
0000
0000
0200
0300
0000
,  // measure 41
0200
0000
0300
0000
0000
0000
0200
0000
0300
0000
0000
0000
0203
0000
0000
0000
0000
0000
0000
0000
0000
0000
0000
0000
0301
0000
0000
0000
0000
0000
0000
0000
0000
0000
0000
0000
2000
0000
0000
0000
0000
0000
3200
0000
0000
0300
0000
0000
,  // measure 42
2002
3003
0000
0000
1000
0000
1100
0000
0000
0000
0100
0000
0010
0000
0002
0000
,  // measure 43
1003
0000
0020
0000
0130
0000
0001
1000
0001
0000
0100
0000
0101
0000
0100
0000
,  // measure 44
0020
0000
1030
0000
1001
0000
2000
0000
3100
0000
2000
3000
1002
0003
0002
0003
,  // measure 45
0010
0000
0100
0000
1100
0000
0100
1000
0200
0000
0310
0000
1001
0000
0002
0003
,  // measure 46
2001
3000
1000
0000
0010
0000
2010
3000
1000
0000
2002
0000
0000
0000
0000
0000
,  // measure 47
3000
0000
0000
0000
2MM0
3000
0000
0000
2MM0
3000
0000
0000
2MM0
3000
0000
0000
0043
0000
0000
0000
0000
0000
0000
0000
0000
0000
0000
0000
0000
0000
0000
0000
,  // measure 48
0000
0000
0000
0000
,  // measure 49
0000
0000
0000
0030
0200
2300
3010
2000
,  // measure 50
3200
0300
1010
0000
0101
0000
0200
0000
,  // measure 51
0020
0000
0330
0000
0200
0302
0013
0200
,  // measure 52
2300
3000
1010
0000
1100
0000
0200
0000
,  // measure 53
0020
0000
0330
0000
0001
0000
1000
0100
2000
0000
3010
0000
1000
0000
0002
0000
,  // measure 54
0103
0001
0020
0130
1000
0100
0010
0100
,  // measure 55
1000
0000
1001
0000
0002
0103
0001
2000
,  // measure 56
3100
0010
0200
1300
0001
0100
0010
1000
,  // measure 57
0001
0000
0010
0000
0001
0000
0100
0010
0200
0000
0301
0000
1000
0000
0200
0000
,  // measure 58
1300
0001
2000
3010
0100
0010
1000
0100
,  // measure 59
2000
3001
0020
0130
1000
0010
0001
0010
,  // measure 60
1000
0000
1001
0000
0010
0000
0101
0001
,  // measure 61
0000
2000
3200
2300
3002
0103
0001
2000
,  // measure 62
3010
0100
0002
0013
0100
1000
0010
1000
,  // measure 63
0100
0000
1100
0000
2000
3010
1000
0002
,  // measure 64
0013
0001
2000
3100
0010
0200
2300
3002
,  // measure 65
0000
0000
0203
0000
0000
0000
0302
1003
0002
0000
0013
0000
0100
0000
2000
0000
,  // measure 66
3010
0100
0002
1003
0001
0100
0010
0100
,  // measure 67
0004
0000
0000
0003
0020
0030
0010
0000
0001
0000
1000
0000
0100
0000
0010
0000
,  // measure 68
0001
1000
0010
0100
0001
1000
0100
0010
,  // measure 69
0200
2300
3000
0020
0030
0000
0M00
0000
,  // measure 70
00M0
0M00
0000
0000
;

//---------------dance-single - ----------------
#NOTEDATA:;
#CHARTNAME:Hate You More Than I Used To;
#STEPSTYPE:dance-single;
#DESCRIPTION:;
#CHARTSTYLE:;
#DIFFICULTY:Medium;
#METER:5;
#RADARVALUES:0.230894,0.344561,0.015393,0.615716,0.000000,210.000000,208.000000,2.000000,80.000000,2.000000,0.000000,2.000000,0.000000,41.000000,0.230894,0.344561,0.015393,0.615716,0.000000,210.000000,208.000000,2.000000,80.000000,2.000000,0.000000,2.000000,0.000000,41.000000;
#CREDIT:Phil Lee;
#OFFSET:0.000000;
#BPMS:0.000000=130.000000
;
#STOPS:;
#DELAYS:;
#WARPS:;
#TIMESIGNATURES:0.000000=4=4
;
#TICKCOUNTS:0.000000=4
;
#COMBOS:0.000000=1
;
#SPEEDS:0.000000=1.000000=0.000000=0
;
#SCROLLS:0.000000=1.000000
;
#FAKES:42.000000=7.000000
,59.000000=5.000000
,74.000000=5.000000
,89.000000=4.500000
,106.000000=3.000000
,138.000000=3.000000
,157.000000=2.000000
,222.000000=0.500000
,236.000000=1.500000
,245.500000=2.500000
,265.000000=2.500000
;
#LABELS:0.000000=Song Start
;
#NOTES:
// measure 0
0000
0000
0000
0000
,  // measure 1
0000
0000
0000
0000
,  // measure 2
0001
1000
0100
1000
,  // measure 3
0001
0200
0020
0330
,  // measure 4
1000
0100
0010
0100
,  // measure 5
1000
0002
0200
0303
,  // measure 6
0001
0010
0100
1000
,  // measure 7
0010
0200
0002
0303
,  // measure 8
0000
0000
0000
0000
1000
0001
0000
0100
,  // measure 9
0000
0000
0001
0010
0100
0000
1000
0010
,  // measure 10
0000
1000
0000
0000
000M
0000
0000
0000
,  // measure 11
000M
0000
000M
0000
,  // measure 12
000M
0000
0000
0000
0001
0010
0000
0010
,  // measure 13
0000
0100
0000
0100
0000
1000
0000
1000
,  // measure 14
0000
0100
0100
0010
0000
0002
M0M0
0000
,  // measure 15
0000
M0M0
0000
M0M0
,  // measure 16
0003
0000
0000
1000
0001
0100
0000
0010
,  // measure 17
0000
0000
1000
0010
0100
0000
0010
1000
,  // measure 18
0000
0001
0000
0000
M000
0000
0000
0000
,  // measure 19
M000
0000
0000
0000
M000
0000
0000
2000
,  // measure 20
3020
0030
0200
0302
0003
0000
0000
0020
,  // measure 21
0230
0300
2000
3020
0030
2000
3000
0200
,  // measure 22
0000
00MM
0000
00MM
,  // measure 23
0000
0000
0000
0000
00MM
0000
0000
0000
2300
0000
3020
0000
0030
0000
2000
3000
,  // measure 24
1001
0001
1000
0000
0001
0000
0100
0000
,  // measure 25
0010
0000
1000
0000
0200
0320
0230
2300
,  // measure 26
3000
0002
0003
0000
M000
0000
0000
0000
,  // measure 27
000M
0000
0000
0000
0200
0320
0030
0200
,  // measure 28
0301
1000
0100
0010
,  // measure 29
0100
0000
2000
3020
2030
3000
0002
0203
,  // measure 30
0302
0003
2000
3020
0030
0200
0300
0002
,  // measure 31
0003
0000
0000
0000
2000
3200
0300
2000
,  // measure 32
3001
1000
0100
1000
,  // measure 33
0001
0000
0100
0000
0002
0023
0230
2300
,  // measure 34
3000
0002
0003
0000
M000
0000
0000
0000
,  // measure 35
M000
0000
0000
0000
2000
3200
0300
2000
,  // measure 36
3001
1000
0100
0010
,  // measure 37
0100
0000
2000
3020
2030
3000
0002
0203
,  // measure 38
0302
0003
0020
0230
0300
2000
3000
0002
,  // measure 39
0003
M00M
M00M
0000
,  // measure 40
1000
0100
2000
0002
0003
0002
0003
3100
,  // measure 41
0100
0100
0100
0000
2000
0000
3000
0002
,  // measure 42
0203
0300
0001
1000
0000
0010
0100
0002
,  // measure 43
0003
0002
0000
0000
0000
0000
0000
0003
,  // measure 44
2000
0000
0000
3020
0000
0130
0010
2000
,  // measure 45
0000
0000
0000
3000
0002
0000
0000
0013
,  // measure 46
0011
0000
0000
0020
0030
0002
0000
0000
,  // measure 47
0003
0001
0001
0001
0004
0000
0000
0000
,  // measure 48
1003
0001
0100
0001
,  // measure 49
0010
0200
2000
3300
,  // measure 50
0001
0100
0010
1000
,  // measure 51
0100
0020
0200
0330
,  // measure 52
1000
0000
0000
0100
0000
0000
1000
0000
,  // measure 53
0000
0001
0000
0000
M0M0
0000
0000
0000
,  // measure 54
0100
0000
0000
0001
0000
0000
0010
0000
,  // measure 55
0000
0100
0000
0000
M00M
0000
0000
0000
,  // measure 56
0010
0000
0000
0001
0000
0000
1000
0000
,  // measure 57
0000
0000
0001
0100
,  // measure 58
0004
0000
0000
0000
,  // measure 59
0M03
0000
0M00
0000
0000
0010
0001
0200
,  // measure 60
0000
0000
0000
0010
0000
0000
0010
0000
,  // measure 61
0000
0310
0000
M00M
0000
M00M
0000
M00M
,  // measure 62
0100
0000
0000
0001
0000
0000
1000
0000
,  // measure 63
0000
0010
0100
0010
0000
0100
0000
0002
,  // measure 64
1000
0000
0000
1000
0000
0000
1000
0000
,  // measure 65
0000
0000
1000
1000
,  // measure 66
0000
M0M0
0000
M0M0
,  // measure 67
0000
0000
0000
0000
1003
0100
0000
2000
,  // measure 68
0000
0000
0000
0000
0000
0000
0000
3000
;

//---------------dance-single - ----------------
#NOTEDATA:;
#CHARTNAME:Despise the Things You Do;
#STEPSTYPE:dance-single;
#DESCRIPTION:;
#CHARTSTYLE:;
#DIFFICULTY:Easy;
#METER:2;
#RADARVALUES:0.168222,0.211652,0.007696,0.100054,0.000000,153.000000,152.000000,1.000000,13.000000,0.000000,0.000000,0.000000,0.000000,0.000000,0.168222,0.211652,0.007696,0.100054,0.000000,153.000000,152.000000,1.000000,13.000000,0.000000,0.000000,0.000000,0.000000,0.000000;
#CREDIT:Phil Lee;
#NOTES:
// measure 0
0000
0000
0000
0000
,  // measure 1
0000
0000
0000
0000
,  // measure 2
1000
0001
0100
0000
,  // measure 3
0000
0010
0010
0000
,  // measure 4
1000
0001
0010
0000
,  // measure 5
0000
0001
0001
0000
,  // measure 6
1000
0010
0100
0000
,  // measure 7
0000
0010
0010
0000
,  // measure 8
1000
0000
0000
0000
0001
0000
0000
1000
,  // measure 9
0000
0000
0010
0000
0010
0000
0000
1000
,  // measure 10
0000
1000
0000
0000
0000
0000
0000
0000
,  // measure 11
0000
0100
0100
0000
,  // measure 12
0010
0000
0000
0000
0100
0000
0000
1000
,  // measure 13
0000
0000
0000
0010
0000
0000
0000
0100
,  // measure 14
0000
0200
0000
0000
0000
0000
0000
0000
,  // measure 15
0000
0000
0000
0000
,  // measure 16
0301
0000
0000
0000
1000
0000
0000
0100
,  // measure 17
0000
0000
0010
0000
0010
0000
0000
0001
,  // measure 18
0000
0001
0000
0000
0000
0000
0000
0000
,  // measure 19
0000
0010
0010
0000
,  // measure 20
0001
0000
0000
0100
0000
0000
0000
0000
,  // measure 21
0010
0000
0000
0100
0000
0001
0000
0010
,  // measure 22
0000
0001
0000
1000
,  // measure 23
0000
0010
0010
0000
,  // measure 24
1001
1000
0100
0000
,  // measure 25
0000
0000
0010
0000
0010
0000
0000
0001
,  // measure 26
0000
1000
0000
0000
0010
0000
0000
0000
,  // measure 27
0000
0000
0100
0000
0100
0000
0000
0001
,  // measure 28
0000
0010
0100
0000
,  // measure 29
0000
1000
0001
1000
,  // measure 30
0001
0000
0000
0100
0000
0010
0000
0100
,  // measure 31
0000
0000
0001
0000
0001
0000
0000
1000
,  // measure 32
0000
0001
0100
0000
,  // measure 33
0000
0000
0010
0000
0010
0000
0000
1000
,  // measure 34
0000
0001
0000
0000
0100
0000
0000
0000
,  // measure 35
0000
0000
0010
0000
0010
0000
0000
1000
,  // measure 36
0000
0100
0010
0000
,  // measure 37
0000
0001
0010
0001
,  // measure 38
0010
0000
0000
0100
0000
1000
0000
0010
,  // measure 39
0000
0100
0100
0000
,  // measure 40
0002
0000
0000
2003
3000
0020
0030
0200
,  // measure 41
0000
0000
0302
0000
,  // measure 42
0013
0000
0100
0000
1000
0000
0000
0001
,  // measure 43
0000
1000
0000
0000
0100
0000
0000
0000
,  // measure 44
1000
0000
0000
0010
0000
0000
0000
2000
,  // measure 45
0000
0000
3002
0000
,  // measure 46
0023
0000
0000
0100
0000
0230
0000
0000
,  // measure 47
0000
0000
2300
0000
,  // measure 48
3001
1000
0100
0000
,  // measure 49
0000
0010
0010
0000
,  // measure 50
0001
1000
0010
0000
,  // measure 51
0000
1000
1000
0000
,  // measure 52
0001
0000
0000
0001
0000
0000
0001
0000
,  // measure 53
0000
0000
0000
0000
,  // measure 54
0010
0000
0000
0010
0000
0000
0010
0000
,  // measure 55
0000
0000
0000
0000
,  // measure 56
0100
0000
0000
0100
0000
0000
0100
0000
,  // measure 57
0000
0000
0010
0010
,  // measure 58
0000
0000
0000
0000
,  // measure 59
0001
0000
1000
0000
0000
0010
0000
1000
,  // measure 60
0000
0000
0000
1000
0000
0000
1000
0000
,  // measure 61
0000
0000
0000
0000
,  // measure 62
0100
0000
0000
0100
0000
0000
0100
0000
,  // measure 63
0000
0010
0000
0001
0000
0010
0000
0002
,  // measure 64
0000
0000
0000
1000
0000
0000
1000
0000
,  // measure 65
0000
0000
1000
1000
,  // measure 66
0000
0000
0000
0000
,  // measure 67
0000
0000
0000
0000
1003
0000
0000
0020
,  // measure 68
0000
0000
0000
0030
;

//---------------dance-single - ----------------
#NOTEDATA:;
#CHARTNAME:Being Used;
#STEPSTYPE:dance-single;
#DESCRIPTION:;
#CHARTSTYLE:;
#DIFFICULTY:Beginner;
#METER:2;
#RADARVALUES:0.126442,0.158739,0.000000,0.053875,0.000000,115.000000,115.000000,0.000000,7.000000,0.000000,0.000000,0.000000,0.000000,0.000000,0.126442,0.158739,0.000000,0.053875,0.000000,115.000000,115.000000,0.000000,7.000000,0.000000,0.000000,0.000000,0.000000,0.000000;
#CREDIT:Phil Lee;
#NOTES:
0000
0000
0000
0000
,
0000
0000
0000
0000
,
1000
0000
1000
0000
,
0000
0100
0100
0000
,
1000
0000
1000
0000
,
0000
0001
0001
0000
,
0100
0000
0100
0000
,
0000
0010
0010
0000
,
0000
0000
0000
0000
1000
0000
0000
0100
,
0000
0000
1000
0000
0001
0000
0000
1000
,
0000
1000
0000
0000
0000
0000
0000
0000
,
0000
0010
0100
0000
,
0000
0000
0000
0000
0001
0000
0000
0010
,
0000
0000
0000
0001
0000
0000
0000
0100
,
0000
0020
0000
0000
0000
0000
0000
0000
,
0000
0000
0000
0000
,
0030
0000
0000
0000
1000
0000
0000
0001
,
0000
0000
0010
0000
0000
0000
0000
0001
,
0000
0001
0000
0000
0000
0000
0000
0000
,
0000
0100
0010
0000
,
1000
0000
0000
0100
0000
0000
0000
0000
,
1000
0000
0000
0001
0000
0001
0000
0002
,
0000
0000
0000
0000
,
0000
0000
1003
0000
,
0100
0100
0100
0000
,
0000
1000
1000
0000
,
0010
0000
1000
0000
,
0000
0001
0001
0000
,
0010
0000
0100
0000
,
0000
0010
0010
0000
,
0001
0000
1000
0000
,
0000
0010
0010
0000
,
0100
0000
0010
0000
,
0000
1000
1000
0000
,
0001
0000
0010
0000
,
0000
0100
0100
0000
,
1000
0000
0010
0000
,
0000
1000
1000
0000
,
0001
0000
0100
0000
,
0000
0001
0001
0000
,
1000
0000
0000
0100
0000
0000
0000
0010
,
0000
0000
0100
0000
,
1000
0000
0001
0000
,
0100
0000
0001
0000
,
0010
0000
0000
0100
0000
0000
0000
2000
,
0000
0000
3002
0000
,
0203
0000
0000
0301
0000
0002
0000
0000
,
0000
0000
1000
1000
,
1003
0000
0001
0000
,
0000
0100
0100
0000
,
0001
0000
0010
0000
,
0000
0001
0001
0000
,
1000
0000
0000
0000
,
0100
0000
0000
0000
,
0010
0000
0000
0000
,
0001
0000
0000
0000
,
1000
0000
0000
0000
,
0001
0000
0100
0000
,
0000
0000
0000
0000
,
0010
0000
0000
0000
,
1000
0000
0000
0000
,
0001
0000
0000
0000
,
1000
0000
0000
0000
,
0100
0000
0000
0000
,
0010
0000
0000
0000
,
0001
0000
0100
0000
,
0000
0000
0000
0000
,
0001
0000
0000
0000
0010
0000
0000
0020
,
0000
0000
0000
0030
;
