#VERSION:0.83;
#TITLE:Hornet;
#SUBTITLE:;
#ARTIST:Conor Fennell;
#TITLETRANSLIT:;
#SUBTITLETRANSLIT:;
#ARTISTTRANSLIT:;
#GENRE:;
#ORIGIN:;
#CREDIT:;
#BANNER:hornet-banner.png;
#BACKGROUND:hornet-bg.png;
#PREVIEWVID:;
#JACKET:;
#CDIMAGE:;
#DISCIMAGE:;
#LYRICSPATH:;
#CDTITLE:;
#MUSIC:Conor Fennell - ID.ogg;
#OFFSET:-0.024020;
#SAMPLESTART:22.524019;
#SAMPLELENGTH:15.000000;
#SELECTABLE:YES;
#BPMS:0.000=128.000;
#STOPS:;
#DELAYS:;
#WARPS:;
#TIMESIGNATURES:0.000=4=4;
#TICKCOUNTS:0.000=4;
#COMBOS:0.000=1;
#SPEEDS:0.000=1.000=0.000=0;
#SCROLLS:0.000=1.000;
#FAKES:;
#LABELS:0.000=Song Start;
#BGCHANGES:;
#KEYSOUNDS:;
#ATTACKS: TIME=80.62:LEN=0.12:MODS=: TIME=80.74:LEN=0.12:MODS=: TIME=80.85:LEN=0.12:MODS=;

//---------------dance-single - ----------------
#NOTEDATA:;
#CHARTNAME:Bumblebee;
#STEPSTYPE:dance-single;
#DESCRIPTION:;
#CHARTSTYLE:;
#DIFFICULTY:Medium;
#METER:5;
#RADARVALUES:0.207095,0.330285,0.014945,0.336263,0.000000,194.000000,192.000000,2.000000,45.000000,64.000000,0.000000,0.000000,0.000000,32.000000,0.207095,0.330285,0.014945,0.336263,0.000000,194.000000,192.000000,2.000000,45.000000,64.000000,0.000000,0.000000,0.000000,32.000000;
#CREDIT:Phil Lee;
#OFFSET:-0.024020;
#BPMS:0.000000=128.000000
;
#STOPS:;
#DELAYS:;
#WARPS:;
#TIMESIGNATURES:0.000000=4=4
;
#TICKCOUNTS:0.000000=4
;
#COMBOS:0.000000=1
;
#SPEEDS:0.000000=1.000000=0.000000=0
;
#SCROLLS:0.000000=1.000000
;
#FAKES:104.500000=7.000000
,265.000000=8.000000
;
#LABELS:0.000000=Song Start
;
#ATTACKS:TIME=80.62:LEN=0.12:MODS=:TIME=80.74:LEN=0.12:MODS=:TIME=80.85:LEN=0.12:MODS=:TIME=80.571960:LEN=0.120000:MODS=:TIME=80.691956:LEN=0.120000:MODS=:TIME=80.801956:LEN=0.120000:MODS=:TIME=80.571960:LEN=0.120000:MODS=:TIME=80.691956:LEN=0.120000:MODS=:TIME=80.801956:LEN=0.120000:MODS=:TIME=80.571960:LEN=0.120000:MODS=:TIME=80.691956:LEN=0.120000:MODS=:TIME=80.801956:LEN=0.120000:MODS=:TIME=80.571960:LEN=0.120000:MODS=:TIME=80.691956:LEN=0.120000:MODS=:TIME=80.801956:LEN=0.120000:MODS=:TIME=80.571960:LEN=0.120000:MODS=:TIME=80.691956:LEN=0.120000:MODS=:TIME=80.801956:LEN=0.120000:MODS=:TIME=80.571960:LEN=0.120000:MODS=:TIME=80.691956:LEN=0.120000:MODS=:TIME=80.801956:LEN=0.120000:MODS=:TIME=80.571960:LEN=0.120000:MODS=:TIME=80.691956:LEN=0.120000:MODS=:TIME=80.801956:LEN=0.120000:MODS=:TIME=80.621956:LEN=0.120000:MODS=:TIME=80.741959:LEN=0.120000:MODS=:TIME=80.851959:LEN=0.120000:MODS=:TIME=80.621956:LEN=0.120000:MODS=:TIME=80.741959:LEN=0.120000:MODS=:TIME=80.851959:LEN=0.120000:MODS=:TIME=80.621956:LEN=0.120000:MODS=:TIME=80.741959:LEN=0.120000:MODS=:TIME=80.851959:LEN=0.120000:MODS=:TIME=80.621956:LEN=0.120000:MODS=:TIME=80.741959:LEN=0.120000:MODS=:TIME=80.851959:LEN=0.120000:MODS=:TIME=80.625984:LEN=0.120000:MODS=:TIME=80.745979:LEN=0.120000:MODS=:TIME=80.855980:LEN=0.120000:MODS=:TIME=80.625984:LEN=0.120000:MODS=:TIME=80.745979:LEN=0.120000:MODS=:TIME=80.855980:LEN=0.120000:MODS=:TIME=80.625984:LEN=0.120000:MODS=:TIME=80.745979:LEN=0.120000:MODS=:TIME=80.855980:LEN=0.120000:MODS=:TIME=80.655983:LEN=0.120000:MODS=:TIME=80.775978:LEN=0.120000:MODS=:TIME=80.885979:LEN=0.120000:MODS=:TIME=80.655983:LEN=0.120000:MODS=:TIME=80.775978:LEN=0.120000:MODS=:TIME=80.885979:LEN=0.120000:MODS=:TIME=80.655983:LEN=0.120000:MODS=:TIME=80.775978:LEN=0.120000:MODS=:TIME=80.885979:LEN=0.120000:MODS=:TIME=80.655983:LEN=0.120000:MODS=:TIME=80.775978:LEN=0.120000:MODS=:TIME=80.885979:LEN=0.120000:MODS=:TIME=80.655983:LEN=0.120000:MODS=:TIME=80.775978:LEN=0.120000:MODS=:TIME=80.885979:LEN=0.120000:MODS=:TIME=80.655983:LEN=0.120000:MODS=:TIME=80.775978:LEN=0.120000:MODS=:TIME=80.885979:LEN=0.120000:MODS=:TIME=80.655983:LEN=0.120000:MODS=:TIME=80.775978:LEN=0.120000:MODS=:TIME=80.885979:LEN=0.120000:MODS=:TIME=80.655983:LEN=0.120000:MODS=:TIME=80.775978:LEN=0.120000:MODS=:TIME=80.885979:LEN=0.120000:MODS=:TIME=80.655983:LEN=0.120000:MODS=:TIME=80.775978:LEN=0.120000:MODS=:TIME=80.885979:LEN=0.120000:MODS=:TIME=80.655983:LEN=0.120000:MODS=:TIME=80.775978:LEN=0.120000:MODS=:TIME=80.885979:LEN=0.120000:MODS=:TIME=80.655983:LEN=0.120000:MODS=:TIME=80.775978:LEN=0.120000:MODS=:TIME=80.885979:LEN=0.120000:MODS=:TIME=80.655983:LEN=0.120000:MODS=:TIME=80.775978:LEN=0.120000:MODS=:TIME=80.885979:LEN=0.120000:MODS=:TIME=80.655983:LEN=0.120000:MODS=:TIME=80.775978:LEN=0.120000:MODS=:TIME=80.885979:LEN=0.120000:MODS=:TIME=80.655983:LEN=0.120000:MODS=:TIME=80.775978:LEN=0.120000:MODS=:TIME=80.885979:LEN=0.120000:MODS=:TIME=80.655983:LEN=0.120000:MODS=:TIME=80.775978:LEN=0.120000:MODS=:TIME=80.885979:LEN=0.120000:MODS=:TIME=80.655983:LEN=0.120000:MODS=:TIME=80.775978:LEN=0.120000:MODS=:TIME=80.885979:LEN=0.120000:MODS=:TIME=80.655983:LEN=0.120000:MODS=:TIME=80.775978:LEN=0.120000:MODS=:TIME=80.885979:LEN=0.120000:MODS=:TIME=80.655983:LEN=0.120000:MODS=:TIME=80.775978:LEN=0.120000:MODS=:TIME=80.885979:LEN=0.120000:MODS=:TIME=80.655983:LEN=0.120000:MODS=:TIME=80.775978:LEN=0.120000:MODS=:TIME=80.885979:LEN=0.120000:MODS=:TIME=80.655983:LEN=0.120000:MODS=:TIME=80.775978:LEN=0.120000:MODS=:TIME=80.885979:LEN=0.120000:MODS=:TIME=80.655983:LEN=0.120000:MODS=:TIME=80.775978:LEN=0.120000:MODS=:TIME=80.885979:LEN=0.120000:MODS=:TIME=80.655983:LEN=0.120000:MODS=:TIME=80.775978:LEN=0.120000:MODS=:TIME=80.885979:LEN=0.120000:MODS=:TIME=80.655983:LEN=0.120000:MODS=:TIME=80.775978:LEN=0.120000:MODS=:TIME=80.885979:LEN=0.120000:MODS=:TIME=80.655983:LEN=0.120000:MODS=:TIME=80.775978:LEN=0.120000:MODS=:TIME=80.885979:LEN=0.120000:MODS=:TIME=48.785980:LEN=1.880000:MODS=,Boost, Tornado:TIME=80.655983:LEN=0.120000:MODS=:TIME=80.775978:LEN=0.120000:MODS=:TIME=80.885979:LEN=0.120000:MODS=:TIME=48.785980:LEN=1.880000:MODS=,Boost, Tornado:TIME=80.655983:LEN=0.120000:MODS=:TIME=80.775978:LEN=0.120000:MODS=:TIME=80.885979:LEN=0.120000:MODS=:TIME=48.785980:LEN=1.880000:MODS=,Boost, Tornado:TIME=80.655983:LEN=0.120000:MODS=:TIME=80.775978:LEN=0.120000:MODS=:TIME=80.885979:LEN=0.120000:MODS=:TIME=48.785980:LEN=1.880000:MODS=,Boost, Tornado:TIME=80.655983:LEN=0.120000:MODS=:TIME=80.775978:LEN=0.120000:MODS=:TIME=80.885979:LEN=0.120000:MODS=:TIME=48.785980:LEN=1.880000:MODS=,Boost, Tornado:TIME=80.655983:LEN=0.120000:MODS=:TIME=80.775978:LEN=0.120000:MODS=:TIME=80.885979:LEN=0.120000:MODS=:TIME=48.785980:LEN=1.880000:MODS=,Boost, Tornado:TIME=80.655983:LEN=0.120000:MODS=:TIME=80.775978:LEN=0.120000:MODS=:TIME=80.885979:LEN=0.120000:MODS=:TIME=48.785980:LEN=1.880000:MODS=,Boost, Tornado:TIME=80.655983:LEN=0.120000:MODS=:TIME=80.775978:LEN=0.120000:MODS=:TIME=80.885979:LEN=0.120000:MODS=:TIME=48.785980:LEN=1.880000:MODS=,Boost, Tornado:TIME=80.655983:LEN=0.120000:MODS=:TIME=80.775978:LEN=0.120000:MODS=:TIME=80.885979:LEN=0.120000:MODS=:TIME=48.785980:LEN=1.880000:MODS=,Boost, Tornado:TIME=80.655983:LEN=0.120000:MODS=:TIME=80.775978:LEN=0.120000:MODS=:TIME=80.885979:LEN=0.120000:MODS=:TIME=48.785980:LEN=1.880000:MODS=,Boost, Tornado:TIME=80.655983:LEN=0.120000:MODS=:TIME=80.775978:LEN=0.120000:MODS=:TIME=80.885979:LEN=0.120000:MODS=:TIME=48.785980:LEN=1.880000:MODS=,Boost, Tornado:TIME=80.655983:LEN=0.120000:MODS=:TIME=80.775978:LEN=0.120000:MODS=:TIME=80.885979:LEN=0.120000:MODS=:TIME=48.785980:LEN=1.880000:MODS=,Boost, Tornado:TIME=80.655983:LEN=0.120000:MODS=:TIME=80.775978:LEN=0.120000:MODS=:TIME=80.885979:LEN=0.120000:MODS=:TIME=48.785980:LEN=1.880000:MODS=,Boost, Tornado:TIME=80.655983:LEN=0.120000:MODS=:TIME=80.775978:LEN=0.120000:MODS=:TIME=80.885979:LEN=0.120000:MODS=:TIME=48.785980:LEN=1.880000:MODS=,Boost, Tornado:TIME=80.655983:LEN=0.120000:MODS=:TIME=80.775978:LEN=0.120000:MODS=:TIME=80.885979:LEN=0.120000:MODS=:TIME=123.810272:LEN=3.750000:MODS=,Tornado;
#NOTES:
0000
0000
0000
0000
,
0000
0000
0000
0000
,
0000
0000
0000
0000
,
0000
0000
0000
0000
,
200M
0000
0M00
0000
30M0
0002
0M00
0000
,
00M3
0200
M000
0000
000M
0000
M300
0000
,
001M
0000
1M00
0000
00M1
0100
M000
0002
,
00M0
0M00
00M0
0M03
,
20M0
0000
0M00
0000
30M0
0002
0M00
0000
,
M003
0200
000M
0000
00M0
0000
000M
0300
,
001M
0000
1M00
0000
0M01
0010
M000
0002
,
0M00
00M0
0M00
00M0
,
2003
0000
0000
0000
0000
3100
0000
0010
,
0000
0001
0000
0100
0002
0000
0000
0000
,
1003
0000
0001
0010
0001
0010
0000
0010
,
0000
0010
0000
0010
0200
0000
0000
0000
,
2300
0000
0000
0000
0000
3100
0000
0010
,
0000
0100
0000
1000
0002
0000
0000
0000
,
0103
0000
0001
0100
0001
0100
0000
0100
,
0000
0100
0000
0100
0002
0000
0000
0003
,
1001
0001
0100
0010
,
1000
0100
0010
0001
,
1000
0001
0010
0100
,
0010
0001
1000
0010
,
1000
0100
1000
0000
0001
0100
0001
0000
,
1000
0010
1000
0000
0001
0010
0001
0000
,
0000
M0M0
0M0M
M0M0
,
0M0M
M0M0
0M0M
M0M0
,
2000
0000
0000
0000
3000
0001
0000
0100
,
0000
0010
0000
1000
0002
0000
0000
0003
,
0100
0000
0010
1000
0010
1000
0000
1000
,
0000
1000
0000
1000
0200
0000
0000
0000
,
2300
0000
0000
0000
3000
0001
0000
0010
,
0000
0100
0000
1000
0002
0000
0000
0000
,
1003
0000
0010
0100
0010
0100
0000
0100
,
0000
0100
0000
0100
0001
0000
0000
0000
,
2000
0000
0000
0000
0000
3100
0000
0010
,
0000
0001
0000
1000
0002
0000
0000
0000
,
0103
0000
0001
0010
0001
0010
0000
0010
,
0000
0010
0000
0010
0200
0000
0000
0000
,
2300
0000
0000
0000
0000
3100
0000
0010
,
0000
0001
0000
0100
0002
0000
0000
0000
,
0013
0000
0001
1000
0001
1000
0000
1000
,
0000
1000
0000
1000
0020
0000
0000
0000
,
2030
0000
0000
0000
3000
0200
0000
0000
,
0300
0020
0000
0000
0000
0000
0000
0030
,
0002
0000
0000
0000
0003
0200
0300
0020
,
0000
0000
0000
0000
0000
0000
0000
0030
,
2000
0000
0000
0000
3000
0020
0000
0000
,
0030
0200
0000
0000
0000
0000
0000
0300
,
0020
0000
0000
0000
0000
2030
3000
0200
,
0000
0000
0000
0000
0000
0000
1300
0010
,
200M
0000
0M00
0000
30M0
0200
000M
0000
,
030M
0020
M000
0000
000M
0000
M030
0000
,
010M
0000
100M
0000
001M
0100
M000
0020
,
000M
0000
0M00
0000
000M
0000
0M00
0030
,
200M
0000
0M00
0000
30M0
0002
0M00
0000
,
M003
0020
0M00
0000
M000
0000
000M
0030
,
010M
0000
M010
0000
M001
0100
M000
0002
,
0M00
0000
00M0
0000
0M00
0000
00M0
0003
,
1001
1000
0100
0010
,
0001
0100
0010
1000
,
0001
1000
0010
0100
,
0010
1000
0001
0010
,
0001
0100
0001
0000
1000
0100
1000
0000
,
0001
0010
0001
0000
1000
0010
1000
0000
,
0000
00MM
MM00
00MM
,
MM00
00MM
MM00
00MM
,
MMMM
0000
0000
0000
;

//---------------dance-single - ----------------
#NOTEDATA:;
#CHARTNAME:Mud Dauber;
#STEPSTYPE:dance-single;
#DESCRIPTION:;
#CHARTSTYLE:;
#DIFFICULTY:Hard;
#METER:7;
#RADARVALUES:0.344803,0.489822,0.029890,0.433405,0.239120,323.000000,319.000000,4.000000,58.000000,145.000000,0.000000,4.000000,0.000000,10.000000,0.344803,0.489822,0.029890,0.433405,0.239120,323.000000,319.000000,4.000000,58.000000,145.000000,0.000000,4.000000,0.000000,10.000000;
#CREDIT:Phil Lee;
#OFFSET:-0.024020;
#BPMS:0.000000=128.000000
;
#STOPS:;
#DELAYS:;
#WARPS:;
#TIMESIGNATURES:0.000000=4=4
;
#TICKCOUNTS:0.000000=4
;
#COMBOS:0.000000=1
;
#SPEEDS:0.000000=1.000000=0.000000=0
;
#SCROLLS:0.000000=1.000000
;
#FAKES:104.500000=5.500000
,173.000000=2.500000
,276.000000=3.000000
;
#LABELS:0.000000=Song Start
;
#ATTACKS:TIME=80.620003:LEN=0.120000:MODS=:TIME=80.739998:LEN=0.120000:MODS=:TIME=80.849998:LEN=0.120000:MODS=:TIME=80.571960:LEN=0.120000:MODS=:TIME=80.691956:LEN=0.120000:MODS=:TIME=80.801956:LEN=0.120000:MODS=:TIME=80.571960:LEN=0.120000:MODS=:TIME=80.691956:LEN=0.120000:MODS=:TIME=80.801956:LEN=0.120000:MODS=:TIME=80.571960:LEN=0.120000:MODS=:TIME=80.691956:LEN=0.120000:MODS=:TIME=80.801956:LEN=0.120000:MODS=:TIME=80.571960:LEN=0.120000:MODS=:TIME=80.691956:LEN=0.120000:MODS=:TIME=80.801956:LEN=0.120000:MODS=:TIME=80.571960:LEN=0.120000:MODS=:TIME=80.691956:LEN=0.120000:MODS=:TIME=80.801956:LEN=0.120000:MODS=:TIME=80.571960:LEN=0.120000:MODS=:TIME=80.691956:LEN=0.120000:MODS=:TIME=80.801956:LEN=0.120000:MODS=:TIME=80.571960:LEN=0.120000:MODS=:TIME=80.691956:LEN=0.120000:MODS=:TIME=80.801956:LEN=0.120000:MODS=:TIME=80.621956:LEN=0.120000:MODS=:TIME=80.741959:LEN=0.120000:MODS=:TIME=80.851959:LEN=0.120000:MODS=:TIME=80.621956:LEN=0.120000:MODS=:TIME=80.741959:LEN=0.120000:MODS=:TIME=80.851959:LEN=0.120000:MODS=:TIME=80.621956:LEN=0.120000:MODS=:TIME=80.741959:LEN=0.120000:MODS=:TIME=80.851959:LEN=0.120000:MODS=:TIME=80.621956:LEN=0.120000:MODS=:TIME=80.741959:LEN=0.120000:MODS=:TIME=80.851959:LEN=0.120000:MODS=:TIME=80.625984:LEN=0.120000:MODS=:TIME=80.745979:LEN=0.120000:MODS=:TIME=80.855980:LEN=0.120000:MODS=:TIME=80.625984:LEN=0.120000:MODS=:TIME=80.745979:LEN=0.120000:MODS=:TIME=80.855980:LEN=0.120000:MODS=:TIME=80.625984:LEN=0.120000:MODS=:TIME=80.745979:LEN=0.120000:MODS=:TIME=80.855980:LEN=0.120000:MODS=:TIME=80.655983:LEN=0.120000:MODS=:TIME=80.775978:LEN=0.120000:MODS=:TIME=80.885979:LEN=0.120000:MODS=:TIME=80.655983:LEN=0.120000:MODS=:TIME=80.775978:LEN=0.120000:MODS=:TIME=80.885979:LEN=0.120000:MODS=:TIME=80.655983:LEN=0.120000:MODS=:TIME=80.775978:LEN=0.120000:MODS=:TIME=80.885979:LEN=0.120000:MODS=:TIME=80.655983:LEN=0.120000:MODS=:TIME=80.775978:LEN=0.120000:MODS=:TIME=80.885979:LEN=0.120000:MODS=:TIME=80.655983:LEN=0.120000:MODS=:TIME=80.775978:LEN=0.120000:MODS=:TIME=80.885979:LEN=0.120000:MODS=:TIME=80.655983:LEN=0.120000:MODS=:TIME=80.775978:LEN=0.120000:MODS=:TIME=80.885979:LEN=0.120000:MODS=:TIME=80.655983:LEN=0.120000:MODS=:TIME=80.775978:LEN=0.120000:MODS=:TIME=80.885979:LEN=0.120000:MODS=:TIME=80.655983:LEN=0.120000:MODS=:TIME=80.775978:LEN=0.120000:MODS=:TIME=80.885979:LEN=0.120000:MODS=:TIME=80.655983:LEN=0.120000:MODS=:TIME=80.775978:LEN=0.120000:MODS=:TIME=80.885979:LEN=0.120000:MODS=:TIME=80.655983:LEN=0.120000:MODS=:TIME=80.775978:LEN=0.120000:MODS=:TIME=80.885979:LEN=0.120000:MODS=:TIME=80.655983:LEN=0.120000:MODS=:TIME=80.775978:LEN=0.120000:MODS=:TIME=80.885979:LEN=0.120000:MODS=:TIME=80.655983:LEN=0.120000:MODS=:TIME=80.775978:LEN=0.120000:MODS=:TIME=80.885979:LEN=0.120000:MODS=:TIME=80.655983:LEN=0.120000:MODS=:TIME=80.775978:LEN=0.120000:MODS=:TIME=80.885979:LEN=0.120000:MODS=:TIME=80.655983:LEN=0.120000:MODS=:TIME=80.775978:LEN=0.120000:MODS=:TIME=80.885979:LEN=0.120000:MODS=:TIME=80.655983:LEN=0.120000:MODS=:TIME=80.775978:LEN=0.120000:MODS=:TIME=80.885979:LEN=0.120000:MODS=:TIME=80.655983:LEN=0.120000:MODS=:TIME=80.775978:LEN=0.120000:MODS=:TIME=80.885979:LEN=0.120000:MODS=:TIME=80.655983:LEN=0.120000:MODS=:TIME=80.775978:LEN=0.120000:MODS=:TIME=80.885979:LEN=0.120000:MODS=:TIME=80.655983:LEN=0.120000:MODS=:TIME=80.775978:LEN=0.120000:MODS=:TIME=80.885979:LEN=0.120000:MODS=:TIME=80.655983:LEN=0.120000:MODS=:TIME=80.775978:LEN=0.120000:MODS=:TIME=80.885979:LEN=0.120000:MODS=:TIME=80.655983:LEN=0.120000:MODS=:TIME=80.775978:LEN=0.120000:MODS=:TIME=80.885979:LEN=0.120000:MODS=:TIME=80.655983:LEN=0.120000:MODS=:TIME=80.775978:LEN=0.120000:MODS=:TIME=80.885979:LEN=0.120000:MODS=:TIME=80.655983:LEN=0.120000:MODS=:TIME=80.775978:LEN=0.120000:MODS=:TIME=80.885979:LEN=0.120000:MODS=:TIME=80.655983:LEN=0.120000:MODS=:TIME=80.775978:LEN=0.120000:MODS=:TIME=80.885979:LEN=0.120000:MODS=:TIME=80.655983:LEN=0.120000:MODS=:TIME=80.775978:LEN=0.120000:MODS=:TIME=80.885979:LEN=0.120000:MODS=:TIME=48.785980:LEN=1.880000:MODS=,Boost, Tornado:TIME=80.655983:LEN=0.120000:MODS=:TIME=80.775978:LEN=0.120000:MODS=:TIME=80.885979:LEN=0.120000:MODS=:TIME=48.785980:LEN=1.880000:MODS=,Boost, Tornado:TIME=80.655983:LEN=0.120000:MODS=:TIME=80.775978:LEN=0.120000:MODS=:TIME=80.885979:LEN=0.120000:MODS=:TIME=48.785980:LEN=1.880000:MODS=,Boost, Tornado:TIME=80.655983:LEN=0.120000:MODS=:TIME=80.775978:LEN=0.120000:MODS=:TIME=80.885979:LEN=0.120000:MODS=:TIME=48.785980:LEN=1.880000:MODS=,Boost, Tornado:TIME=80.655983:LEN=0.120000:MODS=:TIME=80.775978:LEN=0.120000:MODS=:TIME=80.885979:LEN=0.120000:MODS=:TIME=48.785980:LEN=1.880000:MODS=,Boost, Tornado:TIME=80.655983:LEN=0.120000:MODS=:TIME=80.775978:LEN=0.120000:MODS=:TIME=80.885979:LEN=0.120000:MODS=:TIME=48.785980:LEN=1.880000:MODS=,Boost, Tornado:TIME=80.655983:LEN=0.120000:MODS=:TIME=80.775978:LEN=0.120000:MODS=:TIME=80.885979:LEN=0.120000:MODS=:TIME=48.785980:LEN=1.880000:MODS=,Boost, Tornado:TIME=80.655983:LEN=0.120000:MODS=:TIME=80.775978:LEN=0.120000:MODS=:TIME=80.885979:LEN=0.120000:MODS=:TIME=48.785980:LEN=1.880000:MODS=,Boost, Tornado:TIME=80.655983:LEN=0.120000:MODS=:TIME=80.775978:LEN=0.120000:MODS=:TIME=80.885979:LEN=0.120000:MODS=:TIME=48.785980:LEN=1.880000:MODS=,Boost, Tornado:TIME=80.655983:LEN=0.120000:MODS=:TIME=80.775978:LEN=0.120000:MODS=:TIME=80.885979:LEN=0.120000:MODS=:TIME=48.785980:LEN=1.880000:MODS=,Boost, Tornado:TIME=80.655983:LEN=0.120000:MODS=:TIME=80.775978:LEN=0.120000:MODS=:TIME=80.885979:LEN=0.120000:MODS=:TIME=48.785980:LEN=1.880000:MODS=,Boost, Tornado:TIME=80.655983:LEN=0.120000:MODS=:TIME=80.775978:LEN=0.120000:MODS=:TIME=80.885979:LEN=0.120000:MODS=:TIME=48.785980:LEN=1.880000:MODS=,Boost, Tornado:TIME=80.655983:LEN=0.120000:MODS=:TIME=80.775978:LEN=0.120000:MODS=:TIME=80.885979:LEN=0.120000:MODS=:TIME=48.785980:LEN=1.880000:MODS=,Boost, Tornado:TIME=80.655983:LEN=0.120000:MODS=:TIME=80.775978:LEN=0.120000:MODS=:TIME=80.885979:LEN=0.120000:MODS=:TIME=48.785980:LEN=1.880000:MODS=,Boost, Tornado:TIME=80.655983:LEN=0.120000:MODS=:TIME=80.775978:LEN=0.120000:MODS=:TIME=80.885979:LEN=0.120000:MODS=;
#NOTES:
// measure 0
0000
0000
0000
0000
,  // measure 1
0000
0000
0000
0000
,  // measure 2
0000
0000
0000
0000
,  // measure 3
0000
0000
0000
0000
,  // measure 4
M202
0000
M303
0000
M100
0200
000M
0000
,  // measure 5
031M
0020
000M
0000
0M00
0000
0M00
1030
,  // measure 6
2M00
0000
30M1
0000
10M0
2000
000M
3020
,  // measure 7
000M
0000
M100
0000
M100
0000
M100
0130
,  // measure 8
0202
0000
M000
0303
00M1
0002
00M0
0000
,  // measure 9
10M3
2000
0M00
0000
0M00
0000
000M
3010
,  // measure 10
002M
0030
M200
0300
M001
0002
M000
0023
,  // measure 11
M000
0000
M100
0000
M100
0000
010M
0130
,  // measure 12
200M
0000
00M0
0000
3M00
0002
0M03
0002
,  // measure 13
M003
0020
M030
0100
200M
0000
000M
0000
,  // measure 14
3M01
0000
M100
0100
0001
1000
000M
0010
,  // measure 15
0M00
0010
000M
1000
0M02
0000
00M0
0000
,  // measure 16
2M03
0000
00M0
0000
000M
3200
03M0
0200
,  // measure 17
030M
2000
300M
0010
2M00
0000
00M0
0000
,  // measure 18
3M02
0003
0010
0010
M100
0010
0M00
0001
,  // measure 19
0M00
0001
0M00
1000
00M2
0000
M103
0000
,  // measure 20
0001
0000
0000
0010
0000
0010
0000
0000
0100
0000
0000
1000
0000
1000
0000
0000
,  // measure 21
0010
0000
0000
0100
0000
0100
0000
0000
0010
0000
0000
1000
0000
1000
0000
1000
,  // measure 22
0001
0000
0000
0100
0000
0100
0000
0000
0010
0000
0000
0100
0000
0100
0000
0000
,  // measure 23
0001
0000
0000
0010
0000
0010
0000
0000
0100
0000
0000
0100
1000
0000
1000
0000
,  // measure 24
0001
0010
0001
0100
0010
1000
0001
0100
,  // measure 25
0010
0100
0001
1000
0100
0010
0100
1000
,  // measure 26
0004
0M00
00M0
0000
0M00
00M0
0000
0M00
,  // measure 27
00M0
0000
0000
0000
0M00
0000
00M0
0000
0000
0000
0000
0000
0003
0200
0000
0000
,  // measure 28
03M2
0000
M000
0000
0M03
2000
30M0
2000
,  // measure 29
3M00
0020
003M
0100
M002
0000
0M00
0000
,  // measure 30
10M3
0000
0M10
0010
M100
0001
M000
0010
,  // measure 31
M000
0010
0M00
0001
20M0
0000
0M00
0000
,  // measure 32
30M2
0000
0M00
0000
00M3
0200
M300
0200
,  // measure 33
03M0
0002
M003
0010
M002
0000
0M00
0000
,  // measure 34
20M3
0000
3M10
0010
010M
0010
000M
1000
,  // measure 35
0400
00M0
0000
000M
00M0
0000
0000
0000
,  // measure 36
1300
0000
0000
0001
0000
0001
0000
0000
0010
0000
0000
0001
0000
0001
0000
0000
,  // measure 37
1000
0000
0000
0010
0000
0010
0000
0000
0100
0000
0000
0001
0000
0001
0000
0001
,  // measure 38
0010
0000
0000
0100
0000
0100
0000
0000
1000
0000
0000
0010
0000
0010
0000
0000
,  // measure 39
0100
0000
0000
0010
0000
0010
0000
0000
1000
0000
0000
1000
0001
0000
0001
0000
,  // measure 40
1000
0000
0000
0100
0000
0100
0000
0000
0010
0000
0000
0100
0000
0100
0000
0000
,  // measure 41
1000
0000
0000
0001
0000
0001
0000
0000
0010
0000
0000
0001
0000
0001
0000
0001
,  // measure 42
0100
0000
0000
0010
0000
0010
0000
0000
1000
0000
0000
0001
0000
0001
0000
0000
,  // measure 43
0400
00M0
0000
M000
00M0
0000
0000
0000
,  // measure 44
031M
0100
0001
1000
0100
10M0
0001
1000
,  // measure 45
0010
1M00
0001
1000
0010
0100
0001
1000
,  // measure 46
00M1
1000
0100
0010
0001
1M00
0010
M100
,  // measure 47
0001
0100
0010
1000
0001
1000
0100
1000
,  // measure 48
00M1
0100
0010
0100
0001
10M0
0100
1000
,  // measure 49
0001
1M00
0010
0100
0001
0100
0010
0100
,  // measure 50
00M1
1000
0100
0010
0100
10M0
0001
0M10
,  // measure 51
0001
0000
1000
0000
0100
0000
0010
0000
0001
0000
0100
0000
0001
0010
0001
0000
,  // measure 52
M202
0000
M303
0000
M001
0002
M000
0000
,  // measure 53
M013
0020
000M
0000
0M00
0000
0M00
0031
,  // measure 54
0M02
0000
10M3
0000
00M1
0002
M000
0023
,  // measure 55
M000
0000
M100
0000
M100
0000
M100
0130
,  // measure 56
220M
0000
000M
3300
10M0
2000
00M0
0000
,  // measure 57
30M1
0002
0M00
0000
0M00
0000
M000
0013
,  // measure 58
M020
0030
M200
0300
100M
2000
000M
3020
,  // measure 59
000M
0000
M100
0000
M100
0000
010M
0130
,  // measure 60
0001
0000
0000
1000
0000
1000
0000
0000
0100
0000
0000
0010
0000
0010
0000
0000
,  // measure 61
0100
0000
0000
1000
0000
1000
0000
0000
0010
0000
0000
0100
0000
0100
0000
0100
,  // measure 62
0001
0000
0000
0010
0000
0010
0000
0000
0100
0000
0000
0010
0000
0010
0000
0000
,  // measure 63
0001
0000
0000
1000
0000
1000
0000
0000
0100
0000
0000
0100
1000
0000
1000
0000
,  // measure 64
0001
0100
0010
0100
0001
0010
0100
1000
,  // measure 65
0100
0010
0001
1000
0010
1000
0100
0010
,  // measure 66
0004
0M00
00M0
0000
0M00
00M0
0000
0M00
,  // measure 67
00M0
0000
0000
0000
0M00
0000
00M0
0000
0000
0000
0000
0000
0003
0200
0000
0000
,  // measure 68
0320
0000
0000
0000
,  // measure 69
0030
0000
0000
0000
;

//---------------dance-single - ----------------
#NOTEDATA:;
#CHARTNAME:Yellowjacket;
#STEPSTYPE:dance-single;
#DESCRIPTION:;
#CHARTSTYLE:;
#DIFFICULTY:Challenge;
#METER:8;
#RADARVALUES:0.424865,0.491597,0.186813,0.717360,0.302636,398.000000,373.000000,25.000000,96.000000,220.000000,0.000000,10.000000,0.000000,33.000000,0.424865,0.491597,0.186813,0.717360,0.302636,398.000000,373.000000,25.000000,96.000000,220.000000,0.000000,10.000000,0.000000,33.000000;
#CREDIT:Phil Lee;
#OFFSET:-0.024020;
#BPMS:0.000000=128.000000
;
#STOPS:;
#DELAYS:;
#WARPS:;
#TIMESIGNATURES:0.000000=4=4
;
#TICKCOUNTS:0.000000=4
;
#COMBOS:0.000000=1
;
#SPEEDS:0.000000=0.000000=0.000000=0
,0.250000=1.000000=14.750000=0
,80.000000=1.500000=30.750000=0
,110.750000=1.000000=1.250000=0
,140.000000=3.600000=0.000000=0
,140.250000=3.200000=0.000000=0
,140.500000=2.800000=0.000000=0
,140.750000=2.400000=0.000000=0
,141.000000=2.800000=0.000000=0
,141.250000=2.400000=0.000000=0
,141.500000=2.000000=0.000000=0
,141.750000=1.600000=0.000000=0
,142.000000=2.000000=0.000000=0
,142.250000=1.600000=0.000000=0
,142.500000=1.200000=0.000000=0
,142.750000=0.800000=0.000000=0
,143.000000=1.200000=0.000000=0
,143.250000=0.800000=0.000000=0
,143.500000=0.400000=0.000000=0
,143.750000=0.200000=0.000000=0
,144.000000=1.000000=0.000000=0
,172.000000=3.600000=0.000000=0
,172.250000=3.200000=0.000000=0
,172.500000=2.800000=0.000000=0
,172.750000=2.400000=0.000000=0
,173.000000=2.800000=0.000000=0
,173.250000=2.400000=0.000000=0
,173.500000=2.000000=0.000000=0
,173.750000=1.600000=0.000000=0
,174.000000=2.000000=0.000000=0
,174.250000=1.600000=0.000000=0
,174.500000=1.200000=0.000000=0
,174.750000=0.800000=0.000000=0
,175.000000=1.200000=0.000000=0
,175.250000=0.800000=0.000000=0
,175.500000=0.400000=0.000000=0
,175.750000=0.200000=0.000000=0
,176.000000=1.000000=0.000000=0
,176.500000=0.750000=15.500000=0
,192.000000=1.000000=16.000000=0
,240.000000=1.500000=32.000000=0
,272.000000=0.000000=8.000000=0
;
#SCROLLS:0.000000=1.000000
;
#FAKES:8.000000=6.666667
,105.000000=5.500000
,140.500000=3.000000
,141.000000=2.500000
,172.500000=3.000000
,264.500000=5.750000
,272.500000=4.750000
;
#LABELS:0.000000=Song Start
;
#ATTACKS:TIME=80.620003:LEN=0.120000:MODS=:TIME=80.739998:LEN=0.120000:MODS=:TIME=80.849998:LEN=0.120000:MODS=:TIME=80.620003:LEN=0.120000:MODS=:TIME=80.739998:LEN=0.120000:MODS=:TIME=80.849998:LEN=0.120000:MODS=:TIME=80.620003:LEN=0.120000:MODS=:TIME=80.739998:LEN=0.120000:MODS=:TIME=80.849998:LEN=0.120000:MODS=:TIME=80.620003:LEN=0.120000:MODS=:TIME=80.739998:LEN=0.120000:MODS=:TIME=80.849998:LEN=0.120000:MODS=:TIME=80.620003:LEN=0.120000:MODS=:TIME=80.739998:LEN=0.120000:MODS=:TIME=80.849998:LEN=0.120000:MODS=:TIME=80.620003:LEN=0.120000:MODS=:TIME=80.739998:LEN=0.120000:MODS=:TIME=80.849998:LEN=0.120000:MODS=:TIME=80.620003:LEN=0.120000:MODS=:TIME=80.739998:LEN=0.120000:MODS=:TIME=80.849998:LEN=0.120000:MODS=:TIME=80.620003:LEN=0.120000:MODS=:TIME=80.739998:LEN=0.120000:MODS=:TIME=80.849998:LEN=0.120000:MODS=:TIME=80.669998:LEN=0.120000:MODS=:TIME=80.790001:LEN=0.120000:MODS=:TIME=80.900002:LEN=0.120000:MODS=:TIME=80.621956:LEN=0.120000:MODS=:TIME=80.741959:LEN=0.120000:MODS=:TIME=80.851959:LEN=0.120000:MODS=:TIME=80.621956:LEN=0.120000:MODS=:TIME=80.741959:LEN=0.120000:MODS=:TIME=80.851959:LEN=0.120000:MODS=:TIME=80.621956:LEN=0.120000:MODS=:TIME=80.741959:LEN=0.120000:MODS=:TIME=80.851959:LEN=0.120000:MODS=:TIME=123.751358:LEN=1.850000:MODS=Tornado:TIME=65.626366:LEN=1.406250:MODS=44% Stealth:TIME=80.598152:LEN=1.410000:MODS=44% Stealth:TIME=48.723156:LEN=1.850000:MODS=Tornado;
#NOTES:
// measure 0
0000
0000
0000
0000
,  // measure 1
0000
0000
0000
0000
,  // measure 2
0000
0000
0000
0000
,  // measure 3
0000
0000
0000
0000
0000
0000
0000
0000
0000
0000
0000
0000
0001
0001
0100
0000
,  // measure 4
00M2
0000
10M3
0000
010M
0200
M310
0000
,  // measure 5
M001
0002
1M00
0000
10M0
0000
1M03
0010
,  // measure 6
M020
0000
M230
0300
00M1
2000
3M01
0002
,  // measure 7
01M0
0000
0000
0000
M100
0000
0000
0000
M103
0000
0000
0100
0001
0000
0001
0000
,  // measure 8
2M00
0000
310M
0000
10M0
2000
301M
0000
,  // measure 9
M100
0200
001M
0000
M010
0000
031M
1000
,  // measure 10
2M00
0000
30M2
0003
M100
0002
M013
0020
,  // measure 11
0M01
0000
0000
0000
M001
0000
0000
0000
0M31
0000
0000
1000
0001
0001
1000
0000
,  // measure 12
02M0
0000
M0M0
0000
03MM
2000
30MM
2000
,  // measure 13
3MM0
0002
M0M0
0103
M0M2
0000
MM00
0000
,  // measure 14
M023
0000
M130
0100
100M
0020
0M3M
2000
,  // measure 15
3M0M
0000
2000
0000
3MM0
0000
0001
0000
02M0
0300
0000
0100
M0M1
0000
0001
0000
,  // measure 16
2MM0
0000
0MM0
0000
30MM
0200
03MM
0200
,  // measure 17
03MM
2000
000M
3010
020M
0000
M00M
0000
,  // measure 18
M3M2
0000
1MM3
1000
010M
0020
M03M
0200
,  // measure 19
M30M
0000
0200
0000
03M0
0000
1000
0000
00M1
0000
0000
0001
0100
0010
0100
0000
,  // measure 20
1001
0000
0000
1000
0000
1000
0000
0000
11MM
0000
0000
0100
0000
0100
0000
0000
,  // measure 21
M11M
0000
0000
0010
0000
0010
0000
0000
MM11
0000
0000
0001
0000
0001
0000
0001
,  // measure 22
MM10
0000
0000
0100
0000
0100
0000
0000
11MM
0000
0000
1000
0000
1000
0000
0000
,  // measure 23
1M1M
0000
0000
0010
0000
0010
0000
0000
1MM1
0000
0000
1000
0001
0000
0001
0000
,  // measure 24
1000
0010
0100
0010
1000
0001
0010
0100
,  // measure 25
1000
0001
0010
0001
0100
0010
1000
0001
,  // measure 26
4000
0040
0000
0000
0M00
0000
0000
0000
000M
0000
0000
0000
0M00
0000
0000
0000
,  // measure 27
000M
0000
0000
0000
0M00
0000
0000
0000
000M
0000
3030
0100
0010
0004
0000
0000
,  // measure 28
M2M3
0000
M0M0
0000
M0M0
0302
M0M3
0002
,  // measure 29
0MM3
2000
30MM
0100
20M0
0000
0M0M
3000
,  // measure 30
0M2M
0000
M13M
0100
001M
2000
3MM0
0002
,  // measure 31
0MM3
0000
0002
0000
0MM3
0000
1000
0000
02M0
0300
0000
0100
100M
0000
1000
0000
,  // measure 32
0MM2
0000
0MM0
0000
M0M3
0200
M3M0
0200
,  // measure 33
03MM
0002
M000
0013
M200
0000
M00M
0000
,  // measure 34
230M
0000
3MM1
0001
M100
0020
003M
2000
,  // measure 35
3004
4000
0000
0000
0MM0
0000
0000
0000
0MM0
0000
0000
0000
0MM0
0000
3003
0000
,  // measure 36
0100
0000
0000
1000
0000
1000
0000
0000
M1M1
0000
0000
0100
0000
0100
0000
0000
,  // measure 37
M11M
0000
0000
0010
0000
0010
0000
0000
1M1M
0000
0000
1000
0000
1000
0000
1000
,  // measure 38
0M1M
0000
0000
0100
0000
0100
0000
0000
M1M1
0000
0000
0001
0000
0001
0000
0000
,  // measure 39
MM11
0000
0000
0010
0000
0010
0000
0000
1MM1
0000
0000
1000
0001
0000
0001
0000
,  // measure 40
M101
0000
0000
0100
0000
0100
0000
0000
M1M1
0000
0000
0001
0000
0001
0000
0000
,  // measure 41
MM11
0000
0000
0010
0000
0010
0000
0000
M11M
0000
0000
0100
0000
0100
0000
0100
,  // measure 42
100M
0000
0000
0010
0000
0010
0000
0000
1M01
0000
0000
0001
0000
0001
0000
0000
,  // measure 43
0400
0040
M000
0000
000M
0000
M000
0000
000M
0000
M000
0000
000M
0000
0000
0330
,  // measure 44
2000
3001
0200
0301
2000
3M01
0020
0031
,  // measure 45
2000
301M
0200
0310
2000
3001
0020
0130
,  // measure 46
200M
3001
0020
0031
0200
M301
0020
103M
,  // measure 47
0020
0031
2000
3010
2000
3001
0020
0130
,  // measure 48
M020
0031
2000
3001
0200
031M
2000
3001
,  // measure 49
0020
013M
2000
3001
0020
0031
0200
0310
,  // measure 50
200M
3001
0020
0130
2000
30M1
0200
031M
,  // measure 51
0002
0000
0013
0000
2000
0000
3001
0000
0200
0000
0310
0000
1000
1000
0100
0000
,  // measure 52
002M
0000
0M31
0000
01M0
0200
M301
0000
,  // measure 53
001M
0020
M001
0000
010M
0000
0M31
1000
,  // measure 54
2M00
0000
30M2
0000
01M3
0200
031M
0020
,  // measure 55
100M
0000
0000
0000
1M00
0000
0000
0000
103M
0000
0000
1000
0100
0000
0100
0000
,  // measure 56
200M
0000
3M10
0000
100M
2000
30M1
0000
,  // measure 57
M100
0200
M010
0000
10M0
0000
M310
1000
,  // measure 58
200M
0000
30M2
0000
1M03
2000
3M10
0020
,  // measure 59
010M
0000
0000
0000
M100
0000
0000
0000
013M
0000
0000
0001
0010
0010
0001
0000
,  // measure 60
1M01
0000
0000
1000
0000
1000
0000
0000
1M1M
0000
0000
0010
0000
0010
0000
0000
,  // measure 61
1M1M
0000
0000
1000
0000
1000
0000
0000
11MM
0000
0000
0100
0000
0100
0000
0100
,  // measure 62
M010
0000
0000
0001
0000
0001
0000
0000
MM11
0000
0000
0010
0000
0010
0000
0000
,  // measure 63
MM11
0000
0000
0001
0000
0001
0000
0000
10M1
0000
0000
0001
0100
0000
0001
0000
,  // measure 64
1000
0010
1000
0001
0010
0001
1000
0010
,  // measure 65
0100
0010
1000
0001
0100
0001
0010
0100
,  // measure 66
4000
0004
0000
0000
0M00
0000
0000
0000
00M0
0000
0000
0000
0M00
0000
0000
0000
,  // measure 67
00M0
0000
0000
0000
0M00
0000
0000
0000
00M0
0000
3003
0010
0100
0004
0000
0000
,  // measure 68
1003
0000
M000
000M
0M00
00M0
M000
000M
,  // measure 69
00M0
0M00
M000
0000
0000
0000
0000
0000
;

//---------------dance-single - ----------------
#NOTEDATA:;
#CHARTNAME:Drone;
#STEPSTYPE:dance-single;
#DESCRIPTION:;
#CHARTSTYLE:;
#DIFFICULTY:Beginner;
#METER:1;
#RADARVALUES:0.083265,0.154681,0.097143,0.029890,0.000000,78.000000,65.000000,13.000000,4.000000,0.000000,0.000000,0.000000,0.000000,0.000000,0.083265,0.154681,0.097143,0.029890,0.000000,78.000000,65.000000,13.000000,4.000000,0.000000,0.000000,0.000000,0.000000,0.000000;
#CREDIT:Aryana Kubiak;
#ATTACKS:TIME=80.620003:LEN=0.120000:MODS=:TIME=80.739998:LEN=0.120000:MODS=:TIME=80.849998:LEN=0.120000:MODS=:TIME=80.571960:LEN=0.120000:MODS=:TIME=80.691956:LEN=0.120000:MODS=:TIME=80.801956:LEN=0.120000:MODS=:TIME=80.571960:LEN=0.120000:MODS=:TIME=80.691956:LEN=0.120000:MODS=:TIME=80.801956:LEN=0.120000:MODS=:TIME=80.571960:LEN=0.120000:MODS=:TIME=80.691956:LEN=0.120000:MODS=:TIME=80.801956:LEN=0.120000:MODS=:TIME=80.571960:LEN=0.120000:MODS=:TIME=80.691956:LEN=0.120000:MODS=:TIME=80.801956:LEN=0.120000:MODS=:TIME=80.571960:LEN=0.120000:MODS=:TIME=80.691956:LEN=0.120000:MODS=:TIME=80.801956:LEN=0.120000:MODS=:TIME=80.571960:LEN=0.120000:MODS=:TIME=80.691956:LEN=0.120000:MODS=:TIME=80.801956:LEN=0.120000:MODS=:TIME=80.571960:LEN=0.120000:MODS=:TIME=80.691956:LEN=0.120000:MODS=:TIME=80.801956:LEN=0.120000:MODS=:TIME=80.621956:LEN=0.120000:MODS=:TIME=80.741959:LEN=0.120000:MODS=:TIME=80.851959:LEN=0.120000:MODS=:TIME=80.621956:LEN=0.120000:MODS=:TIME=80.741959:LEN=0.120000:MODS=:TIME=80.851959:LEN=0.120000:MODS=:TIME=80.621956:LEN=0.120000:MODS=:TIME=80.741959:LEN=0.120000:MODS=:TIME=80.851959:LEN=0.120000:MODS=:TIME=80.621956:LEN=0.120000:MODS=:TIME=80.741959:LEN=0.120000:MODS=:TIME=80.851959:LEN=0.120000:MODS=:TIME=80.625984:LEN=0.120000:MODS=:TIME=80.745979:LEN=0.120000:MODS=:TIME=80.855980:LEN=0.120000:MODS=:TIME=80.625984:LEN=0.120000:MODS=:TIME=80.745979:LEN=0.120000:MODS=:TIME=80.855980:LEN=0.120000:MODS=:TIME=80.625984:LEN=0.120000:MODS=:TIME=80.745979:LEN=0.120000:MODS=:TIME=80.855980:LEN=0.120000:MODS=:TIME=80.655983:LEN=0.120000:MODS=:TIME=80.775978:LEN=0.120000:MODS=:TIME=80.885979:LEN=0.120000:MODS=:TIME=80.655983:LEN=0.120000:MODS=:TIME=80.775978:LEN=0.120000:MODS=:TIME=80.885979:LEN=0.120000:MODS=:TIME=80.655983:LEN=0.120000:MODS=:TIME=80.775978:LEN=0.120000:MODS=:TIME=80.885979:LEN=0.120000:MODS=:TIME=80.655983:LEN=0.120000:MODS=:TIME=80.775978:LEN=0.120000:MODS=:TIME=80.885979:LEN=0.120000:MODS=:TIME=80.655983:LEN=0.120000:MODS=:TIME=80.775978:LEN=0.120000:MODS=:TIME=80.885979:LEN=0.120000:MODS=:TIME=80.655983:LEN=0.120000:MODS=:TIME=80.775978:LEN=0.120000:MODS=:TIME=80.885979:LEN=0.120000:MODS=:TIME=80.655983:LEN=0.120000:MODS=:TIME=80.775978:LEN=0.120000:MODS=:TIME=80.885979:LEN=0.120000:MODS=:TIME=80.655983:LEN=0.120000:MODS=:TIME=80.775978:LEN=0.120000:MODS=:TIME=80.885979:LEN=0.120000:MODS=:TIME=80.655983:LEN=0.120000:MODS=:TIME=80.775978:LEN=0.120000:MODS=:TIME=80.885979:LEN=0.120000:MODS=:TIME=80.655983:LEN=0.120000:MODS=:TIME=80.775978:LEN=0.120000:MODS=:TIME=80.885979:LEN=0.120000:MODS=:TIME=80.655983:LEN=0.120000:MODS=:TIME=80.775978:LEN=0.120000:MODS=:TIME=80.885979:LEN=0.120000:MODS=:TIME=80.655983:LEN=0.120000:MODS=:TIME=80.775978:LEN=0.120000:MODS=:TIME=80.885979:LEN=0.120000:MODS=:TIME=80.655983:LEN=0.120000:MODS=:TIME=80.775978:LEN=0.120000:MODS=:TIME=80.885979:LEN=0.120000:MODS=:TIME=80.655983:LEN=0.120000:MODS=:TIME=80.775978:LEN=0.120000:MODS=:TIME=80.885979:LEN=0.120000:MODS=:TIME=80.655983:LEN=0.120000:MODS=:TIME=80.775978:LEN=0.120000:MODS=:TIME=80.885979:LEN=0.120000:MODS=:TIME=80.655983:LEN=0.120000:MODS=:TIME=80.775978:LEN=0.120000:MODS=:TIME=80.885979:LEN=0.120000:MODS=:TIME=80.655983:LEN=0.120000:MODS=:TIME=80.775978:LEN=0.120000:MODS=:TIME=80.885979:LEN=0.120000:MODS=:TIME=80.655983:LEN=0.120000:MODS=:TIME=80.775978:LEN=0.120000:MODS=:TIME=80.885979:LEN=0.120000:MODS=:TIME=80.655983:LEN=0.120000:MODS=:TIME=80.775978:LEN=0.120000:MODS=:TIME=80.885979:LEN=0.120000:MODS=:TIME=80.655983:LEN=0.120000:MODS=:TIME=80.775978:LEN=0.120000:MODS=:TIME=80.885979:LEN=0.120000:MODS=:TIME=80.655983:LEN=0.120000:MODS=:TIME=80.775978:LEN=0.120000:MODS=:TIME=80.885979:LEN=0.120000:MODS=:TIME=80.655983:LEN=0.120000:MODS=:TIME=80.775978:LEN=0.120000:MODS=:TIME=80.885979:LEN=0.120000:MODS=:TIME=80.655983:LEN=0.120000:MODS=:TIME=80.775978:LEN=0.120000:MODS=:TIME=80.885979:LEN=0.120000:MODS=;
#NOTES:
0000
0000
0000
0000
,
0000
0000
0000
0000
,
0000
0000
0000
0000
,
0000
0000
0000
0000
,
1000
0000
0000
0000
,
0000
1000
0000
0000
0000
0000
0000
0000
,
0100
0000
0000
0000
0000
0000
0000
0100
,
0000
0000
0000
0000
,
0010
0000
0000
0000
,
0000
0010
0000
0000
0000
0000
0000
0000
,
0001
0000
0000
0000
0000
0000
0000
0001
,
0000
0000
0000
0000
,
1001
0000
0000
0000
0000
0000
0000
0001
,
0000
0000
0000
0000
,
1000
0000
0000
0000
0000
0000
0000
1000
,
0000
0000
0000
0000
,
0001
0000
0000
0000
0000
0000
0000
0001
,
0000
0000
0000
0000
,
0100
0000
0000
0000
0000
0000
0000
0100
,
0000
0000
0000
0000
,
0110
0000
0000
0000
,
1001
0000
0000
0000
,
0110
0000
0000
0000
,
1001
0000
0000
0000
,
1000
0000
0000
0000
,
0100
0000
0000
0000
,
1000
0000
0000
0000
0000
0000
0000
0020
,
0000
0000
0000
0000
0000
0000
0000
0000
0000
0000
0000
0000
0000
0030
0000
0000
,
0110
0000
0000
0000
0000
0000
0000
0001
,
0000
0000
0000
0000
,
1000
0000
0000
0000
0000
0000
0000
0001
,
0000
0000
0000
0000
,
0100
0000
0000
0000
0000
0000
0000
0001
,
0000
0000
0000
0000
,
1000
0000
0000
0000
0000
0000
0000
0100
,
0000
0000
0000
0000
,
0110
0000
0000
0000
0000
0000
0000
1000
,
0000
0000
0000
0000
,
0001
0000
0000
0000
0000
0000
0000
1000
,
0000
0000
0000
0000
,
0100
0000
0000
0000
0000
0000
0000
1000
,
0000
0000
0000
0000
,
0001
0000
0000
0000
0000
0000
0000
1000
,
0000
0000
0000
0000
,
1001
0000
0000
0000
,
0000
0001
0000
0000
0000
0000
0000
0000
,
1000
0000
0000
0000
0000
0000
0000
0010
,
0000
0000
0000
0000
,
0100
0000
0000
0000
,
0000
0001
0000
0000
0000
0000
0000
0000
,
0100
0000
0000
0000
0000
0000
0000
0010
,
0000
0000
0000
0000
,
1000
0000
0000
0000
,
0000
1000
0000
0000
0000
0000
0000
0000
,
0100
0000
0000
0000
0000
0000
0000
0100
,
0000
0000
0000
0000
,
0010
0000
0000
0000
,
0000
0010
0000
0000
0000
0000
0000
0000
,
0001
0000
0000
0000
0000
0000
0000
0001
,
0000
0000
0000
0000
,
0110
0000
0000
0000
,
1001
0000
0000
0000
,
0110
0000
0000
0000
,
1001
0000
0000
0000
,
0001
0000
0000
0000
,
0010
0000
0000
0000
,
0100
0000
0000
0000
0000
0000
0000
2000
,
0000
0000
0000
0000
0000
0000
0000
0000
0000
0000
0000
0000
0000
3000
0000
0000
,
2002
0000
0000
0000
,
3003
0000
0000
0000
;

//---------------dance-single - ----------------
#NOTEDATA:;
#CHARTNAME:Honey Bee;
#STEPSTYPE:dance-single;
#DESCRIPTION:;
#CHARTSTYLE:;
#DIFFICULTY:Easy;
#METER:4;
#RADARVALUES:0.179340,0.257801,0.014945,0.141978,0.000000,168.000000,166.000000,2.000000,19.000000,0.000000,0.000000,0.000000,0.000000,0.000000,0.179340,0.257801,0.014945,0.141978,0.000000,168.000000,166.000000,2.000000,19.000000,0.000000,0.000000,0.000000,0.000000,0.000000;
#CREDIT:Phil Lee;
#ATTACKS:TIME=80.62:LEN=0.12:MODS=:TIME=80.74:LEN=0.12:MODS=:TIME=80.85:LEN=0.12:MODS=:TIME=80.571960:LEN=0.120000:MODS=:TIME=80.691956:LEN=0.120000:MODS=:TIME=80.801956:LEN=0.120000:MODS=:TIME=80.571960:LEN=0.120000:MODS=:TIME=80.691956:LEN=0.120000:MODS=:TIME=80.801956:LEN=0.120000:MODS=:TIME=80.571960:LEN=0.120000:MODS=:TIME=80.691956:LEN=0.120000:MODS=:TIME=80.801956:LEN=0.120000:MODS=:TIME=80.571960:LEN=0.120000:MODS=:TIME=80.691956:LEN=0.120000:MODS=:TIME=80.801956:LEN=0.120000:MODS=:TIME=80.571960:LEN=0.120000:MODS=:TIME=80.691956:LEN=0.120000:MODS=:TIME=80.801956:LEN=0.120000:MODS=:TIME=80.571960:LEN=0.120000:MODS=:TIME=80.691956:LEN=0.120000:MODS=:TIME=80.801956:LEN=0.120000:MODS=:TIME=80.571960:LEN=0.120000:MODS=:TIME=80.691956:LEN=0.120000:MODS=:TIME=80.801956:LEN=0.120000:MODS=:TIME=80.621956:LEN=0.120000:MODS=:TIME=80.741959:LEN=0.120000:MODS=:TIME=80.851959:LEN=0.120000:MODS=:TIME=80.621956:LEN=0.120000:MODS=:TIME=80.741959:LEN=0.120000:MODS=:TIME=80.851959:LEN=0.120000:MODS=:TIME=80.621956:LEN=0.120000:MODS=:TIME=80.741959:LEN=0.120000:MODS=:TIME=80.851959:LEN=0.120000:MODS=:TIME=80.621956:LEN=0.120000:MODS=:TIME=80.741959:LEN=0.120000:MODS=:TIME=80.851959:LEN=0.120000:MODS=:TIME=80.625984:LEN=0.120000:MODS=:TIME=80.745979:LEN=0.120000:MODS=:TIME=80.855980:LEN=0.120000:MODS=:TIME=80.625984:LEN=0.120000:MODS=:TIME=80.745979:LEN=0.120000:MODS=:TIME=80.855980:LEN=0.120000:MODS=:TIME=80.625984:LEN=0.120000:MODS=:TIME=80.745979:LEN=0.120000:MODS=:TIME=80.855980:LEN=0.120000:MODS=:TIME=80.655983:LEN=0.120000:MODS=:TIME=80.775978:LEN=0.120000:MODS=:TIME=80.885979:LEN=0.120000:MODS=:TIME=80.655983:LEN=0.120000:MODS=:TIME=80.775978:LEN=0.120000:MODS=:TIME=80.885979:LEN=0.120000:MODS=:TIME=80.655983:LEN=0.120000:MODS=:TIME=80.775978:LEN=0.120000:MODS=:TIME=80.885979:LEN=0.120000:MODS=:TIME=80.655983:LEN=0.120000:MODS=:TIME=80.775978:LEN=0.120000:MODS=:TIME=80.885979:LEN=0.120000:MODS=:TIME=80.655983:LEN=0.120000:MODS=:TIME=80.775978:LEN=0.120000:MODS=:TIME=80.885979:LEN=0.120000:MODS=:TIME=80.655983:LEN=0.120000:MODS=:TIME=80.775978:LEN=0.120000:MODS=:TIME=80.885979:LEN=0.120000:MODS=:TIME=80.655983:LEN=0.120000:MODS=:TIME=80.775978:LEN=0.120000:MODS=:TIME=80.885979:LEN=0.120000:MODS=:TIME=80.655983:LEN=0.120000:MODS=:TIME=80.775978:LEN=0.120000:MODS=:TIME=80.885979:LEN=0.120000:MODS=:TIME=80.655983:LEN=0.120000:MODS=:TIME=80.775978:LEN=0.120000:MODS=:TIME=80.885979:LEN=0.120000:MODS=:TIME=80.655983:LEN=0.120000:MODS=:TIME=80.775978:LEN=0.120000:MODS=:TIME=80.885979:LEN=0.120000:MODS=:TIME=80.655983:LEN=0.120000:MODS=:TIME=80.775978:LEN=0.120000:MODS=:TIME=80.885979:LEN=0.120000:MODS=:TIME=80.655983:LEN=0.120000:MODS=:TIME=80.775978:LEN=0.120000:MODS=:TIME=80.885979:LEN=0.120000:MODS=:TIME=80.655983:LEN=0.120000:MODS=:TIME=80.775978:LEN=0.120000:MODS=:TIME=80.885979:LEN=0.120000:MODS=:TIME=80.655983:LEN=0.120000:MODS=:TIME=80.775978:LEN=0.120000:MODS=:TIME=80.885979:LEN=0.120000:MODS=:TIME=80.655983:LEN=0.120000:MODS=:TIME=80.775978:LEN=0.120000:MODS=:TIME=80.885979:LEN=0.120000:MODS=:TIME=80.655983:LEN=0.120000:MODS=:TIME=80.775978:LEN=0.120000:MODS=:TIME=80.885979:LEN=0.120000:MODS=:TIME=80.655983:LEN=0.120000:MODS=:TIME=80.775978:LEN=0.120000:MODS=:TIME=80.885979:LEN=0.120000:MODS=:TIME=80.655983:LEN=0.120000:MODS=:TIME=80.775978:LEN=0.120000:MODS=:TIME=80.885979:LEN=0.120000:MODS=:TIME=80.655983:LEN=0.120000:MODS=:TIME=80.775978:LEN=0.120000:MODS=:TIME=80.885979:LEN=0.120000:MODS=:TIME=80.655983:LEN=0.120000:MODS=:TIME=80.775978:LEN=0.120000:MODS=:TIME=80.885979:LEN=0.120000:MODS=:TIME=80.655983:LEN=0.120000:MODS=:TIME=80.775978:LEN=0.120000:MODS=:TIME=80.885979:LEN=0.120000:MODS=:TIME=80.655983:LEN=0.120000:MODS=:TIME=80.775978:LEN=0.120000:MODS=:TIME=80.885979:LEN=0.120000:MODS=:TIME=80.655983:LEN=0.120000:MODS=:TIME=80.775978:LEN=0.120000:MODS=:TIME=80.885979:LEN=0.120000:MODS=;
#NOTES:
0000
0000
0000
0000
,
0000
0000
0000
0000
,
0000
0000
0000
0000
,
0000
0000
0000
0000
,
2000
0000
0000
0000
0000
3002
0000
0000
,
0000
0203
0000
0000
0000
0000
0000
0000
,
0310
0000
0010
0000
0010
0000
0000
0200
,
0000
0000
0000
0000
,
0302
0000
0000
0000
0000
2003
0000
0000
,
0000
3200
0000
0000
0000
0000
0000
0000
,
1300
0000
1000
0000
1000
0000
0000
0002
,
0000
0000
0000
0000
,
1003
0100
1000
0001
,
0100
0001
0010
0001
,
0100
0010
1000
0100
,
0010
0100
1000
0001
,
0100
0001
0010
0001
,
1000
0100
0010
0100
,
1000
0010
0100
0010
,
1000
0001
0010
0100
,
1001
0000
1000
0000
,
0010
0000
0100
0000
,
0010
0000
1000
0000
,
0001
0000
0010
0000
,
0001
0100
0010
0100
,
0001
0010
0100
1000
,
0020
0000
0000
0000
,
0000
0000
0000
0000
0000
0000
0000
0000
0000
0000
0000
0000
0000
0030
0000
0000
,
1000
0001
0100
0001
,
0010
0100
1000
0010
,
0100
0010
1000
0100
,
0010
0100
1000
0001
,
0100
0001
0010
0100
,
1000
0100
0010
0001
,
0100
0010
0100
0001
,
0100
0100
0100
0100
,
0001
0000
1000
0000
,
0100
0000
1000
0000
,
0001
0000
1000
0000
,
0010
0000
0100
0000
,
0001
0000
0100
0000
,
0010
0000
1000
0000
,
0001
0000
0010
0000
,
0001
0001
0001
0001
,
1001
0000
0000
0000
0000
1000
0000
0000
,
0000
0001
0000
0000
0000
0000
0000
0000
,
0010
0000
0000
0000
0000
0100
0000
0100
,
0000
0000
0000
0000
,
1000
0000
0000
0000
0000
0010
0000
0000
,
0000
0100
0000
0000
0000
0000
0000
0000
,
0001
0000
0000
0000
0000
1000
0000
1000
,
0000
0000
0000
0001
,
0002
0000
0000
0000
0000
2003
0000
0000
,
0000
3200
0000
0000
0000
0000
0000
0000
,
0310
0000
0010
0000
0010
0000
0000
0200
,
0000
0000
0000
0000
,
2300
0000
0000
0000
0000
3002
0000
0000
,
0000
0023
0000
0000
0000
0000
0000
0000
,
0031
0000
0001
0000
0001
0000
0000
2000
,
0000
0000
0000
0000
,
3001
1000
0001
0100
,
0010
1000
0100
1000
,
0001
0010
0100
0010
,
0001
0100
0010
1000
,
0001
0010
0100
1000
,
0100
0010
0100
1000
,
0002
0000
0000
0000
,
0000
0000
0000
0000
0000
0000
0000
0000
0000
0000
0000
0000
0000
0003
0000
0000
,
0200
0000
0000
0000
,
0300
0000
0000
0000
;

//---------------dance-single - Traps----------------
#NOTEDATA:;
#CHARTNAME:Suzumebachi;
#STEPSTYPE:dance-single;
#DESCRIPTION:Traps;
#CHARTSTYLE:;
#DIFFICULTY:Edit;
#METER:10;
#RADARVALUES:0.673593,0.842898,0.515603,0.269010,1.244171,631.000000,562.000000,69.000000,36.000000,378.000000,0.000000,2.000000,0.000000,115.000000,0.673593,0.842898,0.515603,0.269010,1.244171,631.000000,562.000000,69.000000,36.000000,378.000000,0.000000,2.000000,0.000000,115.000000;
#CREDIT:Phil Lee;
#OFFSET:-0.024020;
#BPMS:0.000000=128.000000
;
#STOPS:;
#DELAYS:;
#WARPS:;
#TIMESIGNATURES:0.000000=4=4
;
#TICKCOUNTS:0.000000=4
;
#COMBOS:0.000000=1
;
#SPEEDS:0.000000=0.000000=0.000000=0
,0.250000=1.000000=14.750000=0
,80.000000=1.500000=30.750000=0
,110.750000=1.000000=1.250000=0
,140.000000=1.500000=0.000000=0
,140.250000=1.400000=0.000000=0
,140.500000=1.300000=0.000000=0
,140.750000=1.200000=0.000000=0
,141.000000=1.300000=0.000000=0
,141.250000=1.200000=0.000000=0
,141.500000=1.100000=0.000000=0
,141.750000=1.000000=0.000000=0
,142.000000=1.100000=0.000000=0
,142.250000=1.000000=0.000000=0
,142.500000=0.900000=0.000000=0
,142.750000=0.800000=0.000000=0
,143.000000=0.900000=0.000000=0
,143.250000=0.800000=0.000000=0
,143.500000=0.700000=0.000000=0
,143.750000=0.600000=0.000000=0
,144.000000=1.000000=0.000000=0
,172.000000=1.500000=0.000000=0
,172.250000=1.400000=0.000000=0
,172.500000=1.300000=0.000000=0
,172.750000=1.200000=0.000000=0
,173.000000=1.300000=0.000000=0
,173.250000=1.200000=0.000000=0
,173.500000=1.100000=0.000000=0
,173.750000=1.000000=0.000000=0
,174.000000=1.100000=0.000000=0
,174.250000=1.000000=0.000000=0
,174.500000=0.900000=0.000000=0
,174.750000=0.800000=0.000000=0
,175.000000=0.900000=0.000000=0
,175.250000=0.800000=0.000000=0
,175.500000=0.700000=0.000000=0
,175.750000=0.600000=0.000000=0
,176.000000=1.000000=0.000000=0
,176.500000=0.750000=15.500000=0
,192.000000=1.000000=16.000000=0
,240.000000=1.500000=32.000000=0
,272.000000=0.000000=8.000000=0
;
#SCROLLS:0.000000=1.000000
;
#FAKES:276.000000=7.000000
;
#LABELS:0.000000=Song Start
;
#ATTACKS:TIME=80.62:LEN=0.12:MODS=:TIME=80.74:LEN=0.12:MODS=:TIME=80.85:LEN=0.12:MODS=:TIME=80.620003:LEN=0.120000:MODS=:TIME=80.739998:LEN=0.120000:MODS=:TIME=80.849998:LEN=0.120000:MODS=:TIME=80.620003:LEN=0.120000:MODS=:TIME=80.739998:LEN=0.120000:MODS=:TIME=80.849998:LEN=0.120000:MODS=:TIME=80.620003:LEN=0.120000:MODS=:TIME=80.739998:LEN=0.120000:MODS=:TIME=80.849998:LEN=0.120000:MODS=:TIME=80.620003:LEN=0.120000:MODS=:TIME=80.739998:LEN=0.120000:MODS=:TIME=80.849998:LEN=0.120000:MODS=:TIME=80.620003:LEN=0.120000:MODS=:TIME=80.739998:LEN=0.120000:MODS=:TIME=80.849998:LEN=0.120000:MODS=:TIME=80.620003:LEN=0.120000:MODS=:TIME=80.739998:LEN=0.120000:MODS=:TIME=80.849998:LEN=0.120000:MODS=:TIME=80.620003:LEN=0.120000:MODS=:TIME=80.739998:LEN=0.120000:MODS=:TIME=80.849998:LEN=0.120000:MODS=:TIME=80.669998:LEN=0.120000:MODS=:TIME=80.790001:LEN=0.120000:MODS=:TIME=80.900002:LEN=0.120000:MODS=:TIME=80.621956:LEN=0.120000:MODS=:TIME=80.741959:LEN=0.120000:MODS=:TIME=80.851959:LEN=0.120000:MODS=:TIME=80.621956:LEN=0.120000:MODS=:TIME=80.741959:LEN=0.120000:MODS=:TIME=80.851959:LEN=0.120000:MODS=:TIME=80.621956:LEN=0.120000:MODS=:TIME=80.741959:LEN=0.120000:MODS=:TIME=80.851959:LEN=0.120000:MODS=:TIME=65.626366:LEN=1.406250:MODS=44% Stealth:TIME=80.598152:LEN=1.410000:MODS=44% Stealth:TIME=48.810276:LEN=3.164063:MODS=*.1 44% Stealth:TIME=123.810272:LEN=3.164060:MODS=*.1 44% Stealth;
#NOTES:
0000
0000
0000
0000
,
0000
0000
0000
0000
,
0000
0000
0000
0000
,
0000
0000
0000
0000
0000
0000
0000
0000
0000
0000
0000
0000
1000
1000
0010
0000
,
2010
0000
3001
0000
0101
0012
0013
0000
,
1001
0000
0000
0000
0000
0000
0000
0000
0000
0000
0000
0000
0000
0000
0000
0000
0000
0000
0000
0000
0000
0000
0000
0000
2100
0000
0000
0000
0000
0000
0000
0000
0000
0000
0000
0000
00MM
0000
0000
0000
0000
0000
0000
0000
0000
0000
0000
00MM
01FF
0000
0000
0000
0000
0000
0000
0000
0000
0000
0000
0000
00MM
0000
0000
0000
0000
0000
0000
0000
0000
0000
0000
0000
0000
0000
0000
0000
0000
0000
0000
0000
0000
0000
0000
0000
0MM0
0000
0000
0000
0000
0000
0000
0000
0000
0000
0000
0MM0
0FF1
0000
0000
0000
0000
0000
0000
0000
0000
0000
0000
0000
0MM0
0000
0000
0000
0000
0000
0000
0000
0000
0000
0000
0000
0000
0000
0000
0000
0000
0000
0000
0000
0000
0000
0000
0000
00MM
0000
0000
0000
0000
0000
0000
0000
0000
0000
0000
00MM
31FF
0000
0000
0000
0000
0000
0000
0000
0000
0000
0000
0000
000M
0000
0000
0000
0000
0000
0000
0000
0000
0000
0000
0000
0010
0000
0000
0000
0000
0000
0000
0000
0000
0000
0000
0000
0000
0000
0000
0000
0000
0000
0000
0000
0000
0000
0000
0000
,
0012
0000
0000
0000
0000
0000
0000
0000
0000
0000
0000
0000
0000
0000
0000
0000
0000
0000
0000
0000
0000
0000
0000
0000
0003
0000
0000
0000
0000
0000
0000
0000
0000
0000
0000
0000
0000
0000
0000
0000
0000
0000
0000
0000
0000
0000
0000
0000
2001
0000
0000
0000
0000
0000
0000
0000
0000
0000
0000
0000
0000
0000
0000
0000
0000
0000
0000
0000
0000
0000
0000
0000
3000
0000
0000
0000
0000
0000
0000
0000
0000
0000
0000
0000
0000
0000
0000
0000
0000
0000
0000
0000
0000
0000
0000
0000
1010
0000
0000
0000
0000
0000
0000
0000
0000
0000
0000
0000
0000
0000
0000
0000
0000
0000
0000
0000
0000
0000
0000
0000
1001
0000
0000
0000
0000
0000
0000
0000
0000
0000
0000
0000
0000
0000
0000
0000
0000
0000
0000
0000
0000
0000
0000
0000
0001
0000
0000
0000
0000
0000
0000
0000
0000
0000
0000
0000
0000
0000
0000
0000
0000
0000
0000
0000
0000
0000
0000
0000
0201
0000
0000
0000
0000
0000
0000
0000
0000
0000
0000
0000
M0M0
0000
0000
0000
0000
0000
0000
0000
0000
0000
0000
M0M0
,
F0F1
0000
0000
0000
0000
0000
0000
0000
0000
0000
0000
0000
M0M0
0000
0000
0000
0000
0000
0000
0000
0000
0000
0000
0000
0000
0000
0000
0000
0000
0000
0000
0000
0000
0000
0000
0000
M00M
0000
0000
0000
0000
0000
0000
0000
0000
0000
0000
M00M
F01F
0000
0000
0000
0000
0000
0000
0000
0000
0000
0000
0000
M00M
0000
0000
0000
0000
0000
0000
0000
0000
0000
0000
0000
0000
0000
0000
0000
0000
0000
0000
0000
0000
0000
0000
0000
M0M0
0000
0000
0000
0000
0000
0000
0000
0000
0000
0000
M0M0
F3F1
0000
0000
0000
0000
0000
0000
0000
0000
0000
0000
0000
M0M0
0000
0000
0000
0000
0000
0000
0000
0000
0000
0000
0000
0000
0000
0000
0000
0000
0000
0000
0000
0000
0000
0000
0000
0001
0000
0000
0000
0000
0000
0000
0000
0000
0000
0000
0000
0010
0000
0000
0000
0000
0000
0000
0000
0000
0000
0000
0000
0000
0000
0000
0000
0000
0000
0000
0000
0000
0000
0000
0000
0010
0000
0000
0000
0000
0000
0000
0000
0000
0000
0000
0000
0000
0000
0000
0000
0000
0000
0000
0000
0000
0000
0000
0000
,
0012
0000
1003
0000
1100
2010
3010
0000
,
1001
0000
0000
0000
0000
0000
0000
0000
0000
0000
0000
0000
0000
0000
0000
0000
0000
0000
0000
0000
0000
0000
0000
0000
0102
0000
0000
0000
0000
0000
0000
0000
0000
0000
0000
0000
M0M0
0000
0000
0000
0000
0000
0000
0000
0000
0000
0000
M0M0
F1F0
0000
0000
0000
0000
0000
0000
0000
0000
0000
0000
0000
M0M0
0000
0000
0000
0000
0000
0000
0000
0000
0000
0000
0000
0000
0000
0000
0000
0000
0000
0000
0000
0000
0000
0000
0000
0MM0
0000
0000
0000
0000
0000
0000
0000
0000
0000
0000
0MM0
1FF0
0000
0000
0000
0000
0000
0000
0000
0000
0000
0000
0000
0MM0
0000
0000
0000
0000
0000
0000
0000
0000
0000
0000
0000
0000
0000
0000
0000
0000
0000
0000
0000
0000
0000
0000
0000
M0M0
0000
0000
0000
0000
0000
0000
0000
0000
0000
0000
M0M0
F1F3
0000
0000
0000
0000
0000
0000
0000
0000
0000
0000
0000
M000
0000
0000
0000
0000
0000
0000
0000
0000
0000
0000
0000
0010
0000
0000
0000
0000
0000
0000
0000
0000
0000
0000
0000
0000
0000
0000
0000
0000
0000
0000
0000
0000
0000
0000
0000
,
2010
0000
0000
0000
0000
0000
0000
0000
0000
0000
0000
0000
0000
0000
0000
0000
0000
0000
0000
0000
0000
0000
0000
0000
3000
0000
0000
0000
0000
0000
0000
0000
0000
0000
0000
0000
0000
0000
0000
0000
0000
0000
0000
0000
0000
0000
0000
0000
1002
0000
0000
0000
0000
0000
0000
0000
0000
0000
0000
0000
0000
0000
0000
0000
0000
0000
0000
0000
0000
0000
0000
0000
0003
0000
0000
0000
0000
0000
0000
0000
0000
0000
0000
0000
0000
0000
0000
0000
0000
0000
0000
0000
0000
0000
0000
0000
0011
0000
0000
0000
0000
0000
0000
0000
0000
0000
0000
0000
0000
0000
0000
0000
0000
0000
0000
0000
0000
0000
0000
0000
1001
0000
0000
0000
0000
0000
0000
0000
0000
0000
0000
0000
0000
0000
0000
0000
0000
0000
0000
0000
0000
0000
0000
0000
1000
0000
0000
0000
0000
0000
0000
0000
0000
0000
0000
0000
0000
0000
0000
0000
0000
0000
0000
0000
0000
0000
0000
0000
1200
0000
0000
0000
0000
0000
0000
0000
0000
0000
0000
0000
00MM
0000
0000
0000
0000
0000
0000
0000
0000
0000
0000
00MM
,
10FF
0000
0000
0000
0000
0000
0000
0000
0000
0000
0000
0000
00MM
0000
0000
0000
0000
0000
0000
0000
0000
0000
0000
0000
0000
0000
0000
0000
0000
0000
0000
0000
0000
0000
0000
0000
M00M
0000
0000
0000
0000
0000
0000
0000
0000
0000
0000
M00M
F01F
0000
0000
0000
0000
0000
0000
0000
0000
0000
0000
0000
M00M
0000
0000
0000
0000
0000
0000
0000
0000
0000
0000
0000
0000
0000
0000
0000
0000
0000
0000
0000
0000
0000
0000
0000
00MM
0000
0000
0000
0000
0000
0000
0000
0000
0000
0000
00MM
13FF
0000
0000
0000
0000
0000
0000
0000
0000
0000
0000
0000
00MM
0000
0000
0000
0000
0000
0000
0000
0000
0000
0000
0000
0000
0000
0000
0000
0000
0000
0000
0000
0000
0000
0000
0000
1000
0000
0000
0000
0000
0000
0000
0000
0000
0000
0000
0000
0010
0000
0000
0000
0000
0000
0000
0000
0000
0000
0000
0000
0010
0000
0000
0000
0000
0000
0000
0000
0000
0000
0000
0000
0100
0000
0000
0000
0000
0000
0000
0000
0000
0000
0000
0000
0000
0000
0000
0000
0000
0000
0000
0000
0000
0000
0000
0000
,
M101
0000
0001
0010
0001
0000
0001
1000
0001
0000
00M1
0100
0001
0000
00M1
1000
,
0001
0000
10M0
0100
1000
0000
10M0
0001
1M00
0000
1000
0010
1000
0000
1000
0001
,
1M00
0000
0010
0100
001M
0000
001M
1000
0M10
0000
0M10
0001
0010
0000
M010
0100
,
0010
0000
M100
0001
0100
0000
M100
0010
010M
0000
0100
0010
0100
0000
0100
0000
,
10M1
0000
0001
0010
0001
0000
1000
0010
1000
0000
010M
0010
0100
0000
10M0
0001
,
1000
0000
001M
0100
0010
0000
100M
0100
10M0
0000
0001
0100
0001
0000
0010
0100
,
M010
0000
0001
0100
00M1
0000
1M00
0010
100M
0000
01M0
0001
0100
0000
100M
0010
,
1000
0000
0000
0000
0000
0000
0000
0000
0000
0000
0000
0000
0000
0000
0000
0000
0000
0000
0000
0000
0000
0000
0000
0000
00M1
0000
0000
0000
0000
0000
0000
0000
0000
0000
0000
0000
0100
0000
0000
0000
0000
0000
0000
0000
0000
0000
0000
0000
0001
0000
0000
0000
0000
0000
0000
0000
0000
0000
0000
0000
0000
0000
0000
0000
0000
0000
0000
0000
0000
0000
0000
0000
M010
0000
0000
0000
0000
0000
0000
0000
0000
0000
0000
0000
0100
0000
0000
0000
0000
0000
0000
0000
0000
0000
0000
0000
M010
0000
0000
0000
0000
0000
0000
0000
0000
0000
0000
0000
0000
0000
0000
0000
0000
0000
0000
0000
0000
0000
0000
0000
0001
0000
0000
0000
0000
0000
0000
0000
0000
0000
0000
0000
0100
0000
0000
0000
0000
0000
0000
0000
0000
0000
0000
0000
0010
0000
0000
0000
0000
0000
0000
0000
0000
0000
0000
0000
0010
0000
0000
0000
0000
0000
0000
0000
0000
0000
0000
0000
0100
0000
0000
0000
0000
0000
0000
0000
0000
0000
0000
0000
M0M0
0000
0000
0000
0000
0000
0000
0000
0000
0000
0000
M0M0
,
F1F1
0000
0000
0000
0000
0000
0000
0000
0000
0000
0000
0000
M0M0
0000
0000
0000
0000
0000
0000
0000
0000
0000
0000
0000
0000
0000
0000
0000
0000
0000
0000
0000
0000
0000
0000
0000
0001
0000
0000
0000
0000
0000
0000
0000
0000
0000
0000
0000
0000
0000
0000
0000
0000
0000
0000
0000
0000
0000
0000
0000
0001
0000
0000
0000
0000
0000
0000
0000
0000
0000
0000
0000
0000
0000
0000
0000
0000
0000
0000
0000
0000
0000
0000
0000
0M0M
0000
0000
0000
0000
0000
0000
0000
0000
0000
0000
0M0M
1F1F
0000
0000
0000
0000
0000
0000
0000
0000
0000
0000
0000
0M0M
0000
0000
0000
0000
0000
0000
0000
0000
0000
0000
0000
0000
0000
0000
0000
0000
0000
0000
0000
0000
0000
0000
0000
1000
0000
0000
0000
0000
0000
0000
0000
0000
0000
0000
0000
0000
0000
0000
0000
0000
0000
0000
0000
0000
0000
0000
0000
1000
0000
0000
0000
0000
0000
0000
0000
0000
0000
0000
0000
0000
0000
0000
0000
0000
0000
0000
0000
0000
0000
0000
0000
M00M
0000
0000
0000
0000
0000
0000
0000
0000
0000
0000
M00M
,
F11F
0000
0000
0000
0000
0000
0000
0000
0000
0000
0000
0000
M00M
0000
0000
0000
0000
0000
0000
0000
0000
0000
0000
0000
0000
0000
0000
0000
0000
0000
0000
0000
0000
0000
0000
0000
0010
0000
0000
0000
0000
0000
0000
0000
0000
0000
0000
0000
0000
0000
0000
0000
0000
0000
0000
0000
0000
0000
0000
0000
0010
0000
0000
0000
0000
0000
0000
0000
0000
0000
0000
0000
0000
0000
0000
0000
0000
0000
0000
0000
0000
0000
0000
0000
00MM
0000
0000
0000
0000
0000
0000
0000
0000
0000
0000
00MM
11FF
0000
0000
0000
0000
0000
0000
0000
0000
0000
0000
0000
00MM
0000
0000
0000
0000
0000
0000
0000
0000
0000
0000
0000
0000
0000
0000
0000
0000
0000
0000
0000
0000
0000
0000
0000
0100
0000
0000
0000
0000
0000
0000
0000
0000
0000
0000
0000
0000
0000
0000
0000
0000
0000
0000
0000
0000
0000
0000
0000
0100
0000
0000
0000
0000
0000
0000
0000
0000
0000
0000
0000
0000
0000
0000
0000
0000
0000
0000
0000
0000
0000
0000
0000
M10M
0000
0000
0000
0000
0000
0000
0000
0000
0000
0000
M00M
,
F01F
0000
0000
0000
0000
0000
0000
0000
0000
0000
0000
0000
M00M
0000
0000
0000
0000
0000
0000
0000
0000
0000
0000
0000
0000
0000
0000
0000
0000
0000
0000
0000
0000
0000
0000
0000
0001
0000
0000
0000
0000
0000
0000
0000
0000
0000
0000
0000
0000
0000
0000
0000
0000
0000
0000
0000
0000
0000
0000
0000
0001
0000
0000
0000
0000
0000
0000
0000
0000
0000
0000
0000
0000
0000
0000
0000
0000
0000
0000
0000
0000
0000
0000
0000
0M0M
0000
0000
0000
0000
0000
0000
0000
0000
0000
0000
0M0M
1F1F
0000
0000
0000
0000
0000
0000
0000
0000
0000
0000
0000
0M0M
0000
0000
0000
0000
0000
0000
0000
0000
0000
0000
0000
0000
0000
0000
0000
0000
0000
0000
0000
0000
0000
0000
0000
0010
0000
0000
0000
0000
0000
0000
0000
0000
0000
0000
0000
0000
0000
0000
0000
0000
0000
0000
0000
0000
0000
0000
0000
0010
0000
0000
0000
0000
0000
0000
0000
0000
0000
0000
0000
0000
0000
0000
0000
0000
0000
0000
0000
0000
0000
0000
0000
M0M0
0000
0000
0000
0000
0000
0000
0000
0000
0000
0000
M0M0
,
F1F1
0000
0000
0000
0000
0000
0000
0000
0000
0000
0000
0000
M0M0
0000
0000
0000
0000
0000
0000
0000
0000
0000
0000
0000
0000
0000
0000
0000
0000
0000
0000
0000
0000
0000
0000
0000
0100
0000
0000
0000
0000
0000
0000
0000
0000
0000
0000
0000
0000
0000
0000
0000
0000
0000
0000
0000
0000
0000
0000
0000
0100
0000
0000
0000
0000
0000
0000
0000
0000
0000
0000
0000
0000
0000
0000
0000
0000
0000
0000
0000
0000
0000
0000
0000
0MM0
0000
0000
0000
0000
0000
0000
0000
0000
0000
0000
0MM0
1FF1
0000
0000
0000
0000
0000
0000
0000
0000
0000
0000
0000
0MM0
0000
0000
0000
0000
0000
0000
0000
0000
0000
0000
0000
0000
0000
0000
0000
0000
0000
0000
0000
0000
0000
0000
0000
1000
0000
0000
0000
0000
0000
0000
0000
0000
0000
0000
0000
0010
0000
0000
0000
0000
0000
0000
0000
0000
0000
0000
0000
0000
0000
0000
0000
0000
0000
0000
0000
0000
0000
0000
0000
0010
0000
0000
0000
0000
0000
0000
0000
0000
0000
0000
0000
0000
0000
0000
0000
0000
0000
0000
0000
0000
0000
0000
0000
,
0100
1000
0100
0001
1000
0010
0001
0010
,
0100
0001
1000
0100
0001
0100
0010
0001
,
1000
0100
0010
0100
1000
0001
0100
0001
0010
0100
0010
0001
1000
0010
0100
0010
,
1000
0000
0000
0000
0000
0000
0000
0000
0000
0000
0000
0000
0100
0000
0000
0000
0000
0000
0000
0000
0000
0000
0000
0000
0010
0000
0000
0000
0000
0000
0000
0000
0000
0000
0000
0000
0001
0000
0000
0000
0000
0000
0000
0000
0000
0000
0000
0000
1000
0000
0000
0000
0000
0000
0000
0000
0000
0000
0000
0000
0010
0000
0000
0000
0000
0000
0000
0000
0000
0000
0000
0000
0100
0000
0000
0000
0000
0000
0000
0000
0000
0000
0000
0000
0001
0000
0000
0000
0000
0000
0000
0000
0000
0000
0000
0000
0010
0000
0000
0000
0000
0000
0000
0000
0000
0000
0000
0000
0100
0000
0000
0000
0000
0000
0000
0000
0000
0000
0000
0000
1000
0000
0000
0000
0000
0000
0000
0000
0000
0000
0000
0000
0010
0000
0000
0000
0000
0000
0000
0000
0000
0000
0000
0000
0100
0000
0000
0000
0000
0000
0000
0000
0000
0000
0000
0000
0040
0000
0000
0000
0000
0000
0000
0000
0000
0000
0000
0000
0000
0000
0000
0000
0000
0000
0000
0000
0000
0000
0000
0000
0M3M
0000
0000
0000
0000
0000
0000
0000
0000
0000
0000
0M0M
,
1F1F
0M0M
1000
0010
1000
0000
1000
0001
1000
0000
10M0
0100
1000
0000
10M0
0001
,
1000
0000
00M1
0100
0001
0000
00M1
1000
0M01
0000
0001
0010
0001
0000
0001
1000
,
0M01
0000
0010
0100
M010
0000
M010
0001
0M10
0000
0M10
1000
0010
0000
001M
0100
,
0010
0000
010M
1000
0100
0000
010M
0010
M100
0000
0100
1000
0100
0000
0100
0000
,
101M
0000
0010
0100
0001
0000
1000
0100
0010
0000
010M
1000
0001
0000
M100
0010
,
1000
0000
010M
0010
0001
0000
M100
0001
M010
0000
0100
1000
0001
0000
1000
0010
,
010M
0000
0010
1000
010M
0000
M010
0001
1M00
0000
00M1
0100
0010
0000
100M
0100
,
0010
0000
0000
0000
0000
0000
0000
0000
0000
0000
0000
0000
0001
0000
0000
0000
0000
0000
0000
0000
0000
0000
0000
0000
M100
0000
0000
0000
0000
0000
0000
0000
0000
0000
0000
0000
0010
0000
0000
0000
0000
0000
0000
0000
0000
0000
0000
0000
0100
0000
0000
0000
0000
0000
0000
0000
0000
0000
0000
0000
0001
0000
0000
0000
0000
0000
0000
0000
0000
0000
0000
0000
M010
0000
0000
0000
0000
0000
0000
0000
0000
0000
0000
0000
0100
0000
0000
0000
0000
0000
0000
0000
0000
0000
0000
0000
100M
0000
0000
0000
0000
0000
0000
0000
0000
0000
0000
0000
0010
0000
0000
0000
0000
0000
0000
0000
0000
0000
0000
0000
0100
0000
0000
0000
0000
0000
0000
0000
0000
0000
0000
0000
0010
0000
0000
0000
0000
0000
0000
0000
0000
0000
0000
0000
1000
0000
0000
0000
0000
0000
0000
0000
0000
0000
0000
0000
0100
0000
0000
0000
0000
0000
0000
0000
0000
0000
0000
0000
0010
0000
0000
0000
0000
0000
0000
0000
0000
0000
0000
0000
010M
0000
0000
0000
0000
0000
0000
0000
0000
0000
0000
00MM
,
10FF
0000
0000
0000
0000
0000
0000
0000
0000
0000
0000
0000
00MM
0000
0000
0000
0000
0000
0000
0000
0000
0000
0000
0000
0000
0000
0000
0000
0000
0000
0000
0000
0000
0000
0000
0000
0010
0000
0000
0000
0000
0000
0000
0000
0000
0000
0000
0000
0000
0000
0000
0000
0000
0000
0000
0000
0000
0000
0000
0000
0010
0000
0000
0000
0000
0000
0000
0000
0000
0000
0000
0000
0000
0000
0000
0000
0000
0000
0000
0000
0000
0000
0000
0000
0MM0
0000
0000
0000
0000
0000
0000
0000
0000
0000
0000
0MM0
1FF1
0000
0000
0000
0000
0000
0000
0000
0000
0000
0000
0000
0MM0
0000
0000
0000
0000
0000
0000
0000
0000
0000
0000
0000
0000
0000
0000
0000
0000
0000
0000
0000
0000
0000
0000
0000
0100
0000
0000
0000
0000
0000
0000
0000
0000
0000
0000
0000
0000
0000
0000
0000
0000
0000
0000
0000
0000
0000
0000
0000
0100
0000
0000
0000
0000
0000
0000
0000
0000
0000
0000
0000
0000
0000
0000
0000
0000
0000
0000
0000
0000
0000
0000
0000
0MM0
0000
0000
0000
0000
0000
0000
0000
0000
0000
0000
0MM0
,
1FF1
0000
0000
0000
0000
0000
0000
0000
0000
0000
0000
0000
0MM0
0000
0000
0000
0000
0000
0000
0000
0000
0000
0000
0000
0000
0000
0000
0000
0000
0000
0000
0000
0000
0000
0000
0000
0001
0000
0000
0000
0000
0000
0000
0000
0000
0000
0000
0000
0000
0000
0000
0000
0000
0000
0000
0000
0000
0000
0000
0000
0001
0000
0000
0000
0000
0000
0000
0000
0000
0000
0000
0000
0000
0000
0000
0000
0000
0000
0000
0000
0000
0000
0000
0000
0M0M
0000
0000
0000
0000
0000
0000
0000
0000
0000
0000
0M0M
1F1F
0000
0000
0000
0000
0000
0000
0000
0000
0000
0000
0000
0M0M
0000
0000
0000
0000
0000
0000
0000
0000
0000
0000
0000
0000
0000
0000
0000
0000
0000
0000
0000
0000
0000
0000
0000
0010
0000
0000
0000
0000
0000
0000
0000
0000
0000
0000
0000
0000
0000
0000
0000
0000
0000
0000
0000
0000
0000
0000
0000
0010
0000
0000
0000
0000
0000
0000
0000
0000
0000
0000
0000
0000
0000
0000
0000
0000
0000
0000
0000
0000
0000
0000
0000
M01M
0000
0000
0000
0000
0000
0000
0000
0000
0000
0000
M00M
,
F10F
0000
0000
0000
0000
0000
0000
0000
0000
0000
0000
0000
M00M
0000
0000
0000
0000
0000
0000
0000
0000
0000
0000
0000
0000
0000
0000
0000
0000
0000
0000
0000
0000
0000
0000
0000
0001
0000
0000
0000
0000
0000
0000
0000
0000
0000
0000
0000
0000
0000
0000
0000
0000
0000
0000
0000
0000
0000
0000
0000
0001
0000
0000
0000
0000
0000
0000
0000
0000
0000
0000
0000
0000
0000
0000
0000
0000
0000
0000
0000
0000
0000
0000
0000
00MM
0000
0000
0000
0000
0000
0000
0000
0000
0000
0000
00MM
11FF
0000
0000
0000
0000
0000
0000
0000
0000
0000
0000
0000
00MM
0000
0000
0000
0000
0000
0000
0000
0000
0000
0000
0000
0000
0000
0000
0000
0000
0000
0000
0000
0000
0000
0000
0000
0001
0000
0000
0000
0000
0000
0000
0000
0000
0000
0000
0000
0000
0000
0000
0000
0000
0000
0000
0000
0000
0000
0000
0000
0001
0000
0000
0000
0000
0000
0000
0000
0000
0000
0000
0000
0000
0000
0000
0000
0000
0000
0000
0000
0000
0000
0000
0000
0M0M
0000
0000
0000
0000
0000
0000
0000
0000
0000
0000
0M0M
,
1F1F
0000
0000
0000
0000
0000
0000
0000
0000
0000
0000
0000
0M0M
0000
0000
0000
0000
0000
0000
0000
0000
0000
0000
0000
0000
0000
0000
0000
0000
0000
0000
0000
0000
0000
0000
0000
0100
0000
0000
0000
0000
0000
0000
0000
0000
0000
0000
0000
0000
0000
0000
0000
0000
0000
0000
0000
0000
0000
0000
0000
0100
0000
0000
0000
0000
0000
0000
0000
0000
0000
0000
0000
0000
0000
0000
0000
0000
0000
0000
0000
0000
0000
0000
0000
0MM0
0000
0000
0000
0000
0000
0000
0000
0000
0000
0000
0MM0
1FF1
0000
0000
0000
0000
0000
0000
0000
0000
0000
0000
0000
0MM0
0000
0000
0000
0000
0000
0000
0000
0000
0000
0000
0000
0000
0000
0000
0000
0000
0000
0000
0000
0000
0000
0000
0000
0001
0000
0000
0000
0000
0000
0000
0000
0000
0000
0000
0000
1000
0000
0000
0000
0000
0000
0000
0000
0000
0000
0000
0000
0000
0000
0000
0000
0000
0000
0000
0000
0000
0000
0000
0000
1000
0000
0000
0000
0000
0000
0000
0000
0000
0000
0000
0000
00M0
0000
0000
0000
0000
0000
0000
0000
0000
0000
0000
00M0
,
01F1
0000
0000
0000
0000
0000
0000
0000
0000
0000
0000
0000
00M0
0000
0000
0000
0000
0000
0000
0000
0000
0000
0000
0000
0000
0000
0000
0000
0000
0000
0000
0000
0000
0000
0000
0000
0010
0000
0000
0000
0000
0000
0000
0000
0000
0000
0000
0000
0000
0000
0000
0000
0000
0000
0000
0000
0000
0000
0000
0000
0010
0000
0000
0000
0000
0000
0000
0000
0000
0000
0000
0000
0000
0000
0000
0000
0000
0000
0000
0000
0000
0000
0000
0000
0MM0
0000
0000
0000
0000
0000
0000
0000
0000
0000
0000
0MM0
1FF1
0000
0000
0000
0000
0000
0000
0000
0000
0000
0000
0000
0MM0
0000
0000
0000
0000
0000
0000
0000
0000
0000
0000
0000
0000
0000
0000
0000
0000
0000
0000
0000
0000
0000
0000
0000
0100
0000
0000
0000
0000
0000
0000
0000
0000
0000
0000
0000
0000
0000
0000
0000
0000
0000
0000
0000
0000
0000
0000
0000
0100
0000
0000
0000
0000
0000
0000
0000
0000
0000
0000
0000
0000
0000
0000
0000
0000
0000
0000
0000
0000
0000
0000
0000
0MM0
0000
0000
0000
0000
0000
0000
0000
0000
0000
0000
0MM0
,
1FF1
0000
0000
0000
0000
0000
0000
0000
0000
0000
0000
0000
0MM0
0000
0000
0000
0000
0000
0000
0000
0000
0000
0000
0000
0000
0000
0000
0000
0000
0000
0000
0000
0000
0000
0000
0000
0001
0000
0000
0000
0000
0000
0000
0000
0000
0000
0000
0000
0000
0000
0000
0000
0000
0000
0000
0000
0000
0000
0000
0000
0001
0000
0000
0000
0000
0000
0000
0000
0000
0000
0000
0000
0000
0000
0000
0000
0000
0000
0000
0000
0000
0000
0000
0000
00MM
0000
0000
0000
0000
0000
0000
0000
0000
0000
0000
00MM
11FF
0000
0000
0000
0000
0000
0000
0000
0000
0000
0000
0000
00MM
0000
0000
0000
0000
0000
0000
0000
0000
0000
0000
0000
0000
0000
0000
0000
0000
0000
0000
0000
0000
0000
0000
0000
0100
0000
0000
0000
0000
0000
0000
0000
0000
0000
0000
0000
0000
0000
0000
0000
0000
0000
0000
0000
0000
0000
0000
0000
0100
0000
0000
0000
0000
0000
0000
0000
0000
0000
0000
0000
0000
0000
0000
0000
0000
0000
0000
0000
0000
0000
0000
0000
M10M
0000
0000
0000
0000
0000
0000
0000
0000
0000
0000
M00M
,
F01F
0000
0000
0000
0000
0000
0000
0000
0000
0000
0000
0000
M00M
0000
0000
0000
0000
0000
0000
0000
0000
0000
0000
0000
0000
0000
0000
0000
0000
0000
0000
0000
0000
0000
0000
0000
0001
0000
0000
0000
0000
0000
0000
0000
0000
0000
0000
0000
0000
0000
0000
0000
0000
0000
0000
0000
0000
0000
0000
0000
0001
0000
0000
0000
0000
0000
0000
0000
0000
0000
0000
0000
0000
0000
0000
0000
0000
0000
0000
0000
0000
0000
0000
0000
0M0M
0000
0000
0000
0000
0000
0000
0000
0000
0000
0000
0M0M
1F1F
0000
0000
0000
0000
0000
0000
0000
0000
0000
0000
0000
0M0M
0000
0000
0000
0000
0000
0000
0000
0000
0000
0000
0000
0000
0000
0000
0000
0000
0000
0000
0000
0000
0000
0000
0000
0001
0000
0000
0000
0000
0000
0000
0000
0000
0000
0000
0000
0000
0000
0000
0000
0000
0000
0000
0000
0000
0000
0000
0000
0001
0000
0000
0000
0000
0000
0000
0000
0000
0000
0000
0000
0000
0000
0000
0000
0000
0000
0000
0000
0000
0000
0000
0000
0000
0000
0000
0000
0000
0000
0000
0000
0000
0000
0000
0000
,
1000
0100
0010
0001
0100
0010
0100
0001
0010
0100
1000
0010
0100
0001
0010
0100
,
2000
3010
0100
1000
0100
0002
1003
0010
,
0100
0020
1030
0100
0001
0100
1000
0001
,
0200
0310
0001
0010
1000
0002
0103
0020
,
1030
0100
0010
0100
0001
0100
1000
0010
,
0200
0301
0010
0100
0001
0200
1300
0010
,
0100
2000
3100
0001
1000
0010
0100
0001
,
0020
0130
1000
0010
0001
0020
0130
0002
,
1003
0000
0100
0000
0010
0000
1000
0000
0010
0000
0001
0000
0100
0100
0010
0000
,
2010
0000
3100
0000
0011
0201
0301
0000
,
1100
0000
0000
0000
0000
0000
0000
0000
0000
0000
0000
0000
0000
0000
0000
0000
0000
0000
0000
0000
0000
0000
0000
0000
2001
0000
0000
0000
0000
0000
0000
0000
0000
0000
0000
0000
0MM0
0000
0000
0000
0000
0000
0000
0000
0000
0000
0000
0MM0
0FF1
0000
0000
0000
0000
0000
0000
0000
0000
0000
0000
0000
0MM0
0000
0000
0000
0000
0000
0000
0000
0000
0000
0000
0000
0000
0000
0000
0000
0000
0000
0000
0000
0000
0000
0000
0000
0M0M
0000
0000
0000
0000
0000
0000
0000
0000
0000
0000
0M0M
0F1F
0000
0000
0000
0000
0000
0000
0000
0000
0000
0000
0000
0M0M
0000
0000
0000
0000
0000
0000
0000
0000
0000
0000
0000
0000
0000
0000
0000
0000
0000
0000
0000
0000
0000
0000
0000
0MM0
0000
0000
0000
0000
0000
0000
0000
0000
0000
0000
0MM0
3FF1
0000
0000
0000
0000
0000
0000
0000
0000
0000
0000
0000
0M00
0000
0000
0000
0000
0000
0000
0000
0000
0000
0000
0000
0010
0000
0000
0000
0000
0000
0000
0000
0000
0000
0000
0000
0000
0000
0000
0000
0000
0000
0000
0000
0000
0000
0000
0000
,
0120
0000
0000
0000
0000
0000
0000
0000
0000
0000
0000
0000
0000
0000
0000
0000
0000
0000
0000
0000
0000
0000
0000
0000
0030
0000
0000
0000
0000
0000
0000
0000
0000
0000
0000
0000
0000
0000
0000
0000
0000
0000
0000
0000
0000
0000
0000
0000
1002
0000
0000
0000
0000
0000
0000
0000
0000
0000
0000
0000
0000
0000
0000
0000
0000
0000
0000
0000
0000
0000
0000
0000
0003
0000
0000
0000
0000
0000
0000
0000
0000
0000
0000
0000
0000
0000
0000
0000
0000
0000
0000
0000
0000
0000
0000
0000
0110
0000
0000
0000
0000
0000
0000
0000
0000
0000
0000
0000
0000
0000
0000
0000
0000
0000
0000
0000
0000
0000
0000
0000
1001
0000
0000
0000
0000
0000
0000
0000
0000
0000
0000
0000
0000
0000
0000
0000
0000
0000
0000
0000
0000
0000
0000
0000
0001
0000
0000
0000
0000
0000
0000
0000
0000
0000
0000
0000
0000
0000
0000
0000
0000
0000
0000
0000
0000
0000
0000
0000
0021
0000
0000
0000
0000
0000
0000
0000
0000
0000
0000
0000
MM00
0000
0000
0000
0000
0000
0000
0000
0000
0000
0000
MM00
,
FF01
0000
0000
0000
0000
0000
0000
0000
0000
0000
0000
0000
MM00
0000
0000
0000
0000
0000
0000
0000
0000
0000
0000
0000
0000
0000
0000
0000
0000
0000
0000
0000
0000
0000
0000
0000
M00M
0000
0000
0000
0000
0000
0000
0000
0000
0000
0000
M00M
F10F
0000
0000
0000
0000
0000
0000
0000
0000
0000
0000
0000
M00M
0000
0000
0000
0000
0000
0000
0000
0000
0000
0000
0000
0000
0000
0000
0000
0000
0000
0000
0000
0000
0000
0000
0000
MM00
0000
0000
0000
0000
0000
0000
0000
0000
0000
0000
MM00
FF31
0000
0000
0000
0000
0000
0000
0000
0000
0000
0000
0000
MM00
0000
0000
0000
0000
0000
0000
0000
0000
0000
0000
0000
0000
0000
0000
0000
0000
0000
0000
0000
0000
0000
0000
0000
0001
0000
0000
0000
0000
0000
0000
0000
0000
0000
0000
0000
0010
0000
0000
0000
0000
0000
0000
0000
0000
0000
0000
0000
0000
0000
0000
0000
0000
0000
0000
0000
0000
0000
0000
0000
0010
0000
0000
0000
0000
0000
0000
0000
0000
0000
0000
0000
0000
0000
0000
0000
0000
0000
0000
0000
0000
0000
0000
0000
,
0012
0000
0103
0000
1010
1200
1300
0000
,
0101
0000
0000
0000
0000
0000
0000
0000
0000
0000
0000
0000
0000
0000
0000
0000
0000
0000
0000
0000
0000
0000
0000
0000
1002
0000
0000
0000
0000
0000
0000
0000
0000
0000
0000
0000
0MM0
0000
0000
0000
0000
0000
0000
0000
0000
0000
0000
0MM0
1FF0
0000
0000
0000
0000
0000
0000
0000
0000
0000
0000
0000
0MM0
0000
0000
0000
0000
0000
0000
0000
0000
0000
0000
0000
0000
0000
0000
0000
0000
0000
0000
0000
0000
0000
0000
0000
MM00
0000
0000
0000
0000
0000
0000
0000
0000
0000
0000
MM00
FF10
0000
0000
0000
0000
0000
0000
0000
0000
0000
0000
0000
MM00
0000
0000
0000
0000
0000
0000
0000
0000
0000
0000
0000
0000
0000
0000
0000
0000
0000
0000
0000
0000
0000
0000
0000
0MM0
0000
0000
0000
0000
0000
0000
0000
0000
0000
0000
0MM0
1FF3
0000
0000
0000
0000
0000
0000
0000
0000
0000
0000
0000
0M00
0000
0000
0000
0000
0000
0000
0000
0000
0000
0000
0000
0010
0000
0000
0000
0000
0000
0000
0000
0000
0000
0000
0000
0000
0000
0000
0000
0000
0000
0000
0000
0000
0000
0000
0000
,
0120
0000
0000
0000
0000
0000
0000
0000
0000
0000
0000
0000
0000
0000
0000
0000
0000
0000
0000
0000
0000
0000
0000
0000
0030
0000
0000
0000
0000
0000
0000
0000
0000
0000
0000
0000
0000
0000
0000
0000
0000
0000
0000
0000
0000
0000
0000
0000
2001
0000
0000
0000
0000
0000
0000
0000
0000
0000
0000
0000
0000
0000
0000
0000
0000
0000
0000
0000
0000
0000
0000
0000
3000
0000
0000
0000
0000
0000
0000
0000
0000
0000
0000
0000
0000
0000
0000
0000
0000
0000
0000
0000
0000
0000
0000
0000
0110
0000
0000
0000
0000
0000
0000
0000
0000
0000
0000
0000
0000
0000
0000
0000
0000
0000
0000
0000
0000
0000
0000
0000
1001
0000
0000
0000
0000
0000
0000
0000
0000
0000
0000
0000
0000
0000
0000
0000
0000
0000
0000
0000
0000
0000
0000
0000
1000
0000
0000
0000
0000
0000
0000
0000
0000
0000
0000
0000
0000
0000
0000
0000
0000
0000
0000
0000
0000
0000
0000
0000
1020
0000
0000
0000
0000
0000
0000
0000
0000
0000
0000
0000
0M0M
0000
0000
0000
0000
0000
0000
0000
0000
0000
0000
0M0M
,
1F0F
0000
0000
0000
0000
0000
0000
0000
0000
0000
0000
0000
0M0M
0000
0000
0000
0000
0000
0000
0000
0000
0000
0000
0000
0000
0000
0000
0000
0000
0000
0000
0000
0000
0000
0000
0000
M00M
0000
0000
0000
0000
0000
0000
0000
0000
0000
0000
M00M
F10F
0000
0000
0000
0000
0000
0000
0000
0000
0000
0000
0000
M00M
0000
0000
0000
0000
0000
0000
0000
0000
0000
0000
0000
0000
0000
0000
0000
0000
0000
0000
0000
0000
0000
0000
0000
0M0M
0000
0000
0000
0000
0000
0000
0000
0000
0000
0000
0M0M
1F3F
0000
0000
0000
0000
0000
0000
0000
0000
0000
0000
0000
0M0M
0000
0000
0000
0000
0000
0000
0000
0000
0000
0000
0000
0000
0000
0000
0000
0000
0000
0000
0000
0000
0000
0000
0000
1000
0000
0000
0000
0000
0000
0000
0000
0000
0000
0000
0000
0001
0000
0000
0000
0000
0000
0000
0000
0000
0000
0000
0000
0001
0000
0000
0000
0000
0000
0000
0000
0000
0000
0000
0000
0010
0000
0000
0000
0000
0000
0000
0000
0000
0000
0000
0000
M000
0000
0000
0000
0000
0000
0000
0000
0000
0000
0000
M000
,
F101
0000
0000
0000
0000
0000
0000
0000
0000
0000
0000
0000
M000
0000
0000
0000
0000
0000
0000
0000
0000
0000
0000
0000
0000
0000
0000
0000
0000
0000
0000
0000
0000
0000
0000
0000
0001
0000
0000
0000
0000
0000
0000
0000
0000
0000
0000
0000
0000
0000
0000
0000
0000
0000
0000
0000
0000
0000
0000
0000
0001
0000
0000
0000
0000
0000
0000
0000
0000
0000
0000
0000
0000
0000
0000
0000
0000
0000
0000
0000
0000
0000
0000
0000
0M0M
0000
0000
0000
0000
0000
0000
0000
0000
0000
0000
0M0M
1F1F
0000
0000
0000
0000
0000
0000
0000
0000
0000
0000
0000
0M0M
0000
0000
0000
0000
0000
0000
0000
0000
0000
0000
0000
0000
0000
0000
0000
0000
0000
0000
0000
0000
0000
0000
0000
1000
0000
0000
0000
0000
0000
0000
0000
0000
0000
0000
0000
0000
0000
0000
0000
0000
0000
0000
0000
0000
0000
0000
0000
1000
0000
0000
0000
0000
0000
0000
0000
0000
0000
0000
0000
0000
0000
0000
0000
0000
0000
0000
0000
0000
0000
0000
0000
M00M
0000
0000
0000
0000
0000
0000
0000
0000
0000
0000
M00M
,
F11F
0000
0000
0000
0000
0000
0000
0000
0000
0000
0000
0000
M00M
0000
0000
0000
0000
0000
0000
0000
0000
0000
0000
0000
0000
0000
0000
0000
0000
0000
0000
0000
0000
0000
0000
0000
0010
0000
0000
0000
0000
0000
0000
0000
0000
0000
0000
0000
0000
0000
0000
0000
0000
0000
0000
0000
0000
0000
0000
0000
0010
0000
0000
0000
0000
0000
0000
0000
0000
0000
0000
0000
0000
0000
0000
0000
0000
0000
0000
0000
0000
0000
0000
0000
M0M0
0000
0000
0000
0000
0000
0000
0000
0000
0000
0000
M0M0
F1F1
0000
0000
0000
0000
0000
0000
0000
0000
0000
0000
0000
M0M0
0000
0000
0000
0000
0000
0000
0000
0000
0000
0000
0000
0000
0000
0000
0000
0000
0000
0000
0000
0000
0000
0000
0000
0100
0000
0000
0000
0000
0000
0000
0000
0000
0000
0000
0000
0000
0000
0000
0000
0000
0000
0000
0000
0000
0000
0000
0000
0100
0000
0000
0000
0000
0000
0000
0000
0000
0000
0000
0000
0000
0000
0000
0000
0000
0000
0000
0000
0000
0000
0000
0000
M10M
0000
0000
0000
0000
0000
0000
0000
0000
0000
0000
M00M
,
F01F
0000
0000
0000
0000
0000
0000
0000
0000
0000
0000
0000
M00M
0000
0000
0000
0000
0000
0000
0000
0000
0000
0000
0000
0000
0000
0000
0000
0000
0000
0000
0000
0000
0000
0000
0000
1000
0000
0000
0000
0000
0000
0000
0000
0000
0000
0000
0000
0000
0000
0000
0000
0000
0000
0000
0000
0000
0000
0000
0000
1000
0000
0000
0000
0000
0000
0000
0000
0000
0000
0000
0000
0000
0000
0000
0000
0000
0000
0000
0000
0000
0000
0000
0000
MM00
0000
0000
0000
0000
0000
0000
0000
0000
0000
0000
MM00
FF11
0000
0000
0000
0000
0000
0000
0000
0000
0000
0000
0000
MM00
0000
0000
0000
0000
0000
0000
0000
0000
0000
0000
0000
0000
0000
0000
0000
0000
0000
0000
0000
0000
0000
0000
0000
0010
0000
0000
0000
0000
0000
0000
0000
0000
0000
0000
0000
0000
0000
0000
0000
0000
0000
0000
0000
0000
0000
0000
0000
0010
0000
0000
0000
0000
0000
0000
0000
0000
0000
0000
0000
0000
0000
0000
0000
0000
0000
0000
0000
0000
0000
0000
0000
00MM
0000
0000
0000
0000
0000
0000
0000
0000
0000
0000
00MM
,
11FF
0000
0000
0000
0000
0000
0000
0000
0000
0000
0000
0000
00MM
0000
0000
0000
0000
0000
0000
0000
0000
0000
0000
0000
0000
0000
0000
0000
0000
0000
0000
0000
0000
0000
0000
0000
0100
0000
0000
0000
0000
0000
0000
0000
0000
0000
0000
0000
0000
0000
0000
0000
0000
0000
0000
0000
0000
0000
0000
0000
0100
0000
0000
0000
0000
0000
0000
0000
0000
0000
0000
0000
0000
0000
0000
0000
0000
0000
0000
0000
0000
0000
0000
0000
0MM0
0000
0000
0000
0000
0000
0000
0000
0000
0000
0000
0MM0
1FF1
0000
0000
0000
0000
0000
0000
0000
0000
0000
0000
0000
0MM0
0000
0000
0000
0000
0000
0000
0000
0000
0000
0000
0000
0000
0000
0000
0000
0000
0000
0000
0000
0000
0000
0000
0000
0001
0000
0000
0000
0000
0000
0000
0000
0000
0000
0000
0000
0010
0000
0000
0000
0000
0000
0000
0000
0000
0000
0000
0000
0000
0000
0000
0000
0000
0000
0000
0000
0000
0000
0000
0000
0010
0000
0000
0000
0000
0000
0000
0000
0000
0000
0000
0000
0000
0000
0000
0000
0000
0000
0000
0000
0000
0000
0000
0000
,
0100
0001
0100
1000
0001
0010
1000
0010
,
0100
1000
0001
0100
1000
0100
0010
1000
,
0001
0100
0010
0100
0001
1000
0100
1000
0010
0100
0010
1000
0001
0010
0100
0010
,
0001
0100
0010
1000
0001
0010
0100
1000
0010
0100
0001
0010
0100
0040
0000
0000
,
0031
0000
0000
0000
,
0M00
0M00
0M00
0M00
,
0M00
0M00
0M00
0000
;
