#VERSION:0.83;
#TITLE:Future Alien Song;
#SUBTITLE:;
#ARTIST:Correy Morales;
#TITLETRANSLIT:;
#SUBTITLETRANSLIT:;
#ARTISTTRANSLIT:;
#GENRE:;
#ORIGIN:;
#CREDIT:;
#BANNER:futurealien-banner.png;
#BACKGROUND:futurealien-bg.png;
#PREVIEWVID:;
#JACKET:;
#CDIMAGE:;
#DISCIMAGE:futurealien-chartdesigner.png;
#LYRICSPATH:;
#CDTITLE:;
#MUSIC:Future Alien Song - 224 Bpm.ogg;
#OFFSET:0.002000;
#SAMPLESTART:51.426998;
#SAMPLELENGTH:12.000000;
#SELECTABLE:YES;
#BPMS:0.000=224.000;
#STOPS:;
#DELAYS:;
#WARPS:;
#TIMESIGNATURES:0.000=4=4;
#TICKCOUNTS:0.000=4;
#COMBOS:0.000=1;
#SPEEDS:0.000=1.000=0.000=0;
#SCROLLS:0.000=1.000;
#FAKES:;
#LABELS:0.000=Song Start;
#BGCHANGES:;
#KEYSOUNDS:;
#ATTACKS:
;

//---------------dance-single - ----------------
#NOTEDATA:;
#CHARTNAME:Alien Visit;
#STEPSTYPE:dance-single;
#DESCRIPTION:;
#CHARTSTYLE:;
#DIFFICULTY:Medium;
#METER:7;
#RADARVALUES:0.360443,0.414756,0.000000,0.380193,0.000000,219.000000,219.000000,0.000000,33.000000,0.000000,0.000000,0.000000,0.000000,0.000000,0.360443,0.414756,0.000000,0.380193,0.000000,219.000000,219.000000,0.000000,33.000000,0.000000,0.000000,0.000000,0.000000,0.000000;
#CREDIT:Patrick Lake;
#NOTES:
0000
0000
0000
0000
,
0000
0000
0000
0000
,
0000
0000
0000
0000
,
0000
0000
0000
0000
,
0002
0000
0000
0000
,
0000
0000
0000
0000
,
0023
0000
0000
0000
,
0000
0000
0000
0000
,
0032
0000
0000
0000
,
0000
0000
0000
0000
,
0203
0000
0000
0000
,
0000
0000
0000
0000
,
0320
0000
0000
0000
,
0000
0000
0000
0000
,
2030
0000
0000
0000
,
0000
0000
0000
0000
,
3002
0000
0103
0010
,
1000
0010
0100
0000
,
0002
0000
0013
0100
,
1000
0100
0010
0000
,
0002
0000
0103
0010
,
1000
0100
1000
0000
,
0002
0000
1003
0100
,
0010
0100
1000
0000
,
0002
0000
0103
0010
,
0100
0001
0010
0000
,
0002
0000
1003
0100
,
0010
0001
0100
0000
,
0002
0000
1003
0010
,
0100
0001
1000
0000
,
0002
0000
0103
0010
,
1000
0100
1000
0000
,
0001
1000
0001
1000
,
0010
0100
0001
0000
,
1000
0001
1000
0001
,
0100
0010
1000
0000
,
0001
1000
0001
1000
,
0001
0100
0010
0100
,
0001
1000
0001
0010
,
0100
0000
0000
1000
0000
0000
0001
0000
,
1000
0001
1000
0001
,
0200
0320
2030
3100
,
0010
0001
0010
0001
,
2000
3200
0320
0130
,
1000
0001
1000
0001
,
1000
0020
0130
0010
,
1000
0001
2000
3200
,
0320
0000
0032
0003
1000
0000
0100
0000
,
1000
0010
1000
0001
,
0100
0001
0010
0001
,
1000
0001
1000
0100
,
0010
0100
1000
0001
,
1000
0100
0010
0100
,
1000
0001
0100
0010
,
1000
0001
1000
0010
,
1000
0100
0010
0001
,
1000
0001
1000
0001
,
1000
0001
1000
0001
,
0010
0100
0010
0100
,
0010
0100
0010
0100
,
1000
0100
0010
0001
,
1000
0010
0100
0001
,
0100
0010
1000
0001
,
0010
0100
0010
0001
,
0010
0100
1000
0001
,
0100
0010
1000
0100
,
1000
0010
0100
0001
,
1000
0010
0100
0010
,
1000
0001
0100
0010
,
1000
0100
1000
0010
,
0100
0001
1000
0100
,
0010
0001
1000
0010
,
0200
0000
0000
0000
,
0320
0000
0000
0000
,
2030
0000
0000
0000
,
3002
0000
0000
0000
,
0023
0000
0000
0000
,
0230
0000
0000
0000
,
2300
0000
0000
0000
,
3002
0000
0000
0000
,
0003
0000
0000
0000
;

//---------------dance-single - ----------------
#NOTEDATA:;
#CHARTNAME:Alien Attack;
#STEPSTYPE:dance-single;
#DESCRIPTION:;
#CHARTSTYLE:;
#DIFFICULTY:Hard;
#METER:8;
#RADARVALUES:0.480590,0.645176,0.046084,0.322588,0.000000,292.000000,288.000000,4.000000,28.000000,0.000000,0.000000,8.000000,0.000000,0.000000,0.480590,0.645176,0.046084,0.322588,0.000000,292.000000,288.000000,4.000000,28.000000,0.000000,0.000000,8.000000,0.000000,0.000000;
#CREDIT:Patrick Lake;
#OFFSET:0.002000;
#BPMS:0.000000=224.000000
;
#STOPS:;
#DELAYS:;
#WARPS:;
#TIMESIGNATURES:0.000000=4=4
;
#TICKCOUNTS:0.000000=4
;
#COMBOS:0.000000=1
;
#SPEEDS:0.000000=0.250000=0.000000=0
,30.000000=0.500000=2.000000=0
,126.000000=1.000000=2.000000=0
,158.000000=0.500000=2.000000=0
,190.000000=1.000000=2.000000=0
,287.000000=0.500000=1.500000=0
,288.500000=1.500000=2.000000=0
,290.500000=0.500000=2.000000=0
,292.500000=1.500000=2.000000=0
,294.500000=0.500000=2.000000=0
,296.500000=1.500000=2.000000=0
,298.500000=0.500000=2.000000=0
,300.500000=1.500000=2.000000=0
,302.500000=0.500000=2.500000=0
,305.000000=1.500000=2.750000=0
,307.750000=0.500000=2.750000=0
,310.500000=1.500000=2.000000=0
,312.500000=0.500000=2.000000=0
,314.500000=1.500000=2.000000=0
,316.500000=0.500000=2.000000=0
,318.500000=1.500000=2.000000=0
;
#SCROLLS:0.000000=1.000000
;
#FAKES:;
#LABELS:0.000000=Song Start
;
#NOTES:
0000
0000
0000
0000
,
0000
0000
0000
0000
,
0000
0000
0000
0000
,
0000
0000
0000
0000
,
2000
0000
0000
0000
,
0000
0000
0000
0000
,
3020
0000
0000
0000
,
0000
0000
0000
0000
,
2030
0000
0000
0000
,
0000
0000
0000
0000
,
3200
0000
0000
0000
,
0000
0000
0000
0000
,
0320
0000
0000
0000
,
0000
0000
0000
0000
,
0032
0000
0000
0000
,
0000
0000
0000
0000
,
2003
0000
3100
0010
,
0001
0010
0100
0000
,
2000
0000
3010
0100
,
0001
0100
0010
0000
,
2000
0000
3100
0010
,
0001
0100
0001
0000
,
2000
0000
3001
0100
,
0010
0100
0001
0000
,
2001
0000
3100
0010
,
0001
0010
0100
0000
,
2001
0000
3010
0100
,
0010
1000
0001
0000
,
2001
0000
3100
0010
,
0001
0100
0001
0000
,
2010
0000
3001
0010
,
0100
0010
0001
0000
,
1000
0010
0100
0001
1000
0010
0100
0001
,
0010
0100
1000
0010
,
1000
0100
0010
0001
1000
0100
0010
0001
,
0010
0100
1000
0001
,
1000
0010
0200
0301
1000
0010
0200
0301
,
1000
0010
0100
0010
,
1000
0100
0020
0031
1000
0100
0020
0031
,
0100
0000
0010
1000
0000
0001
1000
0000
,
0001
1000
0001
1000
,
0200
0320
0032
0103
,
0010
1000
0010
1000
,
0002
0203
0320
0130
,
0001
1000
0001
1000
,
0001
0020
0130
0010
,
0001
1000
0002
0203
,
0320
0000
1030
0100
0000
0010
0100
0000
,
1000
0001
0010
0001
0100
0000
0010
0000
,
1000
0100
1000
0001
0010
0000
0001
0000
,
1000
0010
0100
0001
1000
0000
0010
0000
,
1000
0100
0010
0001
1000
0000
0100
0000
,
1000
0010
1000
0001
0100
0000
0001
0000
,
1000
0010
1000
0100
0010
0000
0001
0000
,
1000
0001
0100
0010
1000
0000
0100
0000
,
0010
0100
1000
0001
0100
0000
0010
0000
,
1000
0100
0010
0001
0100
0000
0001
0000
,
0100
0010
1000
0100
1000
0000
0001
0000
,
1000
0100
0010
0100
1000
0000
0010
0000
,
0100
0001
0100
0010
0100
0000
0001
0000
,
1000
0010
1000
0100
0010
0000
0001
0000
,
0100
0010
0100
0001
0010
0000
0100
0000
,
1000
0001
1000
0010
0100
0000
0010
0000
,
1000
0001
0010
0100
0010
0000
0001
0000
,
1000
0001
0010
0000
0100
1000
0001
0000
,
0100
0010
0100
0000
0001
1000
0001
0000
,
0010
0001
1000
0000
0100
1000
0001
0000
,
1000
0010
0100
0000
0001
0100
0010
0000
,
1000
0001
1000
0000
0100
0010
0100
0000
,
1000
0010
1000
0000
0001
0100
0001
0000
,
1000
0001
0010
0000
0001
1000
0100
0000
,
1000
0001
1000
0000
0010
0100
0001
0000
,
0400
0000
0000
0000
,
0340
0000
0000
0000
,
4030
0000
0000
0000
,
3004
0000
0000
0000
,
0043
0000
0000
0000
,
0430
0000
0000
0000
,
4300
0000
0000
0000
,
3400
0000
0000
0000
,
0300
0000
0000
0000
;

//---------------dance-single - ----------------
#NOTEDATA:;
#CHARTNAME:Alien Invasion;
#STEPSTYPE:dance-single;
#DESCRIPTION:;
#CHARTSTYLE:;
#DIFFICULTY:Challenge;
#METER:9;
#RADARVALUES:0.585925,1.152100,0.046084,0.288025,0.092168,356.000000,352.000000,4.000000,25.000000,0.000000,0.000000,16.000000,0.000000,0.000000,0.585925,1.152100,0.046084,0.288025,0.092168,356.000000,352.000000,4.000000,25.000000,0.000000,0.000000,16.000000,0.000000,0.000000;
#CREDIT:Patrick Lake;
#OFFSET:0.002000;
#BPMS:0.000000=224.000000
;
#STOPS:;
#DELAYS:;
#WARPS:;
#TIMESIGNATURES:0.000000=4=4
;
#TICKCOUNTS:0.000000=4
;
#COMBOS:0.000000=1
;
#SPEEDS:0.000000=0.250000=0.000000=0
,30.000000=0.500000=2.000000=0
,126.000000=1.000000=2.000000=0
,158.000000=0.500000=2.000000=0
,190.000000=1.000000=2.000000=0
,287.000000=0.500000=1.500000=0
,288.500000=1.500000=2.000000=0
,290.500000=0.500000=2.000000=0
,292.500000=1.500000=2.000000=0
,294.500000=0.500000=2.000000=0
,296.500000=1.500000=2.000000=0
,298.500000=0.500000=2.000000=0
,300.500000=1.500000=2.000000=0
,302.500000=0.500000=2.500000=0
,305.000000=1.500000=2.750000=0
,307.750000=0.500000=2.750000=0
,310.500000=1.500000=2.000000=0
,312.500000=0.500000=2.000000=0
,314.500000=1.500000=2.000000=0
,316.500000=0.500000=2.000000=0
,318.500000=1.500000=2.000000=0
;
#SCROLLS:0.000000=1.000000
;
#FAKES:;
#LABELS:0.000000=Song Start
;
#NOTES:
0000
0000
0000
0000
,
0000
0000
0000
0000
,
0000
0000
0000
0000
,
0000
0000
0000
0000
,
2000
0000
0000
0000
,
0000
0000
0000
0000
,
3020
0000
0000
0000
,
0000
0000
0000
0000
,
2030
0000
0000
0000
,
0000
0000
0000
0000
,
3200
0000
0000
0000
,
0000
0000
0000
0000
,
0320
0000
0000
0000
,
0000
0000
0000
0000
,
0032
0000
0000
0000
,
0000
0000
0000
0000
,
2003
0000
3100
0010
,
0001
0010
0100
0000
,
2000
0000
3010
0100
,
0001
0100
0010
0000
,
2000
0000
3100
0010
,
0001
0100
0001
0000
,
2000
0000
3001
0100
,
0010
0100
0001
0000
,
2001
0000
3100
0010
,
0001
0010
0100
0000
,
2001
0000
3010
0100
,
0010
1000
0001
0000
,
2001
0000
3100
0010
,
0001
0100
0001
0000
,
2010
0000
3001
0010
,
0100
0010
0001
0000
,
1000
0100
0010
0001
1000
0100
0010
0001
,
0100
0010
0100
0001
1000
0010
0100
0001
,
0010
0001
1000
0010
0100
0001
1000
0010
,
0100
0001
0100
0010
0100
0001
1000
0100
,
1000
0000
0001
0000
0100
0010
0100
0010
0100
0000
0001
0000
1000
0100
1000
0100
,
1000
0000
0001
0000
1000
0010
1000
0010
1000
0000
0001
0000
0010
0100
0010
0100
,
0010
0000
0001
0000
1000
0100
1000
0100
1000
0000
0010
0000
1000
0001
1000
0001
,
1000
0000
0100
0010
0000
0100
0010
0000
,
0001
1000
0001
1000
,
0200
0320
0032
0103
,
0010
1000
0010
1000
,
0002
0203
0320
0130
,
0001
1000
0001
1000
,
0001
0020
0130
0010
,
0001
1000
0002
0203
,
0320
0000
2030
3100
0000
0010
0001
0000
,
1000
0001
0100
0001
0010
0100
0010
0001
,
1000
0100
1000
0010
0100
0001
0100
0010
,
1000
0010
0100
0001
1000
0100
0010
0100
,
1000
0010
0100
0010
1000
0100
0010
0001
,
1000
0100
1000
0100
0010
0001
0100
0010
,
1000
0100
1000
0100
0010
0001
0100
0010
,
0100
0001
0100
0001
0010
0100
1000
0010
,
0100
0001
0100
0001
0010
0100
1000
0010
,
0100
0001
1000
0001
0010
0100
0010
0001
,
1000
0000
0001
0000
0100
0000
0001
0000
0040
0400
0000
0000
0000
0000
0000
0330
,
1000
0010
1000
0001
0100
0001
0010
0100
,
1000
0000
0010
0000
0100
0000
0001
0000
0040
0004
0000
0000
0000
0000
0000
0033
,
1000
0010
1000
0010
0100
0001
0010
0100
,
1000
0000
0010
0000
1000
0000
0010
0000
0400
0004
0000
0000
0000
0000
0000
0303
,
0010
0001
0010
0001
1000
0010
0100
0001
,
0010
0000
0001
0000
0010
0000
0001
0000
0400
0040
0000
0000
0000
0000
0000
0330
,
1000
0001
0100
0010
1000
0001
0100
0010
,
1000
0100
0010
0001
1000
0100
0010
0001
,
0100
0010
0100
0001
0100
0010
0100
0001
,
1000
0100
0010
0100
1000
0100
0010
0100
,
1000
0010
1000
0001
0100
0010
0100
0001
,
1000
0100
1000
0010
0100
0001
0010
0100
,
1000
0100
0010
0100
1000
0010
0100
0001
,
1000
0010
1000
0001
0100
0010
1000
0001
,
0400
0000
0000
0000
,
0340
0000
0000
0000
,
4030
0000
0000
0000
,
3004
0000
0000
0000
,
0043
0000
0000
0000
,
0430
0000
0000
0000
,
4300
0000
0000
0000
,
3004
0000
0000
0000
,
0003
0000
0000
0000
;

//---------------dance-single - ----------------
#NOTEDATA:;
#CHARTNAME:Alien Domination;
#STEPSTYPE:dance-single;
#DESCRIPTION:;
#CHARTSTYLE:;
#DIFFICULTY:Edit;
#METER:13;
#RADARVALUES:0.860784,1.150300,0.046084,0.334109,0.645176,523.000000,519.000000,4.000000,29.000000,0.000000,0.000000,0.000000,0.000000,0.000000,0.860784,1.150300,0.046084,0.334109,0.645176,523.000000,519.000000,4.000000,29.000000,0.000000,0.000000,0.000000,0.000000,0.000000;
#CREDIT:Patrick Lake;
#OFFSET:0.002000;
#BPMS:0.000000=224.000000
;
#STOPS:;
#DELAYS:;
#WARPS:;
#TIMESIGNATURES:0.000000=4=4
;
#TICKCOUNTS:0.000000=4
;
#COMBOS:0.000000=1
;
#SPEEDS:0.000000=0.250000=0.000000=0
,30.000000=0.500000=2.000000=0
,126.000000=1.000000=2.000000=0
,158.000000=0.500000=2.000000=0
,190.000000=1.000000=2.000000=0
,287.000000=1.000000=1.500000=0
,288.500000=1.250000=2.000000=0
,290.500000=1.000000=2.000000=0
,292.500000=1.250000=2.000000=0
,294.500000=1.000000=2.000000=0
,296.500000=1.250000=2.000000=0
,298.500000=1.000000=2.000000=0
,300.500000=1.250000=2.000000=0
,302.500000=1.000000=2.500000=0
,305.000000=1.250000=2.750000=0
,307.750000=1.000000=2.750000=0
,310.500000=1.250000=2.000000=0
,312.500000=1.000000=2.000000=0
,314.500000=1.250000=2.000000=0
,316.500000=1.000000=2.000000=0
,318.500000=1.250000=2.000000=0
;
#SCROLLS:0.000000=1.000000
;
#FAKES:;
#LABELS:0.000000=Song Start
;
#NOTES:
// measure 0
0000
0000
0000
0000
,  // measure 1
0000
0000
0000
0000
,  // measure 2
0000
0000
0000
0000
,  // measure 3
0000
0000
0000
0000
,  // measure 4
2000
0000
0000
0000
,  // measure 5
0000
0000
0000
0000
,  // measure 6
3020
0000
0000
0000
,  // measure 7
0000
0000
0000
0000
,  // measure 8
2030
0000
0000
0000
,  // measure 9
0000
0000
0000
0000
,  // measure 10
3200
0000
0000
0000
,  // measure 11
0000
0000
0000
0000
,  // measure 12
0320
0000
0000
0000
,  // measure 13
0000
0000
0000
0000
,  // measure 14
0032
0000
0000
0000
,  // measure 15
0000
0000
0000
0000
,  // measure 16
2003
0000
3100
0010
,  // measure 17
0001
0010
0100
0000
,  // measure 18
2000
0000
3010
0100
,  // measure 19
0001
0100
0010
0000
,  // measure 20
2000
0000
3100
0010
,  // measure 21
0001
0100
0001
0000
,  // measure 22
2000
0000
3001
0100
,  // measure 23
0010
0100
0001
0000
,  // measure 24
2001
0000
3100
0010
,  // measure 25
0002
1000
0103
0000
,  // measure 26
2001
0000
3010
0100
,  // measure 27
0002
1000
0013
0000
,  // measure 28
2001
0000
3010
0100
,  // measure 29
0002
1000
0103
0000
,  // measure 30
2010
0000
3001
0010
,  // measure 31
0200
0010
0301
0000
,  // measure 32
1000
0100
0010
0001
1000
0100
0010
0001
,  // measure 33
0100
0010
0100
0001
0010
0001
1000
0010
,  // measure 34
0100
0001
1000
0010
0100
0001
1000
0010
,  // measure 35
0100
0001
0010
0001
0100
0010
1000
0001
,  // measure 36
0010
0000
0100
0000
1000
0010
0100
0001
1000
0000
0100
0000
0010
0001
1000
0010
,  // measure 37
0100
0000
0001
0000
1000
0100
0010
0001
1000
0000
0010
0000
0100
0001
1000
0001
,  // measure 38
0100
0000
0010
0000
0100
0001
1000
0100
0010
0000
0100
0000
1000
0001
1000
0001
,  // measure 39
0010
0000
0001
0000
1000
0010
0100
0001
1000
0000
0001
0000
0010
0100
1000
0001
,  // measure 40
1000
0001
1000
0001
,  // measure 41
0200
0320
2030
3100
,  // measure 42
0010
0001
0010
0001
,  // measure 43
2000
3200
0320
0130
,  // measure 44
1000
0001
1000
0001
,  // measure 45
1000
0020
0130
0010
,  // measure 46
1000
0001
2000
3200
,  // measure 47
0320
0000
0032
0103
0000
0010
1000
0000
,  // measure 48
0001
0100
0001
0000
1000
0100
0010
0000
0001
0100
0001
0000
1000
0100
0010
0000
,  // measure 49
0001
0010
0001
0000
1000
0010
0100
0000
0001
0010
0001
0000
1000
0010
0100
0000
,  // measure 50
0001
0100
0010
0000
1000
0100
1000
0000
0001
0100
0010
0000
1000
0100
1000
0000
,  // measure 51
0001
1000
0010
0000
1000
0100
1000
0000
0001
1000
0010
0000
1000
0100
1000
0000
,  // measure 52
0001
1000
0001
0000
0100
0010
1000
0000
0001
1000
0001
0000
0100
0010
1000
0000
,  // measure 53
0100
0010
0100
0000
1000
0010
1000
0000
0100
0010
0100
0000
1000
0010
1000
0000
,  // measure 54
0001
1000
0010
0000
1000
0100
1000
0000
0001
1000
0010
0000
1000
0100
1000
0000
,  // measure 55
0001
0010
0100
0000
1000
0010
1000
0000
0001
0010
0100
0000
1000
0010
1000
0000
,  // measure 56
0001
0010
0001
0000
0100
0010
1000
0000
0001
0010
0001
0000
0100
0010
1000
0000
,  // measure 57
0001
0100
0001
0000
1000
0010
0100
0000
0001
0100
0001
0000
1000
0010
0100
0000
,  // measure 58
0001
1000
0010
0000
1000
0100
1000
0000
0001
1000
0010
0000
1000
0100
1000
0000
,  // measure 59
0001
1000
0010
0000
0100
0001
0100
0000
0001
1000
0010
0000
0100
0001
0100
0000
,  // measure 60
0001
1000
0001
0000
0010
0001
0100
0000
0001
1000
0001
0000
0010
0001
0100
0000
,  // measure 61
0001
1000
0001
0000
1000
0100
0010
0000
0001
1000
0001
0000
1000
0100
0010
0000
,  // measure 62
0001
0100
0010
0000
1000
0001
1000
0000
0001
0100
0010
0000
1000
0001
1000
0000
,  // measure 63
0001
1000
0100
0000
0010
0100
0010
0000
0001
1000
0100
0000
0010
0100
0010
0000
,  // measure 64
0001
1000
0010
0100
0001
1000
0010
0100
,  // measure 65
0001
0010
0100
1000
0001
0100
0010
1000
,  // measure 66
0001
1000
0010
0100
0001
1000
0100
0010
,  // measure 67
0001
1000
0100
1000
0001
0100
0010
1000
,  // measure 68
0001
0010
0100
1000
0001
0100
0010
1000
,  // measure 69
0100
0010
0001
1000
0100
0010
0001
0100
,  // measure 70
0001
0010
0100
1000
0001
0010
0100
1000
,  // measure 71
0001
0010
0100
1000
0010
0100
0001
1000
,  // measure 72
0001
0010
0100
0000
1000
0010
0100
0000
0001
0010
0100
0000
1000
0010
0100
0000
,  // measure 73
0001
0010
0100
0000
1000
0010
0100
0000
0001
0010
0100
0000
1000
0010
0100
0000
,  // measure 74
0001
0010
0100
0000
1000
0010
0100
0000
0001
0010
0100
0000
1000
0010
0100
0000
,  // measure 75
0001
0010
0100
0000
1000
0010
0100
0000
0001
0010
0100
0000
1000
0010
0100
0000
,  // measure 76
0010
1000
0100
0000
0010
0001
0100
0000
0001
1000
0010
0000
1000
0001
0100
0000
,  // measure 77
0010
1000
0100
0000
0010
0001
0100
0000
0001
1000
0010
0000
1000
0001
0100
0000
,  // measure 78
0010
1000
0100
0000
1000
0001
0100
0000
0010
1000
0001
0000
0010
0100
1000
0000
,  // measure 79
0010
1000
0100
0000
1000
0001
0100
0000
0010
1000
0001
0000
0010
0100
1000
0000
;

//---------------dance-single - Blank----------------
#NOTEDATA:;
#CHARTNAME:Alien Landing;
#STEPSTYPE:dance-single;
#DESCRIPTION:Blank;
#CHARTSTYLE:;
#DIFFICULTY:Easy;
#METER:5;
#RADARVALUES:0.199149,0.322588,0.046084,0.126731,0.000000,121.000000,117.000000,4.000000,11.000000,0.000000,0.000000,0.000000,0.000000,0.000000,0.199149,0.322588,0.046084,0.126731,0.000000,121.000000,117.000000,4.000000,11.000000,0.000000,0.000000,0.000000,0.000000,0.000000;
#CREDIT:Phil Lee;
#NOTES:
0000
0000
0000
0000
,
0000
0000
0000
0000
,
0000
0000
0000
0000
,
0000
0000
0000
0000
,
2000
0000
0000
0000
,
0000
0000
0000
0000
,
3020
0000
0000
0000
,
0000
0000
0000
0000
,
0230
0000
0000
0000
,
0000
0000
0000
0000
,
0302
0000
0000
0000
,
0000
0000
0000
0000
,
0023
0000
0000
0000
,
0000
0000
0000
0000
,
0230
0000
0000
0000
,
0000
0000
0000
0000
,
1300
0000
0010
0000
,
0100
0001
0100
0000
,
0010
0000
1000
0000
,
0100
0010
0100
0000
,
1000
0000
0001
0000
,
0100
0010
0100
0000
,
0001
0000
0010
0000
,
0100
1000
0100
0000
,
0010
0000
0001
0000
,
1001
0000
0001
0000
,
1000
0000
0100
0000
,
1100
0000
0100
0000
,
0010
0000
0001
0000
,
0101
0000
0001
0000
,
0010
0000
0100
0000
,
1100
0000
1000
0000
,
0001
0000
0010
0000
,
0100
1000
0100
0000
,
0010
0000
0001
0000
,
0100
0001
0100
0000
,
0010
0000
0000
1000
0000
0000
0100
0000
,
0010
0000
0001
0100
,
0001
0000
0000
1000
0000
0000
0001
0000
,
0010
0000
0000
0100
0000
0000
1000
0000
,
0002
0000
0000
0000
,
0000
0000
0000
0000
,
0203
0000
0000
0000
,
0000
0000
0000
0000
,
0320
0000
0000
0000
,
0000
0000
0000
0000
,
0230
0000
0000
0000
,
0000
0000
0000
0000
,
0301
0000
0001
0000
,
0001
0000
0001
0000
,
0010
0000
0010
0000
,
0010
0000
0010
0000
,
0100
0000
0100
0000
,
0100
0000
0100
0000
,
1000
0000
1000
0000
,
1000
0000
1000
0000
,
0010
0000
0000
0000
,
0010
0000
0000
0000
,
0100
0000
0000
0000
,
0100
0000
0000
0000
,
0001
0000
0000
0000
,
0001
0000
0000
0000
,
1000
0000
0000
0000
,
1000
0000
0000
0000
,
0001
0010
0001
0000
,
1000
0100
1000
0000
,
0010
0100
0010
0000
,
1000
0001
1000
0000
,
0001
0010
0001
0000
,
0100
0010
0100
0000
,
0010
1000
0010
0000
,
1000
0100
1000
0000
,
0002
0000
0000
0000
,
0000
0000
0000
0000
,
0000
0000
0000
0000
,
0000
0000
0000
0000
,
0000
0000
0000
0000
,
0000
0000
0000
0000
,
0000
0000
0000
0000
,
0000
0000
0000
0000
,
0003
0000
0000
0000
;

//---------------dance-single - Blank----------------
#NOTEDATA:;
#CHARTNAME:Alien Stories;
#STEPSTYPE:dance-single;
#DESCRIPTION:Blank;
#CHARTSTYLE:;
#DIFFICULTY:Beginner;
#METER:1;
#RADARVALUES:0.103689,0.184336,0.000000,0.126731,0.000000,63.000000,63.000000,0.000000,11.000000,0.000000,0.000000,0.000000,0.000000,0.000000,0.103689,0.184336,0.000000,0.126731,0.000000,63.000000,63.000000,0.000000,11.000000,0.000000,0.000000,0.000000,0.000000,0.000000;
#CREDIT:Phil Lee;
#NOTES:
0000
0000
0000
0000
,
0000
0000
0000
0000
,
0000
0000
0000
0000
,
0000
0000
0000
0000
,
2000
0000
0000
0000
,
0000
0000
0000
0000
,
3020
0000
0000
0000
,
0000
0000
0000
0000
,
2030
0000
0000
0000
,
0000
0000
0000
0000
,
3200
0000
0000
0000
,
0000
0000
0000
0000
,
0320
0000
0000
0000
,
0000
0000
0000
0000
,
0230
0000
0000
0000
,
0000
0000
0000
0000
,
0300
0000
1000
0000
,
1000
0000
1000
0000
,
0000
0000
0001
0000
,
0001
0000
0001
0000
,
0000
0000
0010
0000
,
0010
0000
0010
0000
,
0000
0000
0001
0000
,
0001
0000
0001
0000
,
1000
0000
0000
0000
,
1000
0000
0000
0000
,
0010
0000
0000
0000
,
0010
0000
0000
0000
,
0100
0000
0000
0000
,
0100
0000
0000
0000
,
0010
0000
0000
0000
,
0010
0000
0000
0000
,
1000
0000
1000
0000
,
1000
0000
0000
0000
,
0001
0000
0001
0000
,
0001
0000
0000
0000
,
0010
0000
0010
0000
,
0010
0000
0000
0000
,
0100
0000
0100
0000
,
0100
0000
0000
0000
,
0020
0000
0000
0000
,
0000
0000
0000
0000
,
0032
0000
0000
0000
,
0000
0000
0000
0000
,
0203
0000
0000
0000
,
0000
0000
0000
0000
,
0320
0000
0000
0000
,
0000
0000
0000
0000
,
1030
0000
0000
0000
,
1000
0000
0000
0000
,
0100
0000
0000
0000
,
0100
0000
0000
0000
,
0010
0000
0000
0000
,
0010
0000
0000
0000
,
0001
0000
0000
0000
,
0001
0000
0000
0000
,
0100
0000
0000
0000
,
0100
0000
0000
0000
,
0010
0000
0000
0000
,
0010
0000
0000
0000
,
0100
0000
0000
0000
,
0100
0000
0000
0000
,
0001
0000
0000
0000
,
0001
0000
0000
0000
,
1000
0000
0000
0000
,
0000
0000
0000
0000
,
0001
0000
0000
0000
,
0000
0000
0000
0000
,
0100
0000
0000
0000
,
0000
0000
0000
0000
,
0001
0000
0000
0000
,
0000
0000
0000
0000
,
0200
0000
0000
0000
,
0000
0000
0000
0000
,
0000
0000
0000
0000
,
0000
0000
0000
0000
,
0000
0000
0000
0000
,
0000
0000
0000
0000
,
0000
0000
0000
0000
,
0000
0000
0000
0000
,
0300
0000
0000
0000
;
