#VERSION:0.83;
#TITLE:Dna dream;
#SUBTITLE:;
#ARTIST:4mat;
#TITLETRANSLIT:;
#SUBTITLETRANSLIT:;
#ARTISTTRANSLIT:;
#GENRE:;
#ORIGIN:;
#CREDIT:;
#BANNER:dnadream-banner.png;
#BACKGROUND:dnadream-bg.png;
#PREVIEWVID:;
#JACKET:;
#CDIMAGE:;
#DISCIMAGE:;
#LYRICSPATH:;
#CDTITLE:;
#MUSIC:Dna dream.ogg;
#OFFSET:0.000000;
#SAMPLESTART:8.962000;
#SAMPLELENGTH:17.860466;
#SELECTABLE:YES;
#BPMS:0.000=107.125;
#STOPS:;
#DELAYS:;
#WARPS:;
#TIMESIGNATURES:0.000=4=4;
#TICKCOUNTS:0.000=4;
#COMBOS:0.000=1;
#SPEEDS:0.000=1.000=0.000=0;
#SCROLLS:0.000=1.000;
#FAKES:;
#LABELS:0.000=Song Start;
#BGCHANGES:;
#KEYSOUNDS:;
#ATTACKS:
;

//---------------dance-single - ----------------
#NOTEDATA:;
#CHARTNAME:Lipid;
#STEPSTYPE:dance-single;
#DESCRIPTION:;
#CHARTSTYLE:;
#DIFFICULTY:Medium;
#METER:5;
#RADARVALUES:0.236084,0.308167,0.013546,0.311554,0.138845,244.000000,242.000000,2.000000,46.000000,6.000000,0.000000,0.000000,0.000000,0.000000,0.236084,0.308167,0.013546,0.311554,0.138845,244.000000,242.000000,2.000000,46.000000,6.000000,0.000000,0.000000,0.000000,0.000000;
#CREDIT:Phil Lee;
#NOTES:
0000
0000
0000
0000
,
0000
0000
0000
0000
,
2000
0100
0000
3100
,
0020
0001
0000
0031
,
1000
0000
0000
0000
0001
0000
0100
0000
0001
0000
0000
1000
0000
0010
0000
0000
,
1000
0000
0000
0000
0000
0000
0001
0000
0000
0000
0000
0000
0000
0000
0000
0010
0000
0000
0100
0000
0000
0000
0000
1000
,
0000
0000
0000
0000
0000
0000
0001
0000
0100
0000
0010
0000
1000
0000
0000
0002
,
0000
0000
0003
1000
1000
0100
0010
0000
,
0000
0000
0100
0000
0100
0000
1000
0000
0000
0000
0000
0000
0001
0000
0000
0010
,
0000
0000
0000
0000
0010
0000
0001
0000
0100
0000
0000
0000
0001
0000
0000
0020
,
0000
0000
0000
0000
0030
0000
0100
0000
1000
0000
0001
0000
0100
0000
0000
0020
,
0000
0000
0030
0000
M000
0M00
00M0
0000
,
2000
3200
0320
0230
,
1300
0010
1000
0010
2000
0000
0000
0000
,
3001
0000
0000
0000
0010
0000
0000
0000
0100
0000
1000
0000
0100
0000
0000
2000
,
0000
0000
0001
3001
,
1000
0000
0010
0000
1000
0000
0000
0020
0000
0000
0000
0000
0130
0000
0000
0000
,
0001
0000
1000
0010
1000
0000
0001
0100
,
0001
0000
0000
0000
0100
0000
0100
0000
0010
0000
0000
0000
1000
0000
0000
2000
,
0000
0000
0000
0000
3000
000M
00M0
0M00
,
0000
0000
0000
0001
0000
0000
0010
0000
0002
0000
0000
0000
0000
0000
1003
0000
,
0020
0000
0000
0130
0010
0200
0000
0000
,
0301
0000
0000
0010
0000
0000
0100
0000
2000
0000
0000
3020
0000
0000
0000
0000
,
0000
0000
0000
0000
0000
0000
1030
0000
0001
0000
0000
0010
0000
0000
0100
0000
,
1000
0000
0000
0001
0000
0000
0100
0000
0000
0010
0000
0000
1000
0000
0001
0000
,
0002
0000
0000
0000
1003
0100
1000
0100
,
2000
0000
0000
0000
0000
3000
1000
0000
0001
0000
0000
0100
0000
0000
0001
0000
,
2000
0000
3200
0000
,
2300
0000
0000
0000
3000
0001
0010
0000
,
0100
0000
0000
1000
0000
0000
0001
0000
0000
1000
0000
0000
0010
0000
0100
0000
,
0002
0000
0000
0003
0000
0000
1000
0000
0000
0001
0000
0000
0100
0000
0000
0010
,
0000
0000
1000
0000
0000
0001
0000
0000
0100
0000
0000
0000
0001
0000
0000
0000
,
1000
0000
0001
0010
0001
0000
1000
0000
,
0100
0000
0000
0000
0010
0000
0000
0000
0001
0000
0000
0000
1000
0000
0000
0001
,
0000
0000
0000
0010
0000
0000
0001
0000
0000
0100
0000
0000
0010
0000
0000
1000
,
0000
0000
0001
0000
0000
0010
0000
0000
0100
0000
0000
1000
0000
0000
0001
0000
,
1000
0000
0000
0000
0000
0000
0000
0000
0000
0000
0000
0000
0001
0000
0000
0000
0000
0000
0000
0000
0000
0100
0000
0000
0000
0000
0000
0000
0000
0000
0010
0000
0000
0000
0000
0000
1000
0000
0000
0000
0000
0000
0000
0000
0000
0000
0200
0000
,
0000
0000
0000
0000
0000
0000
0000
0000
0000
0000
0000
0000
0000
0000
0000
0000
0000
0000
0000
0000
0300
0010
0000
0000
0000
0000
0000
0000
0000
0000
0001
0000
0000
0000
0000
0000
1000
0000
0000
0000
0000
0000
0000
0000
0000
0001
0000
0000
,
0000
0000
0100
0000
0000
0000
0000
0000
0010
0000
0000
1000
0000
0000
0001
0000
,
0000
0200
0000
0000
0000
0300
0002
0000
0203
0000
0000
0000
0000
0000
0000
0300
,
1001
1000
0100
0010
,
0001
1000
0001
0010
,
0100
1000
0100
0000
1000
0001
1000
0000
,
0001
0010
0100
0000
0010
0100
1000
0000
,
1001
0000
0000
0000
,
0000
0001
1000
0000
0000
0010
0100
0000
,
0002
0000
0000
0103
0000
0000
0000
0000
0000
0000
0000
0000
0000
0000
0000
0000
,
0000
0010
1000
0000
0000
0001
0010
0000
,
0002
0000
0000
0003
,
2000
0000
0000
3000
,
0020
0000
0000
0030
,
0200
0000
0300
0000
0010
0000
0100
0000
0010
0000
0000
0000
1000
0000
0000
0002
,
0000
0000
0000
0003
,
1000
0000
0010
0100
0001
0000
1000
0001
,
2000
0000
0000
3000
0001
0100
0001
0000
,
2000
0000
0000
3000
,
0002
0000
0000
0003
,
0020
0000
0000
0030
,
0200
0000
0000
0000
0000
0000
0300
0000
1000
0000
0001
0000
0010
0000
0000
0001
,
0000
0000
0100
0000
0002
0000
0000
0000
0003
0000
1000
0000
0001
0000
0000
0200
,
0000
0000
0000
0000
0000
0300
0100
0000
0001
0000
0000
0000
0010
0000
0000
0200
,
0000
0000
0000
0000
0000
0300
0100
0000
0100
0000
0000
0000
1000
0000
0000
0020
,
0000
0000
0000
0000
0000
0030
0010
0000
1000
0000
0000
0000
0001
0000
0000
0200
,
0000
0000
0302
0000
,
2003
0000
0000
0000
,
3000
0000
0000
0000
;

//---------------dance-single - ----------------
#NOTEDATA:;
#CHARTNAME:Ribonucleic Acid;
#STEPSTYPE:dance-single;
#DESCRIPTION:;
#CHARTSTYLE:;
#DIFFICULTY:Hard;
#METER:7;
#RADARVALUES:0.343483,0.411793,0.006773,0.453785,0.237052,355.000000,354.000000,1.000000,67.000000,1.000000,2.000000,0.000000,0.000000,0.000000,0.343483,0.411793,0.006773,0.453785,0.237052,355.000000,354.000000,1.000000,67.000000,1.000000,2.000000,0.000000,0.000000,0.000000;
#CREDIT:Phil Lee;
#NOTES:
0000
0000
0000
0000
,
0000
0000
0000
0000
,
2000
0001
0000
3001
,
0020
0100
0000
0130
,
1000
0000
0000
0000
0001
0000
0010
0000
0100
0000
1000
0001
0000
0010
0000
0001
,
0100
0000
0000
0010
0000
0000
0100
0000
0000
0001
0000
0000
0000
0000
0000
1000
0000
0000
0100
0000
0000
0010
0000
0002
,
0000
0000
0000
0000
0000
0000
1003
0000
0001
0000
0100
0000
0010
0000
1000
0002
,
0000
0000
0000
0000
0000
0003
1000
0000
1000
0000
0010
0000
1000
0000
0000
0000
,
0000
0000
0001
0000
0010
0000
0001
0000
1000
0000
0001
0000
1000
0000
0010
0200
,
0000
0000
0300
0000
0001
0000
1000
0000
0100
0000
0010
0000
0100
0000
1000
0002
,
0000
0000
0000
0000
0000
0000
1003
0000
0001
0000
0010
0000
0100
0000
1000
0200
,
0000
0000
0000
0000
0000
0300
0010
0001
0000
0010
0001
0000
1000
0000
0001
0000
,
2000
3020
0230
0320
,
2030
3002
0203
0320
2030
0000
0000
3000
,
0002
0000
0000
0000
0203
0000
0320
0000
1030
0000
0001
0000
0010
0000
0100
2000
,
0000
0000
0000
0000
0000
0000
0000
3000
0002
0000
0000
0000
0023
0000
0000
0000
,
0031
0000
1000
0000
0001
0000
0100
0020
0000
0000
0000
0000
0030
0000
1000
0000
,
0100
0000
0010
0000
0100
0000
1000
0000
0020
0000
0000
0000
1030
0100
2000
0000
,
3002
0000
0000
0000
0103
0000
0100
0000
0020
0000
0000
0030
0100
0000
1000
0200
,
0000
0000
0300
0000
0001
1000
0100
0010
,
0001
0000
0000
1000
0010
0000
0100
0001
0200
0000
0000
0000
0000
0000
0301
0000
,
2000
0000
0000
0000
3000
0001
0010
0001
0010
0000
0200
0000
0000
0000
0300
0000
,
1000
0000
0000
0100
0000
0000
0010
0000
0001
0010
0001
0020
0000
0000
0000
0000
,
0000
0030
0000
0000
0000
0000
0100
0000
1000
0010
1000
0010
0000
0100
0001
0000
,
1000
0000
0000
0001
0000
0000
0100
0000
0000
0010
0000
0000
1000
0000
0001
0000
,
0002
0000
0000
0000
1003
0010
0100
0010
,
2000
0000
0000
0000
3000
0000
1000
0000
0001
0100
0000
0001
0100
0000
0010
0000
,
0020
0000
2000
3030
,
1001
0000
0000
0000
0000
0000
0000
0000
0000
0000
0001
0000
1000
0020
0000
0000
,
0130
0000
0001
2000
0000
0000
3100
0000
0010
0002
0000
0000
1003
0000
0010
0000
,
0020
0000
0000
0000
0000
0000
1030
0000
0000
0001
0000
0000
0100
0000
0000
0010
,
0000
0000
0100
0000
0000
0001
0000
0000
1000
0000
0000
0000
0200
0000
0000
0000
,
1300
0000
0001
0100
0010
1000
0100
0010
,
0001
0000
1000
0000
0001
0000
0100
0000
0010
0000
1000
0000
0001
0000
1000
0020
,
0000
0000
0000
0130
0000
0000
0001
0000
0000
1000
0000
0000
0001
0000
0000
0010
,
0000
0000
0100
0000
0000
1000
0000
0000
0001
0000
0100
0001
0000
1000
0010
0000
,
2000
0000
0000
0000
0000
0000
0000
0000
0000
3000
0000
0000
2000
0000
0000
0000
0000
0000
0000
0000
0000
3100
0000
0000
0000
0000
0000
0000
0000
0000
1000
0000
0000
0000
0000
0000
0001
0000
0000
0000
0000
0000
0100
0000
0000
0000
0020
0000
,
0000
0000
0000
0000
0000
0000
1030
0001
0000
0000
0010
0000
0001
2000
0000
0002
,
0000
0000
3103
0000
0000
0000
0000
0000
0001
0000
0000
0100
0000
0000
0010
0000
,
0000
1000
0002
0000
0000
0000
0203
0000
0320
0000
0000
0000
0000
0000
0000
0000
,
1030
0000
0001
0000
0100
0000
0001
0000
0010
0000
0100
0000
1000
0010
1000
0000
,
0100
0000
1000
0000
0001
0000
0100
0000
0010
0000
0100
0000
0001
0010
0001
0000
,
1000
0000
0100
0000
0010
0000
0100
0000
1000
0000
0001
0000
0100
0010
0100
0000
,
0001
0000
0010
0000
0100
0000
1000
0000
0010
0000
0100
0000
0001
0010
0001
0000
,
1000
0000
0000
0010
0000
0000
0000
0000
0000
0000
0000
0000
0000
0000
0000
0000
,
0000
1000
0001
0000
0100
0000
0000
0000
0000
0010
1000
0000
0001
0000
0000
0000
,
2000
0000
0000
3010
0000
0000
0000
0000
0000
0000
0000
0000
0000
0000
0000
0000
,
0000
1000
0100
0000
0010
0000
0000
0000
0000
0001
0010
0000
0100
0000
1000
0000
,
0002
0010
0000
0013
,
0200
1000
0000
1300
,
0020
0100
0000
0130
,
0002
0000
0000
0000
1003
0000
0001
0000
0100
0000
0010
0000
1000
0000
0001
0200
,
0000
0010
0000
0310
,
1000
0000
0000
1000
0001
0000
0100
0000
0010
0000
1000
0100
1000
0000
0001
0000
,
0200
0000
0000
0000
0300
0000
0100
0000
0010
0000
1000
0100
0010
0000
0001
0000
,
2000
0000
0000
0000
3001
0100
0010
0100
,
0002
0010
0000
0013
,
0200
1000
0000
1300
,
0020
0000
0000
0000
0130
0000
0000
0000
001M
0000
1000
0000
0001
0000
0100
0010
,
0000
1000
0100
0000
2000
0000
0000
0000
0000
0000
3001
0000
0100
0000
0010
2000
,
0000
0000
0000
0000
0000
3000
1000
0000
0010
0000
0100
0000
0001
0000
0010
0200
,
0000
0000
0000
0000
0000
0300
0100
0000
0100
0000
0100
0000
1000
0000
0001
0020
,
0000
0000
0000
0000
0000
0030
0010
0000
0001
0000
1000
0100
0010
0001
0000
0002
,
0000
0000
2000
0000
,
3013
0000
0000
0000
;

//---------------dance-single - ----------------
#NOTEDATA:;
#CHARTNAME:Deoxyribonucleic Acid;
#STEPSTYPE:dance-single;
#DESCRIPTION:;
#CHARTSTYLE:;
#DIFFICULTY:Challenge;
#METER:8;
#RADARVALUES:0.425726,0.621076,0.067729,0.982072,0.430080,440.000000,430.000000,10.000000,145.000000,2.000000,1.000000,4.000000,2.000000,0.000000,0.425726,0.621076,0.067729,0.982072,0.430080,440.000000,430.000000,10.000000,145.000000,2.000000,1.000000,4.000000,2.000000,0.000000;
#CREDIT:Phil Lee;
#OFFSET:0.000000;
#BPMS:0.000000=107.125000
;
#STOPS:;
#DELAYS:;
#WARPS:;
#TIMESIGNATURES:0.000000=4=4
;
#TICKCOUNTS:0.000000=4
;
#COMBOS:0.000000=1
;
#SPEEDS:0.000000=1.000000=0.000000=0
,90.750000=0.500000=0.750000=0
,91.500000=1.000000=1.750000=0
,108.000000=0.500000=2.000000=0
,110.000000=1.000000=2.000000=0
,158.000000=1.500000=1.000000=0
,159.000000=1.000000=1.000000=0
,160.000000=0.800000=8.000000=0
,174.000000=1.000000=2.000000=0
,251.750000=1.500000=2.250000=0
,254.000000=1.000000=2.000000=0
;
#SCROLLS:0.000000=1.000000
;
#FAKES:;
#LABELS:0.000000=Song Start
;
#NOTES:
0000
0000
0000
0000
,
0000
0000
0000
0000
,
1000
0000
0000
0100
0000
0000
1000
0000
0000
0000
0100
0000
0000
0000
0010
0001
,
0100
0000
0000
0001
0000
0000
0010
0000
0001
0000
1000
0000
0000
0000
0010
0100
,
0002
0000
0003
0000
0002
0000
0103
0000
0020
0000
0130
0001
0000
2000
0000
3001
,
1000
0000
0000
0100
0000
0000
2000
0000
0000
0000
0000
0000
3001
0000
0000
0000
0000
0000
0200
0000
0000
0000
0000
0000
0000
0000
0000
0300
0000
0000
0020
0000
0000
0000
0000
0000
2030
0000
0000
0000
0000
0000
3020
0000
0000
0000
2030
0000
,
0000
0000
0000
0000
3000
0000
0110
0000
0001
0000
1000
0000
0200
0000
0310
0002
,
0000
0000
0000
0000
0003
0000
1000
0000
2000
0000
3010
0000
0200
0300
000M
0M00
,
0000
0000
0010
0000
0020
0000
0031
0000
0010
0000
1000
0000
0001
0000
0100
0002
,
0000
0000
0003
0000
0002
0000
0203
0000
0320
0000
0130
0000
2000
0000
3100
0002
,
0000
0000
0000
0000
0003
0000
0010
0000
0002
0000
1003
0000
0001
0000
0100
0020
,
0000
0000
0000
0000
0030
0000
1000
1000
0000
0010
0010
0000
0100
0000
0001
0000
,
2000
3200
0320
0230
,
2300
3002
2003
3020
0230
0000
0000
0000
,
0302
0000
0000
0000
0203
0000
0320
0000
0130
0000
0001
0000
2000
0000
3100
0020
,
0000
0000
0032
2000
,
3103
0000
2000
0000
3010
0000
1000
0002
0000
0000
0000
0000
0000
0003
0200
0000
,
0310
0000
1000
0000
0200
0000
0301
0000
0200
0000
0000
0300
1000
0001
0200
0000
,
0320
0000
0000
0000
0130
0000
0200
0000
2300
0000
0000
0000
3100
0000
0010
0200
,
0000
0000
0000
0300
0001
0010
0100
1000
,
0002
0000
0000
2003
3200
0000
1300
0200
0320
0000
0000
0030
0010
0001
0100
0010
,
0200
0000
0000
0300
0100
0001
1000
0001
1000
0100
0020
0000
0000
0000
0030
0000
,
0002
0000
1003
0002
0000
1003
0020
0000
1030
0100
0010
0004
0000
0000
0000
0000
,
0000
0000
0000
0000
0003
0000
2000
0000
3001
0100
0010
2000
0000
3010
2000
0000
,
3001
0000
1000
0200
0000
0310
0001
0000
1000
0200
0000
0310
0002
0000
1003
0000
,
2002
0000
0000
0000
0000
0000
3003
0000
0001
0010
0001
0010
0001
0010
0100
1000
,
0200
0000
0000
0000
0000
0300
0100
0000
1000
0001
0000
0200
0302
0003
0010
0000
,
0020
0000
0430
0000
,
2300
0000
0000
0000
0000
0000
0000
0000
3000
0000
0001
0000
0010
0200
0000
0000
,
0301
0000
0100
2000
0000
0000
3001
0000
0100
2000
0000
0000
3100
0000
0001
0000
,
0002
0000
0000
0000
0000
0003
1000
0100
0000
0010
0002
0000
1003
0001
0000
0010
,
0002
0000
0103
0010
0000
1000
0200
0000
2300
0000
3000
0000
0002
0000
0000
0000
,
0203
0000
0000
0000
0310
0000
1000
0000
0002
0000
0103
0010
0100
0010
0100
0010
,
1000
0001
1000
0001
1000
0001
1000
0001
0010
0000
0001
0000
0100
0000
0001
2000
,
0000
0000
0000
3010
1000
0010
1000
0010
1000
0001
0010
0001
0010
0001
0010
0001
,
1000
0001
1000
0001
1000
0001
1000
0001
1000
0000
0100
0020
0000
0130
2000
0000
,
3004
0000
0000
0000
0000
0000
0003
0000
0000
0000
0000
0000
0002
0000
0000
0000
0000
0000
0000
0000
0000
0203
0000
0000
0000
0000
0000
0000
0000
0000
0320
0000
0000
0030
0000
0000
2000
0000
0000
0000
0000
0000
3001
0000
0000
0000
0200
0000
,
0000
0000
0000
0000
0300
0000
0010
2000
0000
0000
3001
0000
0010
2000
0000
3020
,
0031
1000
0002
0000
0000
0000
0003
0000
1000
0010
0000
0010
0200
0300
0100
0001
,
0000
0001
0020
0000
0000
0030
0202
0303
2002
0000
0000
0000
0000
0000
3003
0000
,
0001
0000
0000
0001
0010
0000
0100
0000
0000
0100
0200
0000
1300
0000
0020
0030
,
0100
0000
0000
0100
0001
0000
0010
0000
0000
0010
0020
0000
0031
0001
0200
0300
,
0010
0000
0000
0000
0000
0000
0000
0000
0000
0000
0000
0000
0010
0000
0000
0000
2000
0000
0000
3000
L000
0000
0000
0000
0100
0000
0000
0000
0000
0000
0000
0000
0000
0000
0000
0000
0100
0000
0000
0000
0100
0000
0000
0000
0000
0000
0000
0000
0010
0000
0000
0000
0010
0000
0000
0000
0100
0000
0000
0000
0100
0000
0000
0000
,
0001
0000
0000
0000
0000
0000
0000
0000
0000
0000
0000
0000
0001
0000
0000
0000
0020
0000
0000
0030
00L0
0000
0000
0000
0100
0000
0000
0000
0000
0000
0000
0000
0000
0000
0000
0000
0100
0000
0000
0000
0100
0000
0000
0000
0000
0000
0000
0000
0001
0000
0000
0000
0001
0000
0000
0000
0100
0000
0000
0000
0000
0000
0000
0000
,
0020
0000
0030
1001
0000
0000
1100
0000
0000
1000
0002
0000
0103
0010
2000
3001
,
0000
0010
0001
0000
0011
0000
0000
0000
0000
1000
0010
0000
1010
0000
0000
0000
,
0002
0000
0003
0011
0000
0000
1001
0000
0000
1000
0020
0000
1030
0100
2000
3000
,
0001
0100
0000
0100
0010
0000
0010
0100
0000
0100
0002
0000
0013
0000
0200
0300
,
2000
0100
0000
3100
,
0020
0001
0000
0031
,
2000
0001
0000
3001
,
0200
0000
0000
0000
0320
0000
1030
0000
0020
0000
1030
0000
0200
0000
1300
0002
,
0000
1000
0000
1003
,
0002
0000
0003
0001
0100
0000
0010
0000
2000
0000
3010
0100
2000
0000
3100
0000
,
0002
0000
0000
0000
0000
0003
0001
0000
2000
0000
3100
0010
0001
0000
0010
0000
,
0200
0000
0000
0000
0000
0000
0300
0000
1000
0100
1000
0100
0010
0001
0010
0001
,
2000
0010
0000
3010
,
2000
0001
0000
3001
,
0020
0000
0000
0000
0130
0000
0000
0000
1000
0000
0002
0000
0023
0000
0130
1000
,
0000
0001
0100
0000
0002
0000
0000
0000
0003
0000
1000
0000
0020
0000
0130
0002
,
0000
0000
0000
0000
0003
0000
0001
0000
2000
0000
3100
0000
0020
0000
0031
0020
,
0000
0000
0000
0000
0030
0000
0010
0000
0020
0030
0010
0000
0200
0000
0310
0002
,
0000
0000
0000
0000
0003
0000
0001
0000
0200
0000
0310
1000
0100
0010
0000
0040
,
0000
0000
0000
0000
0000
0000
0000
0030
,
0002
0000
0000
0000
,
0000
0000
0003
0000
;

//---------------dance-single - Blank----------------
#NOTEDATA:;
#CHARTNAME:Carbohydrate;
#STEPSTYPE:dance-single;
#DESCRIPTION:Blank;
#CHARTSTYLE:;
#DIFFICULTY:Beginner;
#METER:1;
#RADARVALUES:0.072567,0.110060,0.013546,0.094821,0.050797,75.000000,73.000000,2.000000,14.000000,0.000000,0.000000,0.000000,0.000000,0.000000,0.072567,0.110060,0.013546,0.094821,0.050797,75.000000,73.000000,2.000000,14.000000,0.000000,0.000000,0.000000,0.000000,0.000000;
#CREDIT:Phil Lee;
#NOTES:
0000
0000
0000
0000
,
0000
0000
0000
0000
,
1000
0000
0000
0000
,
0100
0000
0000
0000
,
0010
0000
0000
0000
,
0001
0000
0000
0000
0000
0000
0000
0000
0000
0000
0000
0000
0000
0000
0000
0000
0000
0000
0000
0000
0000
0000
0000
0100
,
0000
0000
0000
0000
0000
0000
0000
0000
0000
0000
0000
0000
0000
0000
0000
0001
,
0000
0000
0000
0000
,
0000
1000
0000
0000
,
0000
0000
0000
0000
0100
0000
0000
0000
0000
0000
0000
0000
0000
0000
0000
1000
,
0000
0000
0000
0000
0000
0000
0000
0000
0000
0000
0000
0000
0000
0000
0000
0001
,
0000
0000
0000
0000
,
1000
0000
1000
0000
,
1000
0000
0000
0000
,
0010
0000
0010
0000
,
0010
0000
0000
0000
,
0100
0000
0000
0000
,
0001
0000
0000
0000
,
1000
0000
0000
0000
0000
0000
0000
0000
0000
0000
0000
0000
0000
0000
0000
0001
,
0000
0000
0000
0000
,
0010
0000
0000
0000
,
0200
0000
0000
0300
0000
0000
0000
0000
,
1000
0000
0000
0002
,
0000
0003
0000
0000
,
0100
0000
0000
0000
,
0020
0000
0030
0000
,
0200
0000
0000
0300
0000
0000
0000
0000
,
0002
0000
0000
0000
,
1003
0000
0000
0000
,
0100
0000
0000
0000
,
0010
0000
0000
0000
,
0001
0000
0000
0000
,
0200
0300
0000
0000
,
0010
0000
0000
0000
0000
0000
0000
0000
0000
0000
0000
0000
0000
0000
0000
0200
,
0000
0300
0000
0000
0000
0000
0000
0000
,
0001
0000
0000
0000
,
2000
0000
0000
0000
0000
0000
3000
0000
0000
0000
0000
0000
0000
0000
0000
0000
0000
0000
0000
0000
0000
0000
0000
0200
,
0000
0000
0000
0000
0300
0000
0000
0000
0000
0000
0000
0000
0000
0000
0000
1000
,
0000
0000
0000
0000
0000
0000
0000
0000
0001
0000
0000
0000
0000
0000
0000
0001
,
0000
0000
0010
0000
,
1001
0000
0000
0000
,
1000
0000
0000
0000
,
0001
0000
0000
0000
,
1000
0000
0000
0000
,
0100
0000
0000
0000
,
0000
0010
0000
0010
,
0100
0000
0000
0000
,
0000
1000
0000
1000
,
1002
0000
0000
0000
,
1000
0000
0000
0000
,
1000
0000
0000
0000
,
1003
0000
0000
0000
0000
0000
0000
0000
1000
0000
0000
0000
0000
0000
0000
2000
,
0000
0000
0000
0000
,
0010
0000
0000
0000
,
0010
0000
0000
0000
,
3010
0000
1000
0000
,
0002
0000
0000
0000
,
0010
0000
0000
0000
,
0013
0000
0000
0000
0000
0000
0000
0000
0001
0000
0000
0000
0000
0000
0000
0100
,
0000
0000
0000
0000
0000
0000
0000
0000
0000
0000
0000
0000
0000
0000
0000
0010
,
0000
0000
0000
0000
0000
0000
0000
0000
0000
0000
0000
0000
0000
0000
0000
1000
,
0000
0000
0000
0000
0000
0000
0000
0000
0000
0000
0000
0000
0000
0000
0000
0100
,
0000
0000
0000
0000
0000
0000
0000
0000
0000
0000
0000
0000
0000
0000
0000
0010
,
0000
0000
0002
0000
,
2003
0000
0000
0000
,
3000
0000
0000
0000
;

//---------------dance-single - Blank----------------
#NOTEDATA:;
#CHARTNAME:Protein;
#STEPSTYPE:dance-single;
#DESCRIPTION:Blank;
#CHARTSTYLE:;
#DIFFICULTY:Easy;
#METER:2;
#RADARVALUES:0.158680,0.176096,0.006773,0.291235,0.057570,164.000000,163.000000,1.000000,43.000000,0.000000,0.000000,0.000000,0.000000,0.000000,0.158680,0.176096,0.006773,0.291235,0.057570,164.000000,163.000000,1.000000,43.000000,0.000000,0.000000,0.000000,0.000000,0.000000;
#CREDIT:Phil Lee;
#NOTES:
0000
0000
0000
0000
,
0000
0000
0000
0000
,
2000
0100
0000
3100
,
0000
0010
0000
0010
,
0001
0001
0000
0000
,
1000
0000
0000
0000
0000
0000
1000
0000
0000
0000
0000
0000
0000
0000
0000
0000
0000
0000
0010
0000
0000
0000
0000
0020
,
0000
0000
0000
0000
0000
0000
0000
0000
0130
0000
0000
0000
0001
0000
0000
0020
,
0000
0000
0031
1000
,
0000
0001
0010
0001
,
0000
1000
0010
1000
,
0000
0000
0000
0000
0000
0000
0000
0000
0001
0000
0000
0000
0010
0000
0000
0002
,
0000
0000
0003
0000
,
2000
3200
0320
0032
,
1003
0000
1000
0000
,
0002
0203
0320
2030
,
3000
0000
0002
0023
,
0031
0000
0000
0000
1000
0000
0000
0020
0000
0000
0000
0000
0030
0000
0000
0000
,
1000
0100
0020
0030
,
0001
0000
0000
0000
0100
0000
0000
0000
0010
0000
0000
0000
0000
0000
0000
0200
,
0000
0000
0301
0001
,
0001
1000
0000
1000
,
0000
0010
0000
0010
,
0000
0100
0000
0100
,
0000
0001
0000
0001
,
0000
0010
0000
0010
,
0000
0100
0000
0100
,
0000
1000
0000
1000
,
0000
0010
0000
0010
,
2000
0000
0000
0000
0000
3001
0000
0000
,
0010
0000
0000
0100
0000
0000
1000
0000
,
1000
0000
0000
0000
0000
0000
0000
0010
0000
0000
0000
0000
0000
0100
0000
0000
,
0000
0000
0000
0001
0000
0000
0000
0000
0010
0000
0000
0000
0200
0000
0000
0000
,
2300
3001
0000
0010
,
0000
0001
1000
2000
,
0000
3010
0000
0100
,
0000
0001
0000
0010
,
0002
0000
0000
0000
0000
0000
0000
0000
0000
0003
0000
0000
0002
0000
0000
0000
0000
0000
0003
0000
0000
0100
0000
0000
0000
0000
0000
0000
0000
0000
0000
0000
0000
0000
0000
0000
0000
0000
0000
0000
0000
0000
0000
0000
0000
0000
0020
0000
,
0000
0000
0000
1030
0000
0100
0020
0000
,
0000
0000
0031
0000
0000
0000
0000
0000
1000
0000
0000
0100
0000
0000
0010
0000
,
0000
0000
0002
0003
,
1001
1000
0000
1000
,
0000
0001
0000
0001
,
0000
0100
0000
0100
,
0000
0010
0000
0010
,
1000
0000
0000
0000
,
0000
0001
0000
0001
,
0010
0000
0000
0000
,
0000
0100
0000
0100
,
2000
0010
0000
3010
,
0200
0001
0000
0301
,
0020
0001
0000
0031
,
1000
0000
0000
0000
0001
0000
0000
0000
0010
0000
0000
0000
0000
0000
0000
0002
,
0000
1000
0000
1003
,
0200
0010
0000
0310
,
0002
0100
0000
0103
,
0020
1030
1000
1000
,
2000
0100
0000
3100
,
0020
0100
0000
0130
,
2000
0000
0000
0000
0001
0000
0000
0000
0000
0000
0000
0000
3001
0000
0000
0020
,
0000
0000
0000
0000
0100
0000
0000
0000
0000
0000
0000
0000
0130
0000
0000
2000
,
0000
0000
0000
0000
0000
0000
0000
0000
3100
0000
0000
0000
0010
0000
0000
0002
,
0000
0000
0000
0000
0000
0000
0000
0000
0103
0000
0000
0000
0010
0000
0000
0200
,
0000
0000
0000
0000
0000
0000
0000
0000
0301
0000
0000
0000
0010
0000
0000
0020
,
0000
0000
0032
0000
,
2003
0000
0000
0000
,
3000
0000
0000
0000
;

//---------------dance-single - Bonus----------------
#NOTEDATA:;
#CHARTNAME:Mutational Nightmare;
#STEPSTYPE:dance-single;
#DESCRIPTION:Bonus;
#CHARTSTYLE:;
#DIFFICULTY:Edit;
#METER:9;
#RADARVALUES:0.504098,0.757042,0.108367,0.921116,0.616335,521.000000,505.000000,16.000000,136.000000,61.000000,3.000000,7.000000,0.000000,4.000000,0.504098,0.757042,0.108367,0.921116,0.616335,521.000000,505.000000,16.000000,136.000000,61.000000,3.000000,7.000000,0.000000,4.000000;
#CREDIT:Jaymes "JAiZ" Hayward;
#OFFSET:0.000000;
#BPMS:0.000000=107.125000
;
#STOPS:;
#DELAYS:;
#WARPS:;
#TIMESIGNATURES:0.000000=4=4
;
#TICKCOUNTS:0.000000=4
;
#COMBOS:0.000000=1
;
#SPEEDS:0.000000=1.000000=0.000000=0
,90.750000=0.500000=0.750000=0
,91.500000=1.000000=1.750000=0
,108.000000=0.500000=2.000000=0
,110.000000=1.000000=2.000000=0
,158.000000=1.500000=1.000000=0
,159.000000=1.000000=1.000000=0
,160.000000=0.800000=8.000000=0
,174.000000=1.000000=2.000000=0
,251.750000=1.500000=2.250000=0
,254.000000=1.000000=2.000000=0
;
#SCROLLS:0.000000=1.000000
;
#FAKES:261.000000=3.000000
;
#LABELS:0.000000=Song Start
;
#NOTES:
// measure 0
0000
0000
0000
0000
,  // measure 1
0000
0000
0000
0000
,  // measure 2
0001
0000
0000
0010
0000
0000
0001
0000
0000
0000
0010
0000
0000
0000
0100
0010
,  // measure 3
0001
0000
0000
1000
0000
0000
0001
0000
0100
0000
0010
0000
0000
0000
1000
0100
,  // measure 4
0020
0000
0000
0000
0000
0000
0000
0000
0000
0000
0000
0000
0000
0000
0000
0000
0000
0000
0000
0000
0000
0000
0000
0000
0030
0000
0000
0000
0000
0000
0000
0000
0000
0000
0000
0000
0000
0000
0000
0000
0000
0000
0000
0000
0000
0000
0000
0000
0020
0000
0000
0000
0000
0000
0000
0000
0000
0000
0000
0000
0000
0000
0000
0000
0000
0000
0000
0000
0000
0000
0000
0000
0031
0000
0000
0000
0000
0000
0000
0000
0000
0000
0000
0000
0000
0000
0000
0000
0000
0000
0000
0000
0000
0000
0000
0001
0200
0000
0000
0000
0000
0000
0000
0000
0000
0000
0000
0000
0000
0000
0000
0000
0000
0000
0000
0000
0000
0000
0000
0000
0301
0000
0000
0000
0000
0000
0000
0000
0000
0000
0000
0000
0010
0000
0000
0000
0000
0000
0000
0000
0000
0000
0000
0000
0000
0000
0000
0000
0000
0000
0000
0000
0000
0000
0000
0000
0200
0000
0000
0000
0000
0000
0000
0000
0000
0000
0000
0000
0000
0000
0000
0000
0000
0000
0000
0000
0000
0000
0000
0000
1300
0000
0000
0000
0000
0000
0000
0000
0000
0000
0000
0000
,  // measure 5
0100
0000
0000
0010
0000
0000
0002
0000
0000
0000
0000
0000
1003
0000
0000
0000
0000
0000
0020
0000
0000
0000
0000
0000
0000
0000
0000
0030
0000
0000
0200
0000
0000
0000
0000
0000
0302
0000
0000
0000
0000
0000
0203
0000
0000
0000
0302
0000
,  // measure 6
0000
0000
0000
0000
0000
0000
0000
0000
0000
0000
0000
0000
0000
0000
0000
0000
0000
0000
0000
0000
0000
0000
0000
0000
0000
0000
0000
0000
0000
0000
0000
0000
0000
0000
0000
0000
0000
0000
0000
0000
0000
0000
0000
0000
0000
0000
0000
0000
0003
0000
0000
0000
0000
0000
0000
0000
0000
0000
0000
0000
0000
0000
0000
0000
0000
0000
0000
0000
0000
0000
0000
0000
0001
0200
0000
0000
0000
0000
0000
0000
0000
0000
0000
0000
0000
0000
0000
0000
0000
0000
0000
0000
0000
0000
0000
0000
0301
0000
0000
0000
0000
0000
0000
0000
0000
0000
0000
0000
0000
0000
0000
0000
0000
0000
0000
0000
0000
0000
0000
0000
1000
0000
0000
0000
0000
0000
0000
0000
0000
0000
0000
0000
0000
0000
0000
0000
0000
0000
0000
0000
0000
0000
0000
0000
0020
0000
0000
0000
0000
0000
0000
0000
0000
0000
0000
0000
0000
0000
0000
0000
0000
0000
0000
0000
0000
0000
0000
0000
1030
0000
0000
0000
0000
0000
0000
0000
0000
0000
0000
0000
0002
0000
0000
0000
0000
0000
0000
0000
0000
0000
0000
0000
,  // measure 7
0000
0000
0000
0000
0003
0000
1000
0000
2000
0000
3010
0000
0200
0000
0301
2000
,  // measure 8
0000
0000
3100
0000
0200
0000
0310
0000
0001
0000
1000
0000
0020
0000
1030
0002
,  // measure 9
0000
0000
0003
0000
0002
0000
0203
0000
0320
0000
1030
0000
0200
0000
0310
0002
,  // measure 10
0000
0000
0000
0000
0003
0000
0100
0000
0020
0000
1030
0000
0100
0000
0010
0002
,  // measure 11
0000
0000
0000
0000
0003
0000
1M00
00M1
0000
M100
001M
0000
1000
0000
0001
0000
,  // measure 12
0020
0230
2300
3200
,  // measure 13
0320
0032
0023
0230
2300
0000
0000
0000
,  // measure 14
3002
0000
0000
0000
0203
0000
0320
0000
0130
0000
0001
0000
1000
0000
0100
0020
,  // measure 15
0000
0000
0230
2000
,  // measure 16
3310
0000
2000
0000
3100
0000
1000
0002
0000
0000
0000
0000
0000
0003
0200
0000
,  // measure 17
0310
0000
1000
0000
0200
0000
1300
0000
0002
0000
0000
0000
0103
0010
2000
0000
,  // measure 18
3002
0000
0000
0003
0101
0000
0202
0303
2002
0000
0000
3003
0001
0000
0010
0002
,  // measure 19
0000
0000
0000
0003
100M
0M10
010M
M001
,  // measure 20
2000
0000
0000
3002
0203
0300
0001
0200
0320
0000
0000
0030
0010
1000
0100
0010
,  // measure 21
0200
0000
0000
0300
0100
1000
0001
1000
0001
0100
0020
0000
0000
0000
0030
0000
,  // measure 22
2000
0000
0000
0000
0000
0000
0000
0000
0000
0000
0000
0000
0000
0000
0000
0000
0000
0000
0000
0000
0000
0000
0000
0000
3001
0000
0000
0000
0000
0000
0000
0000
0000
0000
0000
0000
2000
0000
0000
0000
0000
0000
0000
0000
0000
0000
0000
0000
0000
0000
0000
0000
0000
0000
0000
0000
0000
0000
0000
0000
3001
0000
0000
0000
0000
0000
0000
0000
0000
0000
0000
0000
0001
0020
0000
0000
0000
0000
0000
0000
0000
0000
0000
0000
0000
0000
0000
0000
0000
0000
0000
0000
0000
0000
0000
0000
0031
0000
0000
0000
0000
0000
0000
0000
0000
0000
0000
0000
0100
0000
0000
0000
0000
0000
0000
0000
0000
0000
0000
0000
0010
0000
0000
0000
0000
0000
0000
0000
0000
0000
0000
0000
4000
0000
0000
0000
0000
0000
0000
0000
0000
0000
0000
0000
0000
0000
0000
0000
0000
0000
0000
0000
0000
0000
0000
0000
0000
0000
0000
0000
0000
0000
0000
0000
0000
0000
0000
0000
0000
0000
0000
0000
0000
0000
0000
0000
0000
0000
0000
0000
0000
0000
0000
0000
0000
0000
0000
0000
0000
0000
0000
0000
,  // measure 23
0000
0000
0000
0000
3000
0000
0002
0000
1003
0100
0010
0002
0000
0013
0002
0000
,  // measure 24
1003
0000
0001
0200
0000
0310
1000
0000
0001
0200
0000
0310
1000
0000
0001
0000
,  // measure 25
0020
0002
0000
0000
0000
0000
0000
0000
0000
0000
0000
0000
0000
0000
0000
0000
0000
0000
0000
0000
0000
0000
0000
0000
0033
0000
0000
0000
0000
0000
0000
0000
1000
0000
0000
0000
0010
0000
0000
0000
1000
0000
0000
0000
0010
0000
0000
0000
1000
0000
0000
0000
0010
0000
0000
0000
0100
0000
0000
0000
0001
0000
0000
0000
,  // measure 26
0200
0000
0000
0000
0000
0300
0100
0000
0001
0010
0000
0200
2300
3000
0010
0000
,  // measure 27
0020
0000
0000
0000
0000
0000
0000
0030
4000
0000
0000
0000
0000
0000
0000
0000
,  // measure 28
3200
0000
0000
0000
0000
0000
0000
0000
0300
0000
1000
0000
0010
0200
0000
0000
,  // measure 29
0310
0000
1000
0002
0000
0000
1003
0000
0010
0200
0000
0000
0310
0000
1000
0000
,  // measure 30
0100
2000
0000
0000
0000
0000
0000
0000
0000
0000
0000
0000
0000
0000
0000
0000
0000
0000
0000
0000
0000
0000
0000
0000
0000
0000
0000
0000
0000
0000
0000
0000
0000
0000
0000
0000
0000
0000
0000
0000
0000
0000
0000
0000
0000
0000
0000
0000
3000
0000
0000
0000
0000
0000
0000
0000
0000
0000
0000
0000
0000
0000
0000
0000
0000
0000
0000
0000
0000
0000
0000
0000
0001
0000
0000
0000
0000
0000
0000
0000
0000
0000
0000
0000
1000
0000
0000
0000
0000
0000
0000
0000
0000
0000
0000
0000
0000
0000
0000
0000
0000
0000
0000
0000
0000
0000
0000
0000
0100
0000
0000
0000
0000
0000
0000
0000
0000
0000
0000
0000
2000
0000
0000
0000
0000
0000
0000
0000
0000
0000
0000
0000
0000
0000
0000
0000
0000
0000
0000
0000
0000
0000
0000
0000
3001
0000
0000
0000
0000
0000
0000
0000
0000
0000
0000
0000
1000
0000
0000
0000
0000
0000
0000
0000
0000
0000
0000
0000
0000
0000
0000
0000
0000
0000
0000
0000
0000
0000
0000
0000
0010
0000
0000
0000
0000
0000
0000
0000
0000
0000
0000
0000
,  // measure 31
2000
0000
3100
0010
0000
0001
0200
0000
0302
0000
0003
0000
2000
0000
0000
0000
,  // measure 32
3200
0000
0000
0000
0310
0000
0001
0000
1000
0000
0001
0010
0100
1000
0001
0010
,  // measure 33
0100
1000
0001
0010
0100
1000
0001
1000
0020
0000
2030
0000
3200
0000
1300
0002
,  // measure 34
0000
0000
0003
1000
0010
0100
0001
1000
0010
0100
0001
1000
0010
0100
0001
0010
,  // measure 35
0100
1000
0010
0100
0010
1000
0100
0010
0001
0000
0100
0010
0000
0100
0002
0000
,  // measure 36
4003
0000
0000
0000
0000
0000
0000
0000
0000
0000
0000
0000
0000
0000
0000
0000
0000
0000
0000
0000
0000
0000
0000
0000
3000
0000
0000
0000
0000
0000
0000
0000
0000
0000
0000
0000
0000
0000
0000
0000
0000
0000
0000
0000
0000
0000
0000
0000
2000
0000
0000
0000
0000
0000
0000
0000
0000
0000
0000
0000
0000
0000
0000
0000
0000
0000
0000
0000
0000
0000
0000
0000
0000
0000
0000
0000
0000
0000
0000
0000
0000
0000
0000
0000
3200
0000
0000
0000
0000
0000
0000
0000
0000
0000
0000
0000
0000
0000
0000
0000
0000
0000
0000
0000
0000
0000
0000
0000
0000
0000
0000
0000
0000
0000
0000
0000
0000
0000
0000
0000
0320
0000
0000
0000
0000
0000
0000
0000
0000
0000
0000
0000
0030
0000
0000
0000
0000
0000
0000
0000
0000
0000
0000
0000
1000
0000
0000
0000
0000
0000
0000
0000
0000
0000
0000
0000
0000
0000
0000
0000
0000
0000
0000
0000
0000
0000
0000
0000
0010
0000
0000
0000
0000
0000
0000
0000
0000
0000
0000
0000
0000
0000
0000
0000
0010
0200
0000
0000
0000
0000
0000
0000
,  // measure 37
0000
0000
0000
0000
0300
0000
1000
0002
0000
0000
0203
0000
0301
0020
0000
0130
,  // measure 38
1000
0001
2000
0000
0000
0000
3000
0000
0001
0010
M000
01M0
2000
3M00
1000
0001
,  // measure 39
00M0
0M01
0020
M000
0000
0030
0202
0303
2020
0000
0000
3030
0404
0000
0000
0303
,  // measure 40
M001
M000
M010
M000
M100
M000
M010
0000
M100
0000
M010
0000
M001
0000
M100
0000
M010
0000
0100
0000
M010
0000
0100
0000
0001
0000
1000
0000
0010
0000
1000
0000
,  // measure 41
0100
0010
0001
0100
0001
0010
0100
1000
0010
0100
0001
1000
0001
0010
0001
1000
,  // measure 42
0010
1000
0001
0100
0001
1000
0010
1000
0100
0010
0001
0100
0010
1000
0100
0010
,  // measure 43
0001
0100
0010
0100
0001
1000
0100
0010
0100
1000
0001
0100
0010
0100
0001
1000
,  // measure 44
2020
3030
0000
0000
0000
0000
2002
3003
0000
0000
0000
0000
0001
0000
0000
0000
0000
0000
1000
0000
0001
0000
0000
0000
0100
0000
0010
0000
0000
0000
1000
0000
,  // measure 45
0000
0101
1010
0000
1001
0000
0000
0000
0000
1010
0101
0000
0110
0000
0000
0000
,  // measure 46
0002
0000
0000
1103
0000
0000
0001
0000
0000
1000
0010
0000
1000
0100
1000
0000
,  // measure 47
0001
0100
0000
0010
1000
0000
0001
0010
0000
0100
1000
0000
0010
0000
0100
0000
,  // measure 48
0002
0000
1000
1000
0MM0
0000
1000
1000
1000
0000
1000
0000
0MM0
0000
1000
1003
,  // measure 49
0020
0000
0100
0100
M00M
0000
0100
0100
0100
0100
0100
0000
M00M
0000
0130
0000
,  // measure 50
0002
0000
0000
0000
0010
0000
0010
0000
MM00
0000
0000
0000
0010
0000
0010
0000
0010
0000
0000
0000
0010
0000
0000
0000
MM43
0M00
0M00
0M00
0M00
0M00
0M00
0M00
,  // measure 51
0230
0000
0000
0000
2300
0000
3010
0000
2000
0000
3010
0000
0100
0000
0001
2000
,  // measure 52
0010
0000
0010
0010
0M0M
0000
0010
0010
001M
0000
0010
0000
0M0M
0000
0010
3010
,  // measure 53
2000
0000
3000
1000
0100
0000
0010
0000
0002
0003
0010
0100
2000
0000
3010
0000
,  // measure 54
2000
0000
0000
0000
3000
0000
1000
0000
0002
0000
0103
0010
1000
0000
0100
0000
,  // measure 55
2000
0000
0000
0000
0000
0000
0000
3000
0001
0010
0100
1000
0001
0100
0010
1000
,  // measure 56
0002
0000
0100
0100
M0M0
0000
0100
0100
0100
0000
0100
0000
M0M0
0000
0100
0100
,  // measure 57
0203
0000
0010
0010
M00M
0000
0010
0010
0010
0010
0010
0000
M00M
0000
0010
0000
,  // measure 58
0320
0000
1000
1000
0M00
0000
1000
1000
1M30
0000
0001
0000
0010
0000
0100
1000
,  // measure 59
0000
0001
0100
0000
0002
0000
0000
0000
0003
0000
1000
0000
0100
0000
0010
0002
,  // measure 60
0000
0000
0000
0000
0003
0000
0001
0000
2000
0000
3100
0000
0020
0000
0031
0020
,  // measure 61
0000
0000
0000
0000
0030
0000
0010
0000
0020
0030
0010
0000
0100
0000
0010
0002
,  // measure 62
0000
0000
0000
0000
0000
0000
0000
0000
0000
0000
0000
0000
0000
0000
0000
0000
0000
0000
0000
0000
0000
0000
0000
0000
0000
0000
0000
0000
0000
0000
0000
0000
0000
0000
0000
0000
0000
0000
0000
0000
0000
0000
0000
0000
0000
0000
0000
0000
0003
0000
0000
0000
0000
0000
0000
0000
0000
0000
0000
0000
0000
0000
0000
0000
0000
0000
0000
0000
0000
0000
0000
0000
0001
0000
0000
0000
0000
0000
0000
0000
0000
0000
0000
0000
0000
0000
0000
0000
0000
0000
0000
0000
0000
0000
0000
0000
0001
2000
0000
0000
0000
0000
0000
0000
0000
0000
0000
0000
0000
0000
0000
0000
0000
0000
0000
0000
0000
0000
0000
0000
3010
0000
0000
0000
0000
0000
0000
0000
0000
0000
0000
0000
1000
0000
0000
0000
0000
0000
0000
0000
0000
0000
0000
0000
0100
0000
0000
0000
0000
0000
0000
0000
0000
0000
0000
0000
0010
0000
0000
0000
0000
0000
0000
0000
0000
0000
0000
0000
0000
0000
0000
0000
0000
0000
0000
0000
0000
0000
0000
0000
0020
0000
0000
0000
0000
0000
0000
0000
0000
0000
0000
0000
,  // measure 63
0000
0000
0000
0000
0000
0000
0000
0030
0400
0000
0000
0000
0000
0000
0000
0000
,  // measure 64
2302
0000
0000
0000
,  // measure 65
3003
0000
M00M
0MM0
;
