#VERSION:0.83;
#TITLE:Cheer Me Up;
#SUBTITLE:;
#ARTIST:Frantiszek;
#TITLETRANSLIT:;
#SUBTITLETRANSLIT:;
#ARTISTTRANSLIT:;
#GENRE:;
#ORIGIN:;
#CREDIT:;
#BANNER:;
#BACKGROUND:;
#PREVIEWVID:;
#JACKET:;
#CDIMAGE:;
#DISCIMAGE:;
#LYRICSPATH:;
#CDTITLE:;
#MUSIC:Frantiszek - Cheer me up.ogg;
#OFFSET:0.000000;
#SAMPLESTART:120.000000;
#SAMPLELENGTH:15.000015;
#SELECTABLE:YES;
#BPMS:0.000=128.000;
#STOPS:;
#DELAYS:;
#WARPS:;
#TIMESIGNATURES:0.000=4=4;
#TICKCOUNTS:0.000=4;
#COMBOS:0.000=1;
#SPEEDS:0.000=1.000=0.000=0;
#SCROLLS:0.000=1.000;
#FAKES:129.500=30.000;
#LABELS:0.000=Song Start;
#BGCHANGES:;
#KEYSOUNDS:;
#ATTACKS: TIME=74.56:LEN=0.47:MODS=*3 0% Mini,*3 0% Flip;

//---------------dance-single - ----------------
#NOTEDATA:;
#CHARTNAME:Be My Best Friend;
#STEPSTYPE:dance-single;
#DESCRIPTION:;
#CHARTSTYLE:;
#DIFFICULTY:Challenge;
#METER:9;
#RADARVALUES:0.554733,0.636150,0.000000,0.000000,0.714580,557.000000,557.000000,0.000000,0.000000,30.000000,0.000000,0.000000,0.000000,0.000000,0.554733,0.636150,0.000000,0.000000,0.714580,557.000000,557.000000,0.000000,0.000000,30.000000,0.000000,0.000000,0.000000,0.000000;
#CREDIT:Harris Kalat;
#OFFSET:0.000000;
#BPMS:0.000000=128.000000
;
#STOPS:;
#DELAYS:;
#WARPS:;
#TIMESIGNATURES:0.000000=4=4
;
#TICKCOUNTS:0.000000=4
;
#COMBOS:0.000000=1
;
#SPEEDS:0.000000=1.000000=0.000000=0
,118.000000=3.000000=10.000000=0
,128.000000=0.250000=4.000000=0
,158.000000=0.750000=2.000000=0
,191.000000=1.000000=1.000000=0
;
#SCROLLS:0.000000=1.000000
;
#FAKES:;
#LABELS:0.000000=Song Start
;
#ATTACKS:TIME=74.56:LEN=0.47:MODS=*3 0% Mini,*3 0% Flip:TIME=74.559998:LEN=0.470000:MODS=*3 0% Mini,*3 0% Flip:TIME=60.029999:LEN=12.000000:MODS=3x;
#NOTES:
// measure 0
0000
0000
0000
0000
,  // measure 1
0000
0000
0000
0000
,  // measure 2
0000
0001
1000
0001
1000
0000
0000
0000
0000
0100
0010
0100
0010
0000
0000
0000
,  // measure 3
0000
0001
0100
0001
0100
0000
0000
0000
0000
0010
1000
0010
1000
0000
0000
0000
,  // measure 4
0001
0010
0100
0010
0001
0000
0100
0000
0010
0100
0001
0100
0010
0000
1000
0000
,  // measure 5
0001
1000
0100
1000
0001
0000
0010
0000
0001
1000
0010
1000
0001
0000
0010
0000
,  // measure 6
0001
0100
0010
0100
0001
0000
1000
0000
0100
0010
0001
0010
0100
0000
0010
0000
,  // measure 7
0001
1000
0100
1000
0001
0000
0100
0000
0001
1000
0100
1000
0001
0000
0010
0000
,  // measure 8
0001
1000
0100
1000
0010
0000
0100
0000
0001
0010
0001
0100
0001
0000
1000
0000
,  // measure 9
0100
1000
0001
1000
0010
0000
0100
0000
0001
1000
0010
1000
0100
0000
0010
0000
,  // measure 10
0001
0000
0001
0100
0010
0000
1000
0000
0100
1000
0001
1000
0010
0000
0100
0000
,  // measure 11
0001
0000
0001
0010
0100
0000
1000
0000
0001
0010
0001
0100
0001
0000
1000
0000
,  // measure 12
0001
0100
0001
0010
0100
0000
1000
0000
0010
1000
0001
1000
0100
0000
0010
0000
,  // measure 13
0001
1000
0100
1000
0010
0000
0100
0000
0001
1000
0010
1000
0100
0000
1000
0000
,  // measure 14
0010
0000
0010
0100
0001
0000
1000
0000
0100
1000
0010
1000
0001
0000
0010
0000
,  // measure 15
0100
0000
0100
1000
0001
0000
0001
0000
0100
0010
0100
0010
1000
0000
1000
0000
,  // measure 16
0001
0100
0000
0010
0000
0010
0000
1000
0000
0100
0000
1000
0001
0000
0100
0000
,  // measure 17
0010
1000
0000
0001
0000
0001
0000
0010
0000
0100
0000
1000
0010
0000
0100
0000
,  // measure 18
0001
1000
0000
0100
0000
0100
0000
1000
0000
0010
0000
1000
0001
0000
0010
0000
,  // measure 19
0100
1000
0000
0001
0000
0001
0000
0100
0000
0010
0000
1000
0100
0000
0010
0000
,  // measure 20
0001
0100
0000
0010
0000
0010
0000
1000
0000
0100
0000
1000
0001
0000
0100
0000
,  // measure 21
0010
0100
0000
0001
0000
0001
0000
0010
0000
0001
0000
0100
0010
0000
1000
0000
,  // measure 22
0100
0010
0000
0001
0000
0001
0000
1000
0000
0010
0000
0100
0010
0000
1000
0000
,  // measure 23
0001
0010
0000
0100
0000
0100
0000
1000
0000
0001
0000
0010
0001
0000
1000
0000
,  // measure 24
0001
0100
0000
0010
0000
0010
0000
0100
0000
1000
0000
0100
0001
0000
1000
0000
,  // measure 25
0001
0010
0000
0100
0000
0100
0000
0010
0000
1000
0000
0010
0100
0000
1000
0000
,  // measure 26
0010
0100
0000
0001
0000
0001
0000
0100
0000
1000
0000
0100
0010
0000
1000
0000
,  // measure 27
0100
0010
0000
0001
0000
0001
0000
1000
0000
0100
0000
0001
0100
0000
0010
0000
,  // measure 28
0001
1000
0000
0010
0000
0010
0100
0000
0001
1000
0010
0000
0010
0100
0001
0000
,  // measure 29
1000
0100
0000
0010
0000
0010
0001
0000
M000
0000
0000
0000
M000
0000
0000
0000
,  // measure 30
000M
0000
000M
0000
,  // measure 31
0M00
0000
0M00
0000
,  // measure 32
00M0
0000
00M0
0000
,  // measure 33
M000
0000
M000
0000
,  // measure 34
0M00
0000
0M00
0000
,  // measure 35
000M
0000
000M
0000
,  // measure 36
00M0
0000
00M0
0000
,  // measure 37
M000
0000
M000
0000
,  // measure 38
000M
0000
000M
0000
,  // measure 39
00M0
0000
00M0
0000
,  // measure 40
0001
0000
0100
0000
0010
0000
1000
0000
0001
0000
0010
0001
0000
0001
0100
0000
,  // measure 41
0010
0000
0000
1000
0000
0000
0001
0000
0100
0000
0000
0000
0010
0000
1000
0000
,  // measure 42
0100
0000
1000
0000
0001
0000
0100
0000
0010
0000
1000
0001
0000
0001
0100
0000
,  // measure 43
0010
0000
0000
1000
0000
0000
0001
0000
0010
0000
0000
0000
0001
0000
1000
0000
,  // measure 44
0100
0000
1000
0000
0000
0000
1000
0000
0010
0000
1000
0001
0000
0010
0001
0000
,  // measure 45
0100
0000
0000
0010
0000
1000
0100
0000
0010
0000
0000
0000
0001
0000
0100
0000
,  // measure 46
0010
0000
0000
0000
1000
0000
0100
0000
0010
0001
0000
0001
1000
0000
0100
0000
,  // measure 47
1000
0000
0000
0001
0000
0000
0100
0000
0010
0000
0000
1000
0100
0000
1000
0000
,  // measure 48
0001
0000
0100
0000
0010
0000
1000
0000
0001
0010
0001
1000
0100
0010
0001
0000
,  // measure 49
1000
0000
0010
0000
0010
0000
0100
0000
0001
0010
0001
1000
0001
0100
0010
0000
,  // measure 50
1000
0000
0001
0000
1000
0000
0100
0000
1000
0001
0010
0001
0100
0001
1000
0000
,  // measure 51
0010
0000
0100
0000
0100
0000
0001
0000
1000
0100
0010
0001
1000
0001
0100
0000
,  // measure 52
0010
0000
1000
0000
0001
0000
0010
0000
0001
0100
0010
1000
0001
1000
0100
0000
,  // measure 53
1000
0000
0001
0100
0001
0010
0001
0000
1000
0100
1000
0010
0100
0001
0010
0000
,  // measure 54
0001
0000
0000
0001
1000
0000
1000
0000
0010
0000
0000
0010
1000
0000
1000
0000
,  // measure 55
0100
0000
0000
0100
0010
0000
0010
0000
0001
0000
0000
0001
1000
0000
1000
0000
,  // measure 56
0001
0000
0100
0000
0001
0000
0010
0000
0100
0000
1000
0001
0000
0001
0100
0000
,  // measure 57
0010
0000
0000
1000
0000
0000
0100
0000
1000
0001
1000
0001
0100
0000
0010
0000
,  // measure 58
1000
0000
0100
0000
1000
0000
0001
0000
0010
0000
0001
0100
0000
0100
0010
0000
,  // measure 59
1000
0000
0000
0001
0000
0000
0010
0000
0001
1000
0001
0100
0010
0000
1000
0000
,  // measure 60
0100
0000
1000
0001
1000
0000
0010
0000
0100
0000
0001
0010
0000
0001
1000
0000
,  // measure 61
0010
0000
0000
0100
0000
0100
0001
0000
1000
0100
0010
0001
1000
0000
0001
0000
,  // measure 62
0100
0000
0001
0000
0010
0000
0100
0000
1000
0010
0000
0010
0100
0000
0001
0000
,  // measure 63
1000
0000
0000
0100
0000
0000
0010
0000
0001
0000
0000
0001
0100
0000
0010
0000
,  // measure 64
1000
0000
0100
0000
0001
0000
0100
0000
0010
0000
0001
1000
0000
1000
0010
0000
,  // measure 65
0100
0000
0000
0001
0000
0000
1000
0000
0100
0000
0000
0000
1000
0000
0010
0000
,  // measure 66
0100
0000
1000
0000
0100
0000
0001
0000
0010
0000
0100
1000
0000
1000
0001
0000
,  // measure 67
0100
0000
0000
0010
0000
0000
1000
0000
0100
0000
0000
0000
1000
0000
0001
0000
,  // measure 68
0100
0000
1000
0000
0100
0000
0010
0000
1000
0000
0100
1000
0000
0001
0100
0000
,  // measure 69
0010
0000
0000
1000
0000
1000
0001
0000
0010
0000
0000
0000
0001
0000
1000
0000
,  // measure 70
0010
0000
0000
0000
0100
0000
0001
0000
1000
0100
0000
0100
0010
0000
0001
0000
,  // measure 71
1000
0000
0000
0010
0000
0000
0100
0000
0001
0000
0000
0001
0010
0000
0100
0000
,  // measure 72
0M00
M000
M000
000M
0M00
0000
0M00
00M0
,  // measure 73
M000
0000
0000
0000
;

//---------------dance-single - ----------------
#NOTEDATA:;
#CHARTNAME:Help Me Out;
#STEPSTYPE:dance-single;
#DESCRIPTION:;
#CHARTSTYLE:;
#DIFFICULTY:Beginner;
#METER:1;
#RADARVALUES:0.102581,0.149539,0.013943,0.000000,0.000000,103.000000,101.000000,2.000000,0.000000,0.000000,0.000000,0.000000,0.000000,0.000000,0.102581,0.149539,0.013943,0.000000,0.000000,103.000000,101.000000,2.000000,0.000000,0.000000,0.000000,0.000000,0.000000,0.000000;
#CREDIT:Harris Kalat;
#NOTES:
// measure 0
0000
0000
0000
0000
,  // measure 1
0000
0000
0000
0000
,  // measure 2
0001
0000
0001
0000
,  // measure 3
0010
0000
0010
0000
,  // measure 4
0001
0000
0001
0000
,  // measure 5
0100
0000
0100
0000
,  // measure 6
0010
0000
0010
0000
,  // measure 7
1000
0000
1000
0000
,  // measure 8
0001
0000
0001
0000
,  // measure 9
1000
0000
1000
0000
,  // measure 10
0100
0000
0100
0000
,  // measure 11
0010
0000
0010
0000
,  // measure 12
0001
0000
0001
0000
,  // measure 13
0001
0000
0001
0000
,  // measure 14
0001
0000
0001
0000
,  // measure 15
0001
0000
0001
0000
,  // measure 16
1000
0000
0000
0000
,  // measure 17
0010
0000
0000
0000
,  // measure 18
0100
0000
0000
0000
,  // measure 19
0001
0000
0001
0000
,  // measure 20
0001
0000
0000
0000
,  // measure 21
0010
0000
0000
0000
,  // measure 22
0100
0000
0000
0000
,  // measure 23
1000
0000
0001
0000
,  // measure 24
1000
0000
0000
0000
,  // measure 25
0010
0000
0000
0000
,  // measure 26
0100
0000
0000
0000
,  // measure 27
0001
0000
0000
0000
,  // measure 28
0000
0000
0000
0000
,  // measure 29
0000
0000
0000
0000
,  // measure 30
0000
0000
0000
0000
,  // measure 31
0000
0000
0000
0000
,  // measure 32
1001
0000
0000
0000
,  // measure 33
0000
0000
0000
0000
,  // measure 34
0000
0000
0000
0000
,  // measure 35
0000
0000
0000
0000
,  // measure 36
0000
0000
0000
0000
,  // measure 37
0000
0000
0000
0000
,  // measure 38
0000
0000
0000
0000
,  // measure 39
0000
0000
0000
0000
,  // measure 40
1000
0000
1000
0000
,  // measure 41
0001
0000
0000
0000
,  // measure 42
1000
0000
1000
0000
,  // measure 43
0010
0000
0000
0000
,  // measure 44
1000
0000
0001
0000
,  // measure 45
1000
0000
0000
0000
,  // measure 46
0001
0000
0100
0000
,  // measure 47
0100
0000
0010
0000
,  // measure 48
1001
0000
1000
0000
,  // measure 49
0100
0000
0100
0000
,  // measure 50
0010
0000
0001
0000
,  // measure 51
1000
0000
1000
0000
,  // measure 52
0010
0000
0100
0000
,  // measure 53
0001
0000
0001
0000
,  // measure 54
0010
0000
0100
0000
,  // measure 55
1000
0000
1000
0000
,  // measure 56
0001
0000
0000
0000
,  // measure 57
0100
0000
0100
0000
,  // measure 58
0010
0000
0000
0000
,  // measure 59
1000
0000
0001
0000
,  // measure 60
1000
0000
0000
0000
,  // measure 61
0100
0000
0010
0000
,  // measure 62
0100
0000
1000
0000
,  // measure 63
0001
0000
0100
0000
,  // measure 64
0010
0000
0010
0000
,  // measure 65
1000
0000
1000
0000
,  // measure 66
0001
0000
0001
0000
,  // measure 67
0010
0000
0010
0000
,  // measure 68
0001
0000
0001
0000
,  // measure 69
0100
0000
0100
0000
,  // measure 70
0010
0000
1000
0000
,  // measure 71
1000
0000
0001
0000
;

//---------------dance-single - ----------------
#NOTEDATA:;
#CHARTNAME:Motivate Me;
#STEPSTYPE:dance-single;
#DESCRIPTION:;
#CHARTSTYLE:;
#DIFFICULTY:Easy;
#METER:3;
#RADARVALUES:0.195202,0.225093,0.006972,0.000000,0.000000,196.000000,195.000000,1.000000,0.000000,0.000000,0.000000,0.000000,0.000000,0.000000,0.195202,0.225093,0.006972,0.000000,0.000000,196.000000,195.000000,1.000000,0.000000,0.000000,0.000000,0.000000,0.000000,0.000000;
#CREDIT:Harris Kalat;
#ATTACKS:TIME=74.56:LEN=0.47:MODS=*3 0% Mini,*3 0% Flip;
#NOTES:
// measure 0
0000
0000
0000
0000
,  // measure 1
0000
0000
0000
0000
,  // measure 2
0001
0010
0100
1000
,  // measure 3
0010
0100
0001
0010
,  // measure 4
0001
1000
0010
0100
,  // measure 5
0001
0010
0001
0100
,  // measure 6
0010
1000
0100
1000
,  // measure 7
0010
1000
0100
0010
,  // measure 8
0001
0100
0001
1000
,  // measure 9
0001
0010
0001
1000
,  // measure 10
0010
1000
0001
1000
,  // measure 11
0100
1000
0001
1000
,  // measure 12
0010
1000
0001
1000
,  // measure 13
0100
0010
0001
1000
,  // measure 14
0010
0100
0001
1000
,  // measure 15
0100
0010
0001
1000
,  // measure 16
0100
0010
0001
1000
,  // measure 17
0001
0100
0100
0010
,  // measure 18
1000
0100
0100
0010
,  // measure 19
0001
1000
1000
0010
,  // measure 20
0100
0001
0001
1000
,  // measure 21
0100
1000
1000
0010
,  // measure 22
0100
0001
0001
0010
,  // measure 23
0001
1000
1000
0010
,  // measure 24
0100
0001
0001
1000
,  // measure 25
0001
0100
0010
0010
,  // measure 26
1000
0100
0010
0010
,  // measure 27
0001
1000
0010
0010
,  // measure 28
0100
0001
0010
0010
,  // measure 29
0100
1000
0001
0001
,  // measure 30
0100
0010
0000
0000
,  // measure 31
0000
0000
0000
0000
,  // measure 32
1001
0000
0000
0000
,  // measure 33
0000
0000
0000
0000
,  // measure 34
0000
0000
0000
0000
,  // measure 35
0000
0000
0000
0000
,  // measure 36
0000
0000
0000
0000
,  // measure 37
0000
0000
0000
0000
,  // measure 38
0000
0000
0000
0000
,  // measure 39
0000
0000
0000
0000
,  // measure 40
1000
0000
0100
0000
,  // measure 41
0010
0000
0100
0000
,  // measure 42
1000
0000
0001
0000
,  // measure 43
0100
0000
0010
0000
,  // measure 44
1000
0000
0001
0000
,  // measure 45
0010
0000
0001
0000
,  // measure 46
0100
0000
0010
0000
,  // measure 47
1000
0000
0001
0000
,  // measure 48
1000
0000
1000
0000
,  // measure 49
0100
0000
0010
0000
,  // measure 50
0001
0000
0001
0000
,  // measure 51
0100
0000
0010
0000
,  // measure 52
1000
0000
0001
0000
,  // measure 53
0001
0000
0010
0000
,  // measure 54
0100
0000
1000
0000
,  // measure 55
0001
0000
0100
0000
,  // measure 56
0010
1000
0001
0100
,  // measure 57
0010
0000
1000
0000
,  // measure 58
0001
0010
0100
1000
,  // measure 59
0001
0000
0010
0000
,  // measure 60
0001
1000
0100
1000
,  // measure 61
0010
0000
0100
0000
,  // measure 62
0001
0000
0010
0000
,  // measure 63
0001
0000
1000
0010
,  // measure 64
0100
0001
0010
0100
,  // measure 65
1000
0000
0001
0000
,  // measure 66
1000
0100
0010
0001
,  // measure 67
0100
0000
0010
0000
,  // measure 68
1000
0001
0100
0001
,  // measure 69
0010
0000
0001
0000
,  // measure 70
1000
0000
0010
0100
,  // measure 71
0001
0010
0001
1000
;

//---------------dance-single - ----------------
#NOTEDATA:;
#CHARTNAME:Stir Some Excitement;
#STEPSTYPE:dance-single;
#DESCRIPTION:;
#CHARTSTYLE:;
#DIFFICULTY:Hard;
#METER:8;
#RADARVALUES:0.444185,0.576239,0.013943,0.000000,0.292803,446.000000,444.000000,2.000000,0.000000,0.000000,0.000000,0.000000,0.000000,0.000000,0.444185,0.576239,0.013943,0.000000,0.292803,446.000000,444.000000,2.000000,0.000000,0.000000,0.000000,0.000000,0.000000,0.000000;
#CREDIT:Harris Kalat;
#OFFSET:0.000000;
#BPMS:0.000000=128.000000
;
#STOPS:;
#DELAYS:;
#WARPS:;
#TIMESIGNATURES:0.000000=4=4
;
#TICKCOUNTS:0.000000=4
;
#COMBOS:0.000000=1
;
#SPEEDS:0.000000=1.000000=0.000000=0
,128.000000=0.100000=4.000000=0
,156.000000=1.000000=4.000000=0
;
#SCROLLS:0.000000=1.000000
;
#FAKES:129.500000=30.000000
;
#LABELS:0.000000=Song Start
;
#ATTACKS:TIME=74.56:LEN=0.47:MODS=*3 0% Mini,*3 0% Flip;
#NOTES:
// measure 0
0000
0000
0000
0000
,  // measure 1
0000
0000
0000
0000
,  // measure 2
0000
0001
0010
0001
0010
0000
0000
0000
0000
0100
1000
0100
1000
0000
0000
0000
,  // measure 3
0000
0010
0100
0010
0100
0000
0000
0000
0000
0001
1000
0001
1000
0000
0000
0000
,  // measure 4
0001
0000
0001
0100
0010
0000
1000
0000
0100
0000
0100
0010
0001
0000
1000
0000
,  // measure 5
0010
0000
0010
0100
0001
0000
0010
0000
0100
0000
0100
1000
0001
0000
0100
0000
,  // measure 6
0010
0000
0010
1000
0001
0000
0010
0000
0001
0000
0001
0100
0010
0000
1000
0000
,  // measure 7
0100
0000
0100
0010
0001
0000
0100
0000
0010
0000
0010
1000
0100
0000
1000
0000
,  // measure 8
0001
0100
0010
0010
1000
0100
0001
0100
,  // measure 9
0010
0001
1000
1000
0010
0001
0010
0100
,  // measure 10
0001
0010
0100
0100
1000
0010
0001
0010
,  // measure 11
1000
0001
1000
1000
0001
0010
1000
0010
,  // measure 12
0100
0000
0100
1000
0001
0000
0100
0000
0010
0000
0010
1000
0001
0000
0010
0000
,  // measure 13
0001
0000
0001
0100
0010
0000
1000
0000
0100
0000
0100
0010
0001
0000
1000
0000
,  // measure 14
0001
0000
0001
0100
0010
0000
1000
0000
0100
0000
0100
1000
0001
0000
0100
0000
,  // measure 15
0010
0000
0010
1000
0001
0000
0010
0000
0001
0100
0001
0100
0010
0000
1000
0000
,  // measure 16
1001
0001
0100
1000
0100
0001
0010
0001
,  // measure 17
1000
0010
0001
0010
0100
0001
1000
0001
,  // measure 18
0100
0010
1000
0100
0001
0100
0010
0001
,  // measure 19
1000
0010
0100
1000
0100
0001
0010
0100
,  // measure 20
1000
0001
0100
1000
0100
0010
1000
0001
,  // measure 21
0010
1000
0010
0100
1000
0001
1000
0010
,  // measure 22
0100
0001
0010
0001
0100
1000
0100
0010
,  // measure 23
1000
0100
1000
0010
0001
0010
0100
0001
,  // measure 24
1000
0100
0000
1000
0000
1000
0000
0001
0000
0010
0000
0100
1000
0000
0001
0000
,  // measure 25
0100
0010
0000
0100
0000
0100
0000
0001
0000
1000
0000
0010
0100
0000
0001
0000
,  // measure 26
1000
0100
0000
1000
0000
1000
0000
0010
0000
0100
0000
0010
1000
0000
0001
0000
,  // measure 27
0010
0100
0000
0010
0000
0010
0000
0001
0000
0010
0000
0100
1000
0000
0010
0000
,  // measure 28
1000
0001
0000
0100
0000
0100
0010
0000
1000
0000
0001
0000
0010
0000
0001
0000
,  // measure 29
0100
0010
0000
1000
0000
0000
0000
0000
0000
0000
0000
0000
0000
0000
0000
0000
,  // measure 30
0000
0000
0000
0000
,  // measure 31
0000
0000
0000
0000
,  // measure 32
0011
0000
0000
0000
,  // measure 33
0000
0000
0000
0000
,  // measure 34
0000
0000
0000
0000
,  // measure 35
0000
0000
0000
0000
,  // measure 36
0000
0000
0000
0000
,  // measure 37
0000
0000
0000
0000
,  // measure 38
0000
0000
0000
0000
,  // measure 39
0000
0000
0000
0000
,  // measure 40
1000
0000
0100
0000
0010
0000
0100
0000
1000
0000
0000
0010
0000
0000
0100
0000
,  // measure 41
0001
0000
0000
0010
0000
0000
0001
0000
1000
0000
0000
0000
0010
0000
1000
0000
,  // measure 42
0100
0000
1000
0000
0001
0000
0100
0000
0010
0000
0000
1000
0000
0000
0100
0000
,  // measure 43
1000
0000
0000
0001
0000
0000
0010
0000
0100
0000
0000
0000
0010
0000
0001
0000
,  // measure 44
0100
0000
0010
0000
0000
0000
1000
0000
0100
0000
0000
1000
0000
0000
0001
0000
,  // measure 45
0100
0000
0000
0010
0000
0000
1000
0000
0100
0000
0000
0000
1000
0000
0001
0000
,  // measure 46
0010
0000
0000
0000
0001
0000
0100
0000
0010
0000
0000
0010
0000
0000
1000
0000
,  // measure 47
0001
0000
0000
0010
0000
0000
0001
0000
0100
0000
0000
0000
0010
0000
1000
0000
,  // measure 48
0001
0000
0010
0000
0001
0000
0100
0000
0010
0000
0000
1000
0000
0000
0100
0000
,  // measure 49
1000
0000
0000
0001
0000
0000
0100
0000
0010
0000
0000
0000
1000
0000
0100
0000
,  // measure 50
1000
0000
0001
0000
0100
0000
0010
0000
1000
0000
0000
0100
0000
0000
0010
0000
,  // measure 51
0001
0000
0000
0100
0000
0000
0010
0000
1000
0000
0000
0000
0100
0000
1000
0000
,  // measure 52
0010
0000
0100
0000
0001
0000
0010
0000
0100
0000
0000
1000
0000
0000
0001
0000
,  // measure 53
0100
0000
0000
0010
0000
0000
1000
0000
0001
0000
0000
0000
0010
0000
0001
0000
,  // measure 54
0100
0000
0010
1000
0100
0000
0100
1000
,  // measure 55
0001
0000
0001
0100
0010
0000
0010
1000
,  // measure 56
0001
0000
0010
0000
0100
0000
0010
0000
0001
0000
0000
0100
0000
0000
0010
0000
,  // measure 57
1000
0000
0000
0100
0000
0000
1000
0000
0001
0000
0000
0000
0100
0000
0010
0000
,  // measure 58
1000
0000
0001
0000
0010
0000
0001
0000
0100
0000
0000
0010
0000
0000
1000
0000
,  // measure 59
0100
0000
0000
1000
0000
0000
0001
0000
0100
0000
0000
0000
0010
0000
1000
0000
,  // measure 60
0100
0000
1000
0000
0001
0000
0100
0000
0010
0000
0000
1000
0000
0000
0001
0000
,  // measure 61
0010
0000
0000
0001
0000
0000
0100
0000
0010
0000
0000
0000
1000
0000
0001
0000
,  // measure 62
0010
0000
0000
0000
0001
0000
0100
0000
0010
0000
0000
1000
0000
0000
0001
0000
,  // measure 63
0100
0000
0000
0010
0000
0000
1000
0000
0001
0000
0000
0000
0010
0000
0100
0000
,  // measure 64
1000
0000
0001
0000
0100
0000
0001
0000
0010
0000
0000
0001
0000
0000
1000
0000
,  // measure 65
0010
0000
0000
0100
0000
0000
0001
0000
1000
0000
0000
0000
0100
0000
1000
0000
,  // measure 66
0001
0000
0100
0000
0001
0000
0010
0000
0001
0000
0000
1000
0000
0000
0010
0000
,  // measure 67
0100
0000
0000
0010
0000
0000
1000
0000
0001
0000
0000
0000
0010
0000
0001
0000
,  // measure 68
1000
0000
0010
0000
0000
0000
0010
0000
0100
0000
0000
0001
0000
0000
0010
0000
,  // measure 69
0001
0000
0000
1000
0000
0000
0100
0000
0010
0000
0000
0000
0100
0000
1000
0000
,  // measure 70
0010
0000
0000
0000
0100
0000
0001
0000
1000
0000
0000
0100
0000
0000
1000
0000
,  // measure 71
0010
0000
0000
0100
0000
0000
0001
0000
0010
0000
0000
0000
0100
0000
1000
0000
;

//---------------dance-single - ----------------
#NOTEDATA:;
#CHARTNAME:Make Me Happy;
#STEPSTYPE:dance-single;
#DESCRIPTION:;
#CHARTSTYLE:;
#DIFFICULTY:Medium;
#METER:5;
#RADARVALUES:0.341604,0.350754,0.006972,0.000000,0.223088,343.000000,342.000000,1.000000,0.000000,0.000000,0.000000,0.000000,0.000000,131.000000,0.341604,0.350754,0.006972,0.000000,0.223088,343.000000,342.000000,1.000000,0.000000,0.000000,0.000000,0.000000,0.000000,131.000000;
#CREDIT:Phil Lee;
#ATTACKS:TIME=74.56:LEN=0.47:MODS=*3 0% Mini,*3 0% Flip:TIME=74.559998:LEN=0.470000:MODS=*3 0% Mini,*3 0% Flip:TIME=60.029999:LEN=14.530000:MODS=-13% Flip,Mini:TIME=60.029999:LEN=12.000000:MODS=3x:TIME=74.559998:LEN=0.470000:MODS=*3 0% Mini,*3 0% Flip:TIME=60.029999:LEN=14.530000:MODS=-13% Flip,Mini:TIME=60.029999:LEN=12.000000:MODS=3x:TIME=74.559998:LEN=0.470000:MODS=*3 0% Mini,*3 0% Flip:TIME=60.029999:LEN=14.530000:MODS=-13% Flip,Mini:TIME=60.029999:LEN=12.000000:MODS=3x:TIME=74.559998:LEN=0.470000:MODS=*3 0% Mini,*3 0% Flip:TIME=60.029999:LEN=14.530000:MODS=-13% Flip,Mini:TIME=60.029999:LEN=12.000000:MODS=3x:TIME=74.559998:LEN=0.470000:MODS=*3 0% Mini,*3 0% Flip:TIME=60.044998:LEN=14.530000:MODS=-13% Flip,Mini:TIME=60.044998:LEN=12.000000:MODS=3x:TIME=74.574997:LEN=0.470000:MODS=*3 0% Mini,*3 0% Flip:TIME=60.044998:LEN=14.530000:MODS=-13% Flip,Mini:TIME=60.044998:LEN=12.000000:MODS=3x:TIME=74.574997:LEN=0.470000:MODS=*3 0% Mini,*3 0% Flip;
#NOTES:
// measure 0
0000
0000
0000
0000
,  // measure 1
0000
0000
0000
0000
,  // measure 2
1000
0100
1000
0000
0010
0100
0010
0000
,  // measure 3
1000
0100
0010
0000
0001
0100
0010
0000
,  // measure 4
1000
0001
1000
0000
0010
0100
0010
0000
,  // measure 5
1000
0100
0010
0000
0001
0010
0100
0000
,  // measure 6
1000
0001
0100
0000
0010
1000
0001
0000
,  // measure 7
1000
0100
0010
0000
0100
0010
0001
0000
,  // measure 8
1000
0001
0100
0000
0010
0100
0001
0000
,  // measure 9
1000
0001
0010
0000
0100
1000
0001
0000
,  // measure 10
1000
0010
0100
0000
0001
0100
0010
0000
,  // measure 11
1000
0100
0010
0000
0100
0010
0001
0000
,  // measure 12
1000
0100
0010
0000
0001
0010
0001
0000
,  // measure 13
1000
0001
0100
0000
0010
0100
0001
0000
,  // measure 14
1000
0010
0100
0000
0001
0010
0100
0000
,  // measure 15
1000
0000
0001
0000
1000
0000
0000
0000
0010
0000
0000
0010
0000
0010
0000
0000
,  // measure 16
1000
0001
1000
0000
0100
0010
0100
0000
,  // measure 17
1000
0001
0010
0000
0100
0010
0001
0000
,  // measure 18
1000
0001
0100
0000
0010
0100
0001
0000
,  // measure 19
1000
0001
0010
0000
0100
1000
0001
0000
,  // measure 20
1000
0100
0010
0000
0100
0010
0001
0000
,  // measure 21
1000
0001
0100
0000
0010
1000
0001
0000
,  // measure 22
1000
0100
0010
0000
0001
0010
0100
0000
,  // measure 23
1000
0001
0100
0000
0010
1000
0001
0000
,  // measure 24
1000
0100
0010
0000
0100
0010
0001
0000
,  // measure 25
1000
0001
0100
0000
0010
0100
0001
0000
,  // measure 26
1000
0001
0010
0000
0100
1000
0001
0000
,  // measure 27
1000
0100
0010
0000
0001
0010
0100
0000
,  // measure 28
0000
1000
0000
0001
0000
0000
0000
0000
0010
0000
0001
0000
0010
0000
0001
0000
,  // measure 29
0000
0010
0000
0100
0000
0000
0000
0000
0000
0000
0000
0000
0000
0000
0000
0000
,  // measure 30
0000
0000
0000
0000
,  // measure 31
0000
0000
0000
0000
,  // measure 32
1001
0000
0000
0000
0000
0000
MMM0
M00M
M00M
M00M
MMM0
M00M
M00M
M00M
MMM0
0000
,  // measure 33
0000
0000
MMM0
M00M
M00M
M00M
MMM0
M0M0
M00M
M00M
M00M
0000
0000
0000
MMMM
M000
,  // measure 34
M000
M000
MMMM
M000
M000
M000
MMMM
0000
0000
0000
0MM0
M00M
M00M
M00M
MMMM
M00M
,  // measure 35
M00M
M00M
M00M
0000
0000
0000
M00M
M00M
M00M
M0M0
MM00
M0M0
M00M
M00M
M00M
0000
,  // measure 36
0000
0000
0000
0000
,  // measure 37
0000
0000
0000
0000
,  // measure 38
0000
0000
0000
0000
0000
0000
0000
0000
0MM0
M000
M000
M000
M0MM
M00M
M00M
M00M
,  // measure 39
0MM0
0000
0000
0000
0MM0
M00M
M00M
M00M
M00M
M00M
M00M
M00M
0MM0
0000
0000
0000
,  // measure 40
1000
0000
0000
0000
0001
0000
0000
0000
0010
0000
0000
0001
0000
0000
1000
0000
,  // measure 41
0001
0000
0000
1000
0000
0000
0010
0000
0100
0000
0000
0000
0001
0000
0000
0000
,  // measure 42
1000
0000
0000
0000
0001
0000
0000
0000
0010
0000
0000
0100
0000
0000
1000
0000
,  // measure 43
0001
0000
0000
0010
0000
0000
0001
0000
0100
0000
0000
0000
0010
0000
0000
0000
,  // measure 44
1000
0000
0010
0000
0000
0000
0100
0000
0010
0000
0000
1000
0000
0000
0001
0000
,  // measure 45
1000
0000
0000
0100
0000
0000
0010
0000
0100
0000
0000
0000
1000
0000
0010
0000
,  // measure 46
1000
0000
0000
0000
0001
0000
0000
0000
0100
0000
0000
0010
0000
0000
1000
0000
,  // measure 47
0001
0000
0000
0010
0000
0000
0100
0000
0010
0000
0000
0000
0100
0000
1000
0000
,  // measure 48
0100
0000
0000
0000
0010
0000
0000
0000
0001
0000
0000
0100
0000
0000
1000
0000
,  // measure 49
0100
0000
0000
0001
0000
0000
1000
0000
0001
0000
0000
0000
0100
0000
0000
0000
,  // measure 50
0001
0000
0000
0000
0100
0000
0000
0000
1000
0000
0000
0100
0000
0000
0010
0000
,  // measure 51
1000
0000
0000
0001
0000
0000
0100
0000
0001
0000
0000
0000
1000
0000
0000
0000
,  // measure 52
0001
0000
0010
0000
0000
0000
0100
0000
1000
0000
0000
0001
0000
0000
0100
0000
,  // measure 53
1000
0000
0000
0100
0000
0000
0001
0000
1000
0000
0000
0000
0010
0000
0100
0000
,  // measure 54
0010
0000
0000
0000
1000
0000
0000
0000
0100
0000
0000
0010
0000
0000
1000
0000
,  // measure 55
0010
0000
0000
0001
0000
0000
0100
0000
0010
0000
0000
0000
1000
0000
0100
0000
,  // measure 56
1000
0001
0100
0001
1000
0000
0000
0000
,  // measure 57
0001
0000
0000
0010
0000
0000
0100
0000
1000
0000
0000
0000
0001
0000
0000
0000
,  // measure 58
1000
0010
0100
0010
1000
0000
0000
0000
,  // measure 59
0001
0000
0000
1000
0000
0000
0100
0000
0010
0000
0000
0000
0001
0000
0000
0000
,  // measure 60
1000
0000
0001
0000
0000
0000
0100
0000
0010
0000
0000
1000
0000
0000
0001
0000
,  // measure 61
1000
0000
0000
0100
0000
0000
0010
0000
0001
0000
0000
0000
1000
0000
0000
0000
,  // measure 62
0001
0000
0000
0000
0010
0000
0100
0000
0010
0000
0000
0100
0000
0000
1000
0000
,  // measure 63
0001
0000
0000
0100
0000
0000
0010
0000
1000
0000
0000
0000
0001
0000
0100
0000
,  // measure 64
0001
0000
1000
0000
0001
0000
0000
0000
0100
0000
0000
0010
0000
0000
1000
0000
,  // measure 65
0001
0000
0000
0010
0000
0000
0100
0000
1000
0000
0000
0000
0001
0000
0100
0000
,  // measure 66
0001
0000
1000
0000
0100
0000
0000
0000
0010
0000
0000
0100
0000
0000
1000
0000
,  // measure 67
0001
0000
0000
0010
0000
0000
0100
0000
0010
0000
0000
0000
0100
0000
1000
0000
,  // measure 68
0001
0000
0100
0000
0000
0000
0010
0000
1000
0000
0000
0100
0000
0000
0010
0000
,  // measure 69
0001
0000
0000
0010
0000
0000
0100
0000
1000
0000
0000
0000
0001
0000
0100
0000
,  // measure 70
0001
0000
0000
0000
1000
0000
0100
0000
0010
0000
0000
0001
0000
0000
1000
0000
,  // measure 71
0001
0000
0000
0100
0000
0000
0010
0000
1000
0000
0000
0000
0001
0000
0010
0000
;
