#VERSION:0.81;
#TITLE:Brain Machine Interface;
#SUBTITLE:;
#ARTIST:Antagon;
#TITLETRANSLIT:;
#SUBTITLETRANSLIT:;
#ARTISTTRANSLIT:;
#GENRE:;
#ORIGIN:;
#CREDIT:;
#BANNER:banner.png;
#BACKGROUND:bg.png;
#PREVIEWVID:;
#JACKET:;
#CDIMAGE:;
#DISCIMAGE:;
#LYRICSPATH:;
#CDTITLE:;
#MUSIC:05 - Antagon - Brain Machine Interface 170 BPM.ogg;
#OFFSET:0.000000;
#SAMPLESTART:38.836502;
#SAMPLELENGTH:12.000000;
#SELECTABLE:YES;
#DISPLAYBPM:170.000000;
#BPMS:0.000=170.000,
228.000=340.000,
372.000=320.000,
375.000=270.000,
378.000=230.000,
380.000=196.000,
383.000=164.000,
844.000=82.000;
#STOPS:;
#DELAYS:;
#WARPS:;
#TIMESIGNATURES:0.000=4=4;
#SPEEDS:0.000=1.000=0.000=0;
#SCROLLS:0.000=1.000,
31.000=0.000,
31.500=1.000,
63.000=0.750,
64.000=1.000,
126.000=0.750,
128.000=1.250,
129.000=1.000,
129.500=1.250,
130.500=1.000,
131.000=1.250,
131.500=1.000,
132.000=1.250,
133.000=1.000,
133.500=1.250,
134.500=1.000,
135.000=1.250,
135.500=1.000,
136.000=1.250,
137.000=1.000,
137.500=1.250,
138.500=1.000,
139.000=1.250,
139.500=1.000,
140.000=1.250,
141.000=1.000,
141.500=1.250,
142.500=1.000,
143.000=1.250,
143.500=1.000,
144.000=1.250,
145.000=1.000,
145.500=1.250,
146.500=1.000,
147.000=1.250,
147.500=1.000,
148.000=1.250,
149.000=1.000,
149.500=1.250,
150.500=1.000,
151.000=1.250,
151.500=1.000,
152.000=1.250,
153.000=1.000,
153.500=1.250,
154.500=1.000,
155.000=1.250,
155.500=1.000,
156.000=1.250,
157.000=1.000,
157.500=1.250,
158.500=1.000,
159.000=1.250,
159.500=1.000,
160.000=1.250,
161.000=1.000,
161.500=1.250,
162.500=1.000,
163.000=1.250,
163.500=1.000,
164.000=1.250,
165.000=1.000,
165.500=1.250,
166.500=1.000,
167.000=1.250,
167.500=1.000,
168.000=1.250,
169.000=1.000,
169.500=1.250,
170.500=1.000,
171.000=1.250,
171.500=1.000,
172.000=1.250,
173.000=1.000,
173.500=1.250,
174.500=1.000,
175.000=1.250,
175.500=1.000,
176.000=1.250,
177.000=1.000,
177.500=1.250,
178.500=1.000,
179.000=1.250,
179.500=1.000,
180.000=1.250,
181.000=1.000,
181.500=1.250,
182.500=1.000,
183.000=1.250,
183.500=1.000,
184.000=1.250,
185.000=1.000,
185.500=1.250,
186.500=1.000,
187.000=1.250,
187.500=1.000,
188.000=0.500,
192.000=1.250,
193.000=1.000,
193.500=1.250,
194.500=1.000,
195.000=1.250,
195.500=1.000,
196.000=1.250,
197.000=1.000,
197.500=1.250,
198.500=1.000,
199.000=1.250,
199.500=1.000,
200.000=1.250,
201.000=1.000,
201.500=1.250,
202.500=1.000,
203.000=1.250,
203.500=1.000,
204.000=1.250,
205.000=1.000,
205.500=1.250,
206.500=1.000,
207.000=1.250,
207.500=1.000,
208.000=1.250,
209.000=1.000,
209.500=1.250,
210.500=1.000,
211.000=1.250,
211.500=1.000,
212.000=1.250,
213.000=1.000,
213.500=1.250,
214.500=1.000,
215.000=1.250,
215.500=1.000,
216.000=1.250,
217.000=1.000,
217.500=1.250,
218.500=1.000,
219.000=1.250,
219.500=1.000,
220.000=1.250,
221.000=1.000,
221.500=1.250,
222.500=1.000,
223.000=1.250,
223.500=1.000,
224.000=0.500,
356.000=1.250,
358.000=1.000,
359.000=1.250,
361.000=1.000,
362.000=1.250,
363.000=1.000,
364.000=1.250,
366.000=1.000,
367.000=1.250,
369.000=1.000,
370.000=1.250,
371.000=1.000,
372.000=1.250,
374.000=1.000,
375.000=1.250,
377.000=1.000,
378.000=1.250,
379.000=1.000,
380.000=1.250,
382.000=1.000,
383.000=1.250,
385.000=1.000,
386.000=1.250,
387.000=1.000,
388.000=1.250,
390.000=1.000,
391.000=1.250,
393.000=1.000,
394.000=1.250,
395.000=1.000;
#FAKES:;
#LABELS:0.000=Song Start;
#BGCHANGES:;
#KEYSOUNDS:;
#ATTACKS:
;

//---------------dance-single - ----------------
#NOTEDATA:;
#CHARTNAME:Smell;
#STEPSTYPE:dance-single;
#DESCRIPTION:;
#CHARTSTYLE:;
#DIFFICULTY:Beginner;
#METER:1;
#RADARVALUES:74,0,0,0,0,0,0,0,0,74,0,0,0,0,0,0,0,0;
#CREDIT:Jonathan Iraheta;
#OFFSET:0.000000;
#BPMS:0.000000=170.000000
,300.000000=160.000000
,301.500000=135.000000
,303.000000=115.000000
,304.000000=98.000000
,305.500000=82.000000
;
#STOPS:;
#DELAYS:;
#WARPS:;
#TIMESIGNATURES:0.000000=4=4
;
#SPEEDS:0.000000=1.000000=0.000000=0
;
#SCROLLS:0.000000=1.000000
;
#FAKES:;
#LABELS:0.000000=Song Start
;
#DISPLAYBPM:170.000000;
#NOTES:
// measure 0
0000
0000
0000
0000
,  // measure 1
0000
0000
0000
0000
,  // measure 2
0000
0000
0000
0000
,  // measure 3
0000
0000
0000
0000
,  // measure 4
0001
0000
0000
0000
,  // measure 5
0100
0000
0000
0000
,  // measure 6
0010
0000
0000
0000
,  // measure 7
1000
0000
0000
0000
,  // measure 8
0001
0000
0000
0000
0000
0000
0000
0100
,  // measure 9
0000
0000
0000
0000
,  // measure 10
0000
0001
0000
0000
,  // measure 11
0000
0000
1000
0000
,  // measure 12
0010
0000
0000
0000
,  // measure 13
1000
0000
0000
0000
,  // measure 14
0100
0000
0000
0000
,  // measure 15
0010
0000
0000
0000
,  // measure 16
0001
0000
0000
0000
,  // measure 17
0100
0000
0000
0000
,  // measure 18
0010
0000
0000
0000
,  // measure 19
1000
0000
0000
0000
,  // measure 20
0010
0000
0000
0000
0000
0000
0000
0100
,  // measure 21
0000
0000
0000
0000
,  // measure 22
0001
0000
0000
0000
,  // measure 23
0100
0000
0000
0000
,  // measure 24
0010
0000
0000
0000
,  // measure 25
1000
0000
0000
0000
,  // measure 26
0100
0000
0000
0000
,  // measure 27
0010
0000
0000
0000
,  // measure 28
0001
0000
0000
0000
,  // measure 29
0100
0000
0000
0000
,  // measure 30
0010
0000
0000
0000
,  // measure 31
1000
0000
0000
0000
,  // measure 32
0100
0000
0000
0000
,  // measure 33
1000
0000
0000
0000
,  // measure 34
0010
0000
0000
0000
,  // measure 35
1000
0000
0000
0000
,  // measure 36
0100
0000
0000
0000
,  // measure 37
1000
0000
0000
0000
,  // measure 38
0010
0000
0000
0000
,  // measure 39
0100
0000
0000
0000
,  // measure 40
0001
0000
0000
0000
,  // measure 41
0010
0000
0000
0000
,  // measure 42
0001
0000
0000
0000
,  // measure 43
1000
0000
0000
0000
,  // measure 44
0001
0000
0000
0000
,  // measure 45
0100
0000
0000
0000
,  // measure 46
0010
0000
0000
0000
,  // measure 47
0100
0000
0000
0000
,  // measure 48
0001
0000
0000
0000
,  // measure 49
1000
0000
0000
0000
,  // measure 50
0001
0000
0000
0000
,  // measure 51
0100
0000
0000
0000
,  // measure 52
0010
0000
0000
0000
,  // measure 53
1000
0000
0000
0000
,  // measure 54
0001
0000
0000
0000
,  // measure 55
0010
0000
0000
0000
,  // measure 56
0100
0000
0000
0000
,  // measure 57
1000
0000
0000
0000
,  // measure 58
0100
0000
0000
0000
,  // measure 59
0010
0000
0000
0000
,  // measure 60
0001
0000
0000
0000
,  // measure 61
0010
0000
0000
0000
,  // measure 62
0100
0000
0000
0000
,  // measure 63
1000
0000
0000
0000
,  // measure 64
0001
0000
0000
0000
,  // measure 65
0100
0000
0000
0000
,  // measure 66
0010
0000
0000
0000
,  // measure 67
1000
0000
0000
0000
,  // measure 68
0001
0000
0000
0000
,  // measure 69
0010
0000
0000
0000
,  // measure 70
0100
0000
0000
0000
,  // measure 71
1000
0000
0000
0000
,  // measure 72
0100
0000
0000
0000
,  // measure 73
0010
0000
0000
0000
,  // measure 74
0001
0000
0000
0000
,  // measure 75
0100
0000
0000
0000
,  // measure 76
0001
0000
0000
0001
;

//---------------dance-single - ----------------
#NOTEDATA:;
#CHARTNAME:Sixth Sense;
#STEPSTYPE:dance-single;
#DESCRIPTION:;
#CHARTSTYLE:;
#DIFFICULTY:Edit;
#METER:12;
#RADARVALUES:410,71,30,0,0,0,0,0,34,410,71,30,0,0,0,0,0,34;
#CREDIT:Joshua Zhang;
#OFFSET:0.000000;
#BPMS:0.000000=170.000000
,300.000000=160.000000
,301.500000=135.000000
,303.000000=115.000000
,304.000000=98.000000
,305.500000=82.000000
;
#STOPS:;
#DELAYS:;
#WARPS:;
#TIMESIGNATURES:0.000000=4=4
;
#SPEEDS:0.000000=1.000000=0.000000=0
;
#SCROLLS:0.000000=1.000000
,28.000000=2.000000
,30.000000=1.588235
,30.250000=1.058824
,30.750000=0.705882
,31.000000=0.529412
,31.250000=0.500000
,32.000000=1.000000
,60.000000=2.000000
,62.000000=1.588240
,62.250000=1.058820
,62.750000=0.705882
,63.000000=0.529412
,63.250000=0.500000
,64.000000=1.000000
,108.000000=2.000000
,110.000000=1.588240
,110.250000=1.058820
,110.750000=0.705882
,111.000000=0.529412
,111.250000=0.500000
,112.000000=1.000000
,126.000000=0.750000
,128.000000=1.500000
,129.000000=0.750000
,129.500000=1.500000
,130.500000=0.750000
,130.750000=1.500000
,131.500000=0.750000
,132.000000=1.500000
,133.000000=0.750000
,133.500000=1.500000
,134.500000=0.750000
,135.000000=1.500000
,135.500000=0.750000
,136.000000=1.500000
,137.000000=0.750000
,137.500000=1.500000
,138.500000=0.750000
,139.000000=1.500000
,139.500000=0.750000
,140.000000=1.500000
,140.750000=0.750000
,141.500000=1.500000
,142.500000=0.750000
,143.000000=1.500000
,143.500000=0.750000
,144.000000=1.500000
,145.000000=0.750000
,145.500000=1.500000
,146.500000=0.750000
,147.000000=1.500000
,147.500000=0.750000
,148.000000=1.500000
,149.000000=0.750000
,149.500000=1.500000
,150.500000=0.750000
,150.750000=1.500000
,151.500000=0.750000
,152.000000=1.500000
,153.000000=0.750000
,153.500000=1.500000
,154.500000=0.750000
,155.000000=1.500000
,155.500000=0.750000
,156.000000=1.500000
,157.000000=0.750000
,157.500000=1.500000
,158.500000=0.750000
,159.000000=1.500000
,159.500000=0.750000
,160.000000=1.500000
,160.750000=0.750000
,161.500000=1.500000
,162.500000=0.750000
,163.000000=1.500000
,163.500000=0.750000
,164.000000=1.500000
,165.000000=0.750000
,165.500000=1.500000
,166.500000=0.750000
,167.000000=1.500000
,167.500000=0.750000
,168.000000=1.500000
,169.000000=0.750000
,169.500000=1.500000
,170.500000=0.750000
,170.750000=1.500000
,171.500000=0.750000
,172.000000=1.500000
,173.000000=0.750000
,173.500000=1.500000
,174.500000=0.750000
,175.000000=1.500000
,175.500000=0.750000
,176.000000=1.500000
,177.000000=0.750000
,177.500000=1.500000
,178.500000=0.750000
,179.000000=1.500000
,179.500000=0.750000
,180.000000=1.500000
,180.750000=0.750000
,181.500000=1.500000
,182.500000=0.750000
,183.000000=1.500000
,183.500000=0.750000
,184.000000=1.500000
,185.000000=0.750000
,185.500000=1.500000
,186.500000=0.750000
,187.000000=1.500000
,187.500000=0.750000
,188.000000=0.500000
,192.000000=1.500000
,193.000000=0.750000
,193.500000=1.500000
,194.500000=0.750000
,195.000000=1.500000
,195.500000=0.750000
,196.000000=1.500000
,197.000000=0.750000
,197.500000=1.500000
,198.500000=0.750000
,199.000000=1.500000
,199.500000=0.750000
,200.000000=1.500000
,200.750000=0.750000
,201.500000=1.500000
,202.500000=0.750000
,203.000000=1.500000
,203.500000=0.750000
,204.000000=1.500000
,205.000000=0.750000
,205.500000=1.500000
,206.500000=0.750000
,207.000000=1.500000
,207.500000=0.750000
,208.000000=1.500000
,209.000000=0.750000
,209.500000=1.500000
,210.500000=0.750000
,210.750000=1.500000
,211.500000=0.750000
,212.000000=1.500000
,213.000000=0.750000
,213.500000=1.500000
,214.500000=0.750000
,215.000000=1.500000
,215.500000=0.750000
,216.000000=1.500000
,217.000000=0.750000
,217.500000=1.500000
,218.500000=0.750000
,219.000000=1.500000
,219.500000=0.750000
,220.000000=1.500000
,220.750000=0.750000
,221.500000=1.500000
,222.500000=0.750000
,223.000000=1.500000
,223.500000=0.750000
,224.000000=0.000000
,225.000000=1.500000
,226.000000=1.746050
,226.500000=1.882353
,227.000000=1.746000
,227.250000=1.500000
,227.500000=1.250000
,228.000000=1.000000
,292.000000=1.500000
,293.000000=0.750000
,293.500000=1.500000
,294.500000=0.750000
,295.000000=1.500000
,295.500000=0.750000
,296.000000=1.500000
,297.000000=0.750000
,297.500000=1.500000
,298.500000=0.750000
,299.000000=1.500000
,299.500000=0.750000
,300.000000=1.500000
,300.750000=0.750000
,301.500000=1.500000
,302.500000=0.750000
,303.000000=1.500000
,303.500000=0.750000
,304.000000=1.500000
,305.000000=0.750000
,305.500000=1.500000
,306.500000=0.750000
,307.000000=1.500000
,307.500000=0.750000
,308.000000=1.500000
,309.000000=0.750000
,309.500000=1.500000
,310.500000=0.750000
,310.750000=1.500000
,311.500000=0.750000
;
#FAKES:;
#LABELS:0.000000=Song Start
;
#DISPLAYBPM:170.000000;
#NOTES:
0000
0000
0000
0000
,
0000
0000
0000
0000
,
0000
0000
0000
0000
,
0000
0000
0000
0000
,
1000
0001
0010
0001
0100
0001
1000
0001
,
0100
0010
0001
0010
1000
0001
0100
1000
,
0100
0010
1000
0100
1000
0001
0010
0100
,
2000
0000
0000
0000
0000
0000
0000
3000
,
0110
0000
1001
0000
0110
0000
0000
0110
,
0000
0000
0000
0000
0110
0000
0000
0000
1100
0000
0000
0011
0000
0000
1100
0000
,
0022
0000
0000
0000
,
0000
0000
0000
0033
1100
0000
1100
0000
,
1100
1010
0011
0011
,
0001
0100
1000
0100
0001
0010
1000
0010
,
0001
0000
0010
0000
0100
0000
0010
0000
0001
0000
1000
0000
0001
0000
0100
0001
,
2000
0000
0000
3000
,
0010
1000
0001
1000
0001
0010
0001
0010
0100
1000
0001
1000
0010
0000
0100
0000
,
0001
0010
0001
0100
0001
1000
0100
0010
0001
0010
0100
1000
0001
0000
0010
0000
,
0001
0010
0001
0100
0001
1000
0100
0010
0001
0010
0100
1000
0001
0000
0010
0000
,
0001
0100
0010
1000
0001
1000
0100
0010
0001
0010
0100
1000
0001
0100
0010
1000
,
0001
0000
0110
0000
0110
0000
0000
1100
,
0000
0000
0000
0000
1001
0000
0000
0000
1000
0000
0010
0100
0000
0010
1000
0000
,
2002
0000
0000
0000
0000
0000
0000
3003
,
1000
0000
0001
0000
0100
0000
0001
0000
1000
0100
0010
0001
1000
0100
0010
0001
,
1000
0000
0000
0001
1000
0001
0010
0100
1000
0000
0000
0010
0100
0010
1000
0010
,
1000
0000
0000
0000
0001
0100
0010
0000
1000
0010
0100
0000
0001
0010
0100
1000
,
0001
0010
0100
1000
0100
0000
0010
0000
0001
0000
0101
0000
1001
0000
0001
0000
,
1002
0000
0000
0010
,
0013
0001
0010
0001
0010
0000
0100
0010
0001
0010
0001
0000
1000
0001
1000
0001
,
0010
0000
0001
1000
0100
1000
0100
0000
1000
0010
1000
0010
0100
0010
0100
0010
,
1000
0100
0010
0001
2000
0000
3000
0000
2002
0000
3003
0000
0002
0000
0003
0000
,
0200
0000
0300
0000
0002
0000
0003
2000
0000
0000
3000
0200
0000
0000
0300
0000
,
0011
0000
0001
0100
0000
0100
0001
0000
,
0001
0000
0001
0100
0000
0100
0001
0000
,
1000
0000
1000
0100
0000
0100
1000
0000
,
1000
0000
1000
0100
0000
0100
1000
0000
,
0010
0000
0010
0100
0000
0100
0010
0000
,
0010
0000
0010
0100
0000
0100
0010
0000
,
1000
0000
1000
0001
0000
0001
1000
0000
,
1000
0000
1000
0001
0000
0001
1000
0000
,
0200
0000
1000
0010
0000
0010
1000
0000
,
1000
0000
0310
0001
0000
0200
0010
0000
,
0001
0300
0020
0100
0000
1000
0100
0000
,
1030
0000
0012
0100
0000
0100
1000
0000
,
1000
0000
0100
2003
0000
0001
0100
0000
,
0001
0000
0001
0001
0000
3002
0100
0000
,
0100
0000
2003
0001
0000
0001
0001
0000
,
0010
3000
0200
0010
0000
0010
0010
0300
,
1001
0000
1100
1000
0000
1000
1010
0000
,
0110
0000
1001
1000
0000
0010
0110
0000
,
0101
0000
1010
1000
0000
1000
1100
0000
,
1001
0000
0101
0100
0000
0010
1010
0000
,
0101
0000
1001
0001
0000
0001
1001
0000
,
1100
0000
1001
0001
0000
1000
1010
0000
,
1001
0000
1001
0110
0000
0110
1001
0000
,
1001
1100
0000
0011
,
2002
0000
0000
3003
,
1000
0100
1000
0100
1000
0000
0000
0000
0001
1000
0001
1000
0001
0000
0000
0000
,
0010
0001
0010
0001
0010
0000
0000
0000
0100
1000
0001
0100
0001
0000
0000
0000
,
1000
0001
0100
0001
1000
0000
0000
0000
0100
0010
0001
1000
0100
0000
0000
0000
,
1000
0010
1000
0010
1000
0000
0000
0000
0001
0010
0100
1000
0001
0000
0000
0000
,
1000
0010
0100
0001
1000
0000
0000
0000
0001
0010
0001
0100
0010
0000
0000
0000
,
1000
0001
1000
0010
0100
0000
0000
0000
0001
1000
0001
0010
0100
0000
0000
0000
,
1000
0001
0010
0100
1000
0000
0000
0000
0010
1000
0010
1000
0010
0000
0000
0000
,
1000
0001
0100
0001
0010
0001
0010
0001
1000
0010
0100
0010
1000
0010
1000
0100
,
1000
0001
1000
0002
0000
0000
0000
0003
1000
0010
1000
0002
0000
0000
0000
0003
,
0010
0001
0100
0020
0000
0000
0000
0030
1000
0100
0010
0200
0000
0000
0000
0300
,
1000
0001
0100
0020
0000
0000
0000
0030
1000
0001
1000
0200
0000
0000
0000
0300
,
1000
0001
1000
0020
0000
0000
0000
0030
0100
0010
0100
0002
0000
0000
0000
0003
,
0100
0001
1000
0020
0000
0000
0000
0030
1000
0001
0010
0001
1000
0001
1000
0010
,
1000
0000
0010
0000
0100
0000
0001
0000
1000
0100
0010
0001
1000
0100
0010
0001
,
1000
0000
0100
1000
0001
0000
0110
0000
1001
0000
0001
1000
0010
0000
0110
0000
,
1001
0000
1000
0001
0010
0000
0110
0000
1001
0000
0001
1000
0100
0000
0110
0000
,
1001
0000
1010
0110
0000
0110
0101
0000
,
1001
0000
0011
0110
0000
0110
1100
0000
,
1001
0000
0000
0101
0000
0000
1001
0000
,
1001
0000
0000
1100
0000
0101
0101
0000
;

//---------------dance-single - ----------------
#NOTEDATA:;
#CHARTNAME:Touch;
#STEPSTYPE:dance-single;
#DESCRIPTION:;
#CHARTSTYLE:;
#DIFFICULTY:Easy;
#METER:5;
#RADARVALUES:217,1,33,0,0,0,0,0,34,217,1,33,0,0,0,0,0,34;
#CREDIT:Phil Lee;
#OFFSET:0.000000;
#BPMS:0.000000=170.000000
,300.000000=160.000000
,301.500000=135.000000
,303.000000=115.000000
,304.000000=98.000000
,305.500000=82.000000
,372.000000=320.000000
,375.000000=270.000000
,378.000000=230.000000
,380.000000=196.000000
,383.000000=164.000000
,844.000000=82.000000
;
#STOPS:;
#DELAYS:;
#WARPS:;
#TIMESIGNATURES:0.000000=4=4
;
#SPEEDS:0.000000=1.000000=0.000000=0
;
#SCROLLS:0.000000=1.000000
,356.000000=1.250000
,358.000000=1.000000
,359.000000=1.250000
,361.000000=1.000000
,362.000000=1.250000
,363.000000=1.000000
,364.000000=1.250000
,366.000000=1.000000
,367.000000=1.250000
,369.000000=1.000000
,370.000000=1.250000
,371.000000=1.000000
,372.000000=1.250000
,374.000000=1.000000
,375.000000=1.250000
,377.000000=1.000000
,378.000000=1.250000
,379.000000=1.000000
,380.000000=1.250000
,382.000000=1.000000
,383.000000=1.250000
,385.000000=1.000000
,386.000000=1.250000
,387.000000=1.000000
,388.000000=1.250000
,390.000000=1.000000
,391.000000=1.250000
,393.000000=1.000000
,394.000000=1.250000
,395.000000=1.000000
;
#FAKES:;
#LABELS:0.000000=Song Start
;
#DISPLAYBPM:170.000000;
#NOTES:
// measure 0
0000
0000
0000
0000
,  // measure 1
0000
0000
0000
0000
,  // measure 2
0000
0000
0000
0000
,  // measure 3
0000
0000
0000
0000
,  // measure 4
1000
1000
0001
0001
,  // measure 5
0100
0100
0010
0010
,  // measure 6
1000
0001
0100
0010
,  // measure 7
2000
0000
0000
3000
,  // measure 8
0001
0000
1000
0000
0001
0000
0000
0100
,  // measure 9
0000
0001
0000
0000
,  // measure 10
1000
0000
1000
0000
,  // measure 11
0001
0000
0001
0000
,  // measure 12
1000
0001
1000
0001
,  // measure 13
0010
0100
0010
0100
,  // measure 14
1000
0001
0100
0010
,  // measure 15
2000
0000
0000
0000
,  // measure 16
3001
0010
0001
1000
,  // measure 17
0001
0010
0100
1000
,  // measure 18
0001
0010
0100
0010
,  // measure 19
0001
1000
0010
0100
,  // measure 20
0010
0000
1000
0000
0001
0000
0000
0010
,  // measure 21
0000
0100
1000
0000
,  // measure 22
0100
0010
0001
1000
,  // measure 23
0001
0100
0001
0000
1000
0010
1000
0000
,  // measure 24
0001
0000
0000
0020
0000
0000
0000
0030
,  // measure 25
0001
0200
0000
0000
0310
2000
0000
0000
,  // measure 26
3001
0000
0001
0010
0000
0000
0010
0000
,  // measure 27
0100
0000
0000
0000
1000
0000
0001
0010
,  // measure 28
0001
0010
0001
0000
1000
0000
0000
0000
,  // measure 29
0100
0000
0000
0000
0010
0001
0010
0001
,  // measure 30
0010
0100
1000
0001
,  // measure 31
2002
3003
0000
0000
,  // measure 32
1000
0000
0000
1000
0000
0000
1000
0000
,  // measure 33
0100
0000
0000
0100
0000
0000
0100
0000
,  // measure 34
0010
0000
0000
0010
0000
0000
0010
0000
,  // measure 35
0001
0000
0000
0001
0000
0000
0001
0000
,  // measure 36
1000
0000
0000
0100
0000
0000
1000
0000
,  // measure 37
0001
0000
0000
0100
0000
0000
0001
0000
,  // measure 38
1000
0000
0000
0100
0000
0000
0010
0000
,  // measure 39
0001
0000
0000
0010
0000
0000
0100
0000
,  // measure 40
2000
3000
0000
0020
0030
0000
0200
0300
,  // measure 41
0002
0003
0000
0020
0030
0000
0002
0003
,  // measure 42
0200
0300
0000
0020
0030
0000
0200
0300
,  // measure 43
0002
0003
0000
0020
0030
0000
0200
0300
,  // measure 44
2000
3000
0000
0002
0003
0000
2000
3000
,  // measure 45
0020
0030
0000
0200
0300
0000
0002
0003
,  // measure 46
2000
3000
0000
0002
0003
0000
0020
0030
,  // measure 47
0200
0300
0000
2000
3000
0000
0002
0003
,  // measure 48
0100
0000
0000
0001
0000
0000
0001
0000
,  // measure 49
0100
0000
0000
0010
0000
0000
0010
0000
,  // measure 50
1000
0000
0000
0001
0000
0000
0001
0000
,  // measure 51
0010
0000
0000
0100
0000
0000
0100
0000
,  // measure 52
1000
0000
0000
0010
0000
0000
0010
0000
,  // measure 53
0100
0000
0000
0001
0000
0000
0001
0000
,  // measure 54
1000
0000
0000
0100
0000
0000
0100
0000
,  // measure 55
0020
0000
0000
0030
,  // measure 56
1001
0000
0000
0000
,  // measure 57
0001
0100
0001
0010
,  // measure 58
0100
1000
0000
1000
0100
0000
0010
0000
,  // measure 59
0001
1000
0001
0100
,  // measure 60
0010
1000
0000
1000
0010
0000
0100
0000
,  // measure 61
0001
0010
0100
1000
,  // measure 62
0001
0010
0000
0010
0001
0000
1000
0000
,  // measure 63
0001
0010
0100
1000
,  // measure 64
0010
0100
0000
0100
0010
0000
1000
0000
,  // measure 65
0010
0100
0001
1000
,  // measure 66
0100
0010
0000
0010
0100
0000
1000
0000
,  // measure 67
0001
0100
0010
1000
,  // measure 68
0001
0010
0000
0010
0001
0000
1000
0000
,  // measure 69
0001
0100
0010
1000
,  // measure 70
0001
0010
0001
0010
0002
0000
2003
0000
,  // measure 71
3100
0010
0001
1000
,  // measure 72
0001
0100
0000
0100
0001
0000
0010
0000
,  // measure 73
0001
0000
0000
1000
0000
0000
0010
0000
,  // measure 74
0100
0000
0000
0001
0000
0000
1000
0000
,  // measure 75
0001
0000
0000
0010
0000
0000
0100
0000
,  // measure 76
1000
0000
0000
0001
0000
0000
1000
0000
;

//---------------dance-single - ----------------
#NOTEDATA:;
#CHARTNAME:Taste;
#STEPSTYPE:dance-single;
#DESCRIPTION:;
#CHARTSTYLE:;
#DIFFICULTY:Medium;
#METER:6;
#RADARVALUES:204,65,30,0,0,0,1,0,30,204,65,30,0,0,0,1,0,30;
#CREDIT:Phil Lee;
#OFFSET:0.000000;
#BPMS:0.000000=170.000000
,300.000000=160.000000
,301.500000=135.000000
,303.000000=115.000000
,304.000000=98.000000
,305.500000=82.000000
,372.000000=320.000000
,375.000000=270.000000
,378.000000=230.000000
,380.000000=196.000000
,383.000000=164.000000
,844.000000=82.000000
;
#STOPS:;
#DELAYS:;
#WARPS:;
#TIMESIGNATURES:0.000000=4=4
;
#SPEEDS:0.000000=1.000000=0.000000=0
;
#SCROLLS:0.000000=1.000000
,31.000000=0.000000
,31.500000=1.000000
,63.000000=0.750000
,64.000000=1.000000
,126.000000=0.750000
,128.000000=1.500000
,129.000000=0.750000
,129.500000=1.500000
,130.500000=0.750000
,131.000000=1.500000
,131.500000=0.750000
,132.000000=1.500000
,133.000000=0.750000
,133.500000=1.500000
,134.500000=0.750000
,135.000000=1.500000
,135.500000=0.750000
,136.000000=1.500000
,137.000000=0.750000
,137.500000=1.500000
,138.500000=0.750000
,139.000000=1.500000
,139.500000=0.750000
,140.000000=1.500000
,141.000000=0.750000
,141.500000=1.500000
,142.500000=0.750000
,143.000000=1.500000
,143.500000=0.750000
,144.000000=1.500000
,145.000000=0.750000
,145.500000=1.500000
,146.500000=0.750000
,147.000000=1.500000
,147.500000=0.750000
,148.000000=1.500000
,149.000000=0.750000
,149.500000=1.500000
,150.500000=0.750000
,151.000000=1.500000
,151.500000=0.750000
,152.000000=1.500000
,153.000000=0.750000
,153.500000=1.500000
,154.500000=0.750000
,155.000000=1.500000
,155.500000=0.750000
,156.000000=1.500000
,157.000000=0.750000
,157.500000=1.500000
,158.500000=0.750000
,159.000000=1.500000
,159.500000=0.750000
,160.000000=1.500000
,161.000000=0.750000
,161.500000=1.500000
,162.500000=0.750000
,163.000000=1.500000
,163.500000=0.750000
,164.000000=1.500000
,165.000000=0.750000
,165.500000=1.500000
,166.500000=0.750000
,167.000000=1.500000
,167.500000=0.750000
,168.000000=1.500000
,169.000000=0.750000
,169.500000=1.500000
,170.500000=0.750000
,171.000000=1.500000
,171.500000=0.750000
,172.000000=1.500000
,173.000000=0.750000
,173.500000=1.500000
,174.500000=0.750000
,175.000000=1.500000
,175.500000=0.750000
,176.000000=1.500000
,177.000000=0.750000
,177.500000=1.500000
,178.500000=0.750000
,179.000000=1.500000
,179.500000=0.750000
,180.000000=1.500000
,181.000000=0.750000
,181.500000=1.500000
,182.500000=0.750000
,183.000000=1.500000
,183.500000=0.750000
,184.000000=1.500000
,185.000000=0.750000
,185.500000=1.500000
,186.500000=0.750000
,187.000000=1.500000
,187.500000=0.750000
,188.000000=0.500000
,192.000000=1.500000
,193.000000=0.750000
,193.500000=1.500000
,194.500000=0.750000
,195.000000=1.500000
,195.500000=0.750000
,196.000000=1.500000
,197.000000=0.750000
,197.500000=1.500000
,198.500000=0.750000
,199.000000=1.500000
,199.500000=0.750000
,200.000000=1.500000
,201.000000=0.750000
,201.500000=1.500000
,202.500000=0.750000
,203.000000=1.500000
,203.500000=0.750000
,204.000000=1.500000
,205.000000=0.750000
,205.500000=1.500000
,206.500000=0.750000
,207.000000=1.500000
,207.500000=0.750000
,208.000000=1.500000
,209.000000=0.750000
,209.500000=1.500000
,210.500000=0.750000
,211.000000=1.500000
,211.500000=0.750000
,212.000000=1.500000
,213.000000=0.750000
,213.500000=1.500000
,214.500000=0.750000
,215.000000=1.500000
,215.500000=0.750000
,216.000000=1.500000
,217.000000=0.750000
,217.500000=1.500000
,218.500000=0.750000
,219.000000=1.500000
,219.500000=0.750000
,220.000000=1.500000
,221.000000=0.750000
,221.500000=1.500000
,222.500000=0.750000
,223.000000=1.500000
,223.500000=0.750000
,224.000000=0.500000
,228.000000=1.000000
,292.000000=1.500000
,293.000000=0.750000
,293.500000=1.500000
,294.500000=0.750000
,295.000000=1.500000
,295.500000=0.750000
,296.000000=1.500000
,297.000000=0.750000
,297.500000=1.500000
,298.500000=0.750000
,299.000000=1.500000
,299.500000=0.750000
,300.000000=1.000000
;
#FAKES:;
#LABELS:0.000000=Song Start
;
#DISPLAYBPM:170.000000;
#NOTES:
// measure 0
0000
0000
0000
0000
,  // measure 1
0000
0000
0000
0000
,  // measure 2
0000
0000
0000
0000
,  // measure 3
0000
0000
0000
0000
,  // measure 4
1000
0001
0100
0010
,  // measure 5
1000
0001
0010
0001
0010
0100
1000
0100
,  // measure 6
1000
0001
0100
0010
,  // measure 7
2000
0000
0000
3000
,  // measure 8
1001
0000
1010
0000
1001
0000
0000
0011
,  // measure 9
0000
0011
0020
0000
,  // measure 10
0031
0000
1000
0100
0010
0100
1000
0001
,  // measure 11
1000
0010
0100
0001
,  // measure 12
0010
0100
1000
0100
,  // measure 13
0010
0001
0100
0001
0100
0010
1000
0010
,  // measure 14
1000
0001
0010
0100
,  // measure 15
2000
0000
0000
3000
,  // measure 16
0001
0010
0001
0000
1000
0010
1000
0000
,  // measure 17
0100
0010
0100
0000
1000
0001
1000
0001
,  // measure 18
1000
0010
1000
0000
0010
0100
0010
0000
,  // measure 19
1000
0100
1000
0000
0100
0010
0100
0000
,  // measure 20
1100
0000
1001
0000
0101
0000
0000
0110
,  // measure 21
0000
0000
0000
0000
1001
0000
0000
0000
1000
0000
0100
0000
0000
1000
0000
0000
,  // measure 22
0001
0000
0000
0100
0001
0000
1001
0000
,  // measure 23
0001
0010
0100
0010
0001
0010
0100
1000
,  // measure 24
0001
0010
0001
0000
1000
0100
1000
0000
,  // measure 25
0010
0100
0010
0000
1000
0100
1000
0000
,  // measure 26
0001
0100
0001
0000
1000
0001
1000
0000
,  // measure 27
0010
0100
0010
0000
1000
0000
0001
0010
,  // measure 28
0100
0010
0001
0000
1000
0010
1000
0000
,  // measure 29
0100
0010
0100
0000
1000
0010
0100
0010
,  // measure 30
1000
0100
0010
0001
,  // measure 31
1000
0002
0000
0003
,  // measure 32
1001
0000
0000
1010
0000
0000
0101
0000
,  // measure 33
0110
0000
0000
1001
0000
0000
0011
0000
,  // measure 34
0110
0000
0000
1010
0000
0000
0110
0000
,  // measure 35
1001
0000
0000
0101
0000
0000
0110
0000
,  // measure 36
1001
0000
0000
1010
0000
0000
0110
0000
,  // measure 37
1001
0000
0000
1010
0000
0000
0101
0000
,  // measure 38
0011
0000
0000
1001
0000
0000
0110
0000
,  // measure 39
1010
0000
0000
0110
0000
0000
1001
0000
,  // measure 40
0101
0000
0000
0110
0000
0000
0101
0000
,  // measure 41
1010
0000
0000
0110
0000
0000
1010
0000
,  // measure 42
0110
0000
0000
1001
0000
0000
0011
0000
,  // measure 43
0110
0000
0000
1001
0000
0000
0110
0000
,  // measure 44
1010
0000
0000
0101
0000
0000
0110
0000
,  // measure 45
1001
0000
0000
0110
0000
0000
1010
0000
,  // measure 46
0101
0000
0000
0110
0000
0000
1010
0000
,  // measure 47
2000
0000
0000
0001
0000
0000
3001
0000
,  // measure 48
2000
3000
0000
0200
0300
0000
0020
0030
,  // measure 49
0002
0003
0000
0200
0300
0000
0002
0003
,  // measure 50
2000
3000
0000
0002
0003
0000
0020
0030
,  // measure 51
0200
0300
0000
2000
3000
0000
0002
0003
,  // measure 52
0200
0300
0000
0020
0030
0000
0200
0300
,  // measure 53
0002
0003
0000
0020
0030
0000
0200
0300
,  // measure 54
2000
3000
0000
0002
0003
0000
0200
0300
,  // measure 55
0020
0000
0000
0000
0000
0000
0000
0000
0000
0000
0000
0000
0000
0000
0000
0000
0000
0000
0000
0000
0000
0000
0000
0000
0000
0000
0000
0000
0000
0000
0000
0030
,  // measure 56
00L0
0000
0000
0000
,  // measure 57
1001
0001
1000
0100
,  // measure 58
1000
0010
0000
0010
1000
0000
0001
0000
,  // measure 59
0100
0010
1000
0100
,  // measure 60
1000
0001
0000
0001
1000
0000
0010
0000
,  // measure 61
0100
0010
1000
0001
,  // measure 62
1000
0100
0000
0100
1000
0000
0001
0000
,  // measure 63
0010
0100
1000
0001
,  // measure 64
1000
0010
0000
0010
1000
0000
0001
0000
,  // measure 65
1000
0000
0001
0010
0100
0000
1000
0000
,  // measure 66
1000
0001
0000
0001
0100
0000
0010
0000
,  // measure 67
1000
0000
0001
1000
0100
0000
0010
0000
,  // measure 68
0010
0001
0000
0001
1000
0000
0010
0000
,  // measure 69
1000
0000
0010
0100
0001
0000
1000
0000
,  // measure 70
1000
0001
1000
0100
0010
0001
2000
0000
,  // measure 71
3001
0000
0010
0100
1000
0000
0001
0000
,  // measure 72
0001
0010
0000
0010
0200
0000
2300
0000
,  // measure 73
3001
0000
0000
1001
0000
0000
1001
0000
,  // measure 74
0010
0000
0000
0110
0000
0000
0110
0000
,  // measure 75
1000
0000
0000
1100
0000
0000
1100
0000
,  // measure 76
0001
0000
0000
0101
0000
0000
0101
0000
;

//---------------dance-single - ----------------
#NOTEDATA:;
#CHARTNAME:Hearing;
#STEPSTYPE:dance-single;
#DESCRIPTION:;
#CHARTSTYLE:;
#DIFFICULTY:Hard;
#METER:8;
#RADARVALUES:208,38,103,0,2,4,38,0,110,208,38,103,0,2,4,38,0,110;
#CREDIT:Phil Lee;
#OFFSET:0.000000;
#BPMS:0.000000=170.000000
,300.000000=160.000000
,301.500000=135.000000
,303.000000=115.000000
,304.000000=98.000000
,305.500000=82.000000
,372.000000=320.000000
,375.000000=270.000000
,378.000000=230.000000
,380.000000=196.000000
,383.000000=164.000000
,844.000000=82.000000
;
#STOPS:;
#DELAYS:;
#WARPS:;
#TIMESIGNATURES:0.000000=4=4
;
#SPEEDS:0.000000=1.000000=0.000000=0
;
#SCROLLS:0.000000=1.000000
,31.000000=0.000000
,31.500000=1.000000
,63.000000=0.750000
,64.000000=1.000000
,126.000000=0.750000
,128.000000=1.500000
,129.000000=0.750000
,129.500000=1.500000
,130.500000=0.750000
,131.000000=1.500000
,131.500000=0.750000
,132.000000=1.500000
,133.000000=0.750000
,133.500000=1.500000
,134.500000=0.750000
,135.000000=1.500000
,135.500000=0.750000
,136.000000=1.500000
,137.000000=0.750000
,137.500000=1.500000
,138.500000=0.750000
,139.000000=1.500000
,139.500000=0.750000
,140.000000=1.500000
,141.000000=0.750000
,141.500000=1.500000
,142.500000=0.750000
,143.000000=1.500000
,143.500000=0.750000
,144.000000=1.500000
,145.000000=0.750000
,145.500000=1.500000
,146.500000=0.750000
,147.000000=1.500000
,147.500000=0.750000
,148.000000=1.500000
,149.000000=0.750000
,149.500000=1.500000
,150.500000=0.750000
,151.000000=1.500000
,151.500000=0.750000
,152.000000=1.500000
,153.000000=0.750000
,153.500000=1.500000
,154.500000=0.750000
,155.000000=1.500000
,155.500000=0.750000
,156.000000=1.500000
,157.000000=0.750000
,157.500000=1.500000
,158.500000=0.750000
,159.000000=1.500000
,159.500000=0.750000
,160.000000=1.500000
,161.000000=0.750000
,161.500000=1.500000
,162.500000=0.750000
,163.000000=1.500000
,163.500000=0.750000
,164.000000=1.500000
,165.000000=0.750000
,165.500000=1.500000
,166.500000=0.750000
,167.000000=1.500000
,167.500000=0.750000
,168.000000=1.500000
,169.000000=0.750000
,169.500000=1.500000
,170.500000=0.750000
,171.000000=1.500000
,171.500000=0.750000
,172.000000=1.500000
,173.000000=0.750000
,173.500000=1.500000
,174.500000=0.750000
,175.000000=1.500000
,175.500000=0.750000
,176.000000=1.500000
,177.000000=0.750000
,177.500000=1.500000
,178.500000=0.750000
,179.000000=1.500000
,179.500000=0.750000
,180.000000=1.500000
,181.000000=0.750000
,181.500000=1.500000
,182.500000=0.750000
,183.000000=1.500000
,183.500000=0.750000
,184.000000=1.500000
,185.000000=0.750000
,185.500000=1.500000
,186.500000=0.750000
,187.000000=1.500000
,187.500000=0.750000
,188.000000=0.500000
,192.000000=1.500000
,193.000000=0.750000
,193.500000=1.500000
,194.500000=0.750000
,195.000000=1.500000
,195.500000=0.750000
,196.000000=1.500000
,197.000000=0.750000
,197.500000=1.500000
,198.500000=0.750000
,199.000000=1.500000
,199.500000=0.750000
,200.000000=1.500000
,201.000000=0.750000
,201.500000=1.500000
,202.500000=0.750000
,203.000000=1.500000
,203.500000=0.750000
,204.000000=1.500000
,205.000000=0.750000
,205.500000=1.500000
,206.500000=0.750000
,207.000000=1.500000
,207.500000=0.750000
,208.000000=1.500000
,209.000000=0.750000
,209.500000=1.500000
,210.500000=0.750000
,211.000000=1.500000
,211.500000=0.750000
,212.000000=1.500000
,213.000000=0.750000
,213.500000=1.500000
,214.500000=0.750000
,215.000000=1.500000
,215.500000=0.750000
,216.000000=1.500000
,217.000000=0.750000
,217.500000=1.500000
,218.500000=0.750000
,219.000000=1.500000
,219.500000=0.750000
,220.000000=1.500000
,221.000000=0.750000
,221.500000=1.500000
,222.500000=0.750000
,223.000000=1.500000
,223.500000=0.750000
,224.000000=0.500000
,228.000000=1.000000
,292.000000=1.500000
,293.000000=0.750000
,293.500000=1.500000
,294.500000=0.750000
,295.000000=1.500000
,295.500000=0.750000
,296.000000=1.500000
,297.000000=0.750000
,297.500000=1.500000
,298.500000=0.750000
,299.000000=1.500000
,299.500000=0.750000
,300.000000=1.000000
;
#FAKES:;
#LABELS:0.000000=Song Start
;
#DISPLAYBPM:170.000000;
#NOTES:
// measure 0
0000
0000
0000
0000
,  // measure 1
0000
0000
0000
0000
,  // measure 2
0000
0000
0000
0000
,  // measure 3
0000
0000
0000
0000
,  // measure 4
1000
0000
0001
0200
0001
0000
0301
0000
,  // measure 5
1000
0001
0100
0010
1000
0100
0010
0100
,  // measure 6
1000
0000
0001
0000
0100
0000
0010
1000
0000
1000
0010
0000
0100
0000
0001
0010
,  // measure 7
0002
0000
0000
0003
,  // measure 8
1010
0000
0101
0000
0011
0000
0000
0101
,  // measure 9
0000
0000
1100
0000
0002
0000
0000
0003
,  // measure 10
1000
0000
0010
0100
0010
1000
0001
0010
,  // measure 11
0000
0000
2002
3003
,  // measure 12
1000
0000
0100
0020
0001
0000
0031
0000
,  // measure 13
1000
0004
0000
0003
0100
0040
0000
0030
,  // measure 14
1000
0000
0100
0000
1000
0000
0001
0010
0000
0010
0001
0000
1000
0000
0001
0100
,  // measure 15
0002
0000
0000
0003
,  // measure 16
1001
1000
0001
0010
1000
0010
0001
0100
,  // measure 17
0001
1000
0010
1000
0002
0023
0230
0320
,  // measure 18
0031
0100
0000
0000
0100
0010
0000
0010
1000
0000
0000
0000
0001
0000
0010
0000
,  // measure 19
0001
0100
0000
0000
0100
0010
0100
0010
0000
0010
0000
0010
0000
1000
0100
0000
,  // measure 20
1100
0000
0110
0000
0011
0000
0000
0101
,  // measure 21
0000
0000
0000
0000
1001
0000
0000
0000
1000
0000
0001
0100
0000
0001
0100
0000
,  // measure 22
0020
0000
0000
0000
0000
0030
1001
0000
,  // measure 23
0001
0000
1000
0000
0010
0000
1000
0000
0001
1000
0001
1000
0010
0100
0010
0100
,  // measure 24
0002
0000
1003
0100
0010
0100
1000
0001
,  // measure 25
1000
0040
0000
0000
0130
0040
0000
0000
,  // measure 26
1030
0000
0001
0000
0100
0000
0001
0010
0000
0001
0010
0000
0100
0000
1000
0010
,  // measure 27
1000
0000
0000
0100
0010
0100
0000
1000
0000
0000
0100
0000
0010
0000
0001
0000
,  // measure 28
0100
0010
0100
0000
0001
0010
0100
0010
,  // measure 29
0001
0100
1000
0100
0002
0023
0230
2300
,  // measure 30
3001
0010
0001
0010
0200
0000
0000
0000
1300
0000
0000
0000
0100
0010
0100
0010
,  // measure 31
0100
2002
0000
3003
,  // measure 32
2000
0000
0000
0000
0000
0000
0000
3000
L000
0000
0000
0000
0200
0000
0000
0000
0000
0000
0000
0300
0L00
0000
0000
0000
2000
0000
0000
0000
3000
0000
0000
0000
,  // measure 33
0200
0000
0000
0000
0000
0000
0000
0300
0L00
0000
0000
0000
0002
0000
0000
0000
0000
0000
0000
0003
000L
0000
0000
0000
0200
0000
0000
0000
0300
0000
0000
0000
,  // measure 34
2000
0000
0000
0000
0000
0000
0000
3000
L000
0000
0000
0000
0020
0000
0000
0000
0000
0000
0000
0030
00L0
0000
0000
0000
2000
0000
0000
0000
3000
0000
0000
0000
,  // measure 35
0002
0000
0000
0000
0000
0000
0000
0003
000L
0000
0000
0000
0200
0000
0000
0000
0000
0000
0000
0300
0L00
0000
0000
0000
0002
0000
0000
0000
0003
0000
0000
0000
,  // measure 36
0020
0000
0000
0000
0000
0000
0000
0030
00L0
0000
0000
0000
0200
0000
0000
0000
0000
0000
0000
0300
0L00
0000
0000
0000
0020
0000
0000
0000
0030
0000
0000
0000
,  // measure 37
0002
0000
0000
0000
0000
0000
0000
0003
000L
0000
0000
0000
0200
0000
0000
0000
0000
0000
0000
0300
0L00
0000
0000
0000
0002
0000
0000
0000
0003
0000
0000
0000
,  // measure 38
0020
0000
0000
0000
0000
0000
0000
0030
00L0
0000
0000
0000
0200
0000
0000
0000
0000
0000
0000
0300
0L00
0000
0000
0000
2000
0000
0000
0000
3000
0000
0000
0000
,  // measure 39
0020
0000
0000
0000
0000
0000
0000
0030
00L0
0000
0000
0000
0200
0000
0000
0000
0000
0000
0000
0300
0L00
0000
0000
0000
0002
0000
0000
0000
0003
0000
0000
0000
,  // measure 40
2000
0000
0000
0000
0000
0000
0000
3000
L000
0000
0000
0000
0200
0000
0000
0000
0000
0000
0000
0300
0L00
0000
0000
0000
2000
0000
0000
0000
3000
0000
0000
0000
,  // measure 41
0002
0000
0000
0000
0000
0000
0000
0003
000L
0000
0000
0000
0020
0000
0000
0000
0000
0000
0000
0030
00L0
0000
0000
0000
0200
0000
0000
0000
0300
0000
0000
0000
,  // measure 42
0020
0000
0000
0000
0000
0000
0000
0030
00L0
0000
0000
0000
2000
0000
0000
0000
0000
0000
0000
3000
L000
0000
0000
0000
0020
0000
0000
0000
0030
0000
0000
0000
,  // measure 43
0200
0000
0000
0000
0000
0000
0000
0300
0L00
0000
0000
0000
0002
0000
0000
0000
0000
0000
0000
0003
000L
0000
0000
0000
0200
0000
0000
0000
0300
0000
0000
0000
,  // measure 44
2000
0000
0000
0000
0000
0000
0000
3000
L000
0000
0000
0000
0020
0000
0000
0000
0000
0000
0000
0030
00L0
0000
0000
0000
2000
0000
0000
0000
3000
0000
0000
0000
,  // measure 45
0200
0000
0000
0000
0000
0000
0000
0300
0L00
0000
0000
0000
0020
0000
0000
0000
0000
0000
0000
0030
00L0
0000
0000
0000
0002
0000
0000
0003
0000
0000
0000
0000
,  // measure 46
2000
0000
0000
0000
0000
0000
0000
3000
L000
0000
0000
0000
0020
0000
0000
0000
0000
0000
0000
0030
00L0
0000
0000
0000
0200
0000
0000
0000
0300
0000
0000
0000
,  // measure 47
0002
0003
0000
2000
3000
0000
0200
0300
,  // measure 48
1001
0000
0000
1010
0000
0000
0101
0000
,  // measure 49
0110
0000
0000
1001
0000
0000
0110
0000
,  // measure 50
1010
0000
0000
0101
0000
0000
0110
0000
,  // measure 51
1010
0000
0000
0110
0000
0000
1001
0000
,  // measure 52
0101
0000
0000
0110
0000
0000
1010
0000
,  // measure 53
1001
0000
0000
0101
0000
0000
0110
0000
,  // measure 54
1010
0000
0000
1100
0000
0000
0101
0000
,  // measure 55
2200
0000
0000
0011
0000
0000
3311
0000
,  // measure 56
1100
0000
0000
0000
,  // measure 57
2000
3200
0320
0032
,  // measure 58
1003
0010
0000
0100
0001
0000
1001
0000
,  // measure 59
2000
3002
0203
0320
,  // measure 60
0130
0001
0000
1000
0100
0000
1001
0000
,  // measure 61
2000
3002
0023
0230
,  // measure 62
1300
0001
0000
0010
0100
0000
1100
0000
,  // measure 63
2000
3002
0203
0320
,  // measure 64
1030
0010
0000
0100
0001
0000
0101
0000
,  // measure 65
1000
0100
0010
0001
0010
1000
0010
0001
,  // measure 66
1000
0010
0000
0010
0200
0000
0302
0000
,  // measure 67
1003
0100
0010
0100
0001
0100
1000
0010
,  // measure 68
1000
0100
0000
0100
0020
0000
0032
0000
,  // measure 69
1003
0100
0001
0100
1000
0010
0100
0001
,  // measure 70
1000
0000
0010
0000
1000
0000
0100
0000
0010
0001
0010
0001
1000
0001
1000
0001
,  // measure 71
0100
0002
1003
0200
0310
2000
3010
0002
,  // measure 72
1003
0000
0000
0000
0000
0000
0100
0000
0000
0000
0000
0000
0000
0000
0000
0000
0000
0000
0000
0000
0000
0000
0000
0000
0000
0000
0000
0000
0000
0000
0000
0000
0000
0000
0000
0000
0000
0000
0000
0000
0000
0000
0000
0000
0000
0000
0000
0000
0010
0000
0000
0000
0000
0000
0001
0000
0000
0000
0000
0000
0000
0000
0000
0000
0000
0000
0000
0000
0000
0000
0000
0000
0000
0000
0000
0000
0000
0000
0000
0000
0000
0000
0000
0000
0000
0000
0000
0000
0000
0000
0000
0000
0000
0000
0000
0000
1000
0000
0000
0000
0000
0000
0000
0000
0001
0000
0000
0000
0000
0000
0000
0000
0000
0000
0000
0000
0000
0000
0000
0000
0000
0000
0000
0000
0000
0000
0000
0000
0000
0000
0000
0000
0000
0000
0000
0000
0000
0000
0000
0000
0000
0000
0000
0000
0100
0000
0000
0000
0000
0000
0000
0000
0001
0000
0000
0000
0000
0000
0000
0000
0000
0000
0000
0000
0000
0000
0000
0000
0000
0000
0000
0000
0000
0000
0000
0000
0000
0000
0000
0000
0000
0000
0000
0000
0000
0000
0000
0000
0000
0000
0000
0000
,  // measure 73
2000
0000
0000
0000
0000
0000
0000
3000
L000
0000
0000
0000
0200
0000
0000
0000
0000
0000
0000
0300
0L00
0000
0000
0000
0020
0000
0000
0000
0030
0000
0000
0000
,  // measure 74
0200
0000
0000
0000
0000
0000
0000
0300
0L00
0000
0000
0000
0002
0000
0000
0000
0000
0000
0000
0003
000L
0000
0000
0000
0200
0000
0000
0000
0300
0000
0000
0000
,  // measure 75
2000
0000
0000
0000
0000
0000
0000
3000
L000
0000
0000
0000
0020
0000
0000
0000
0000
0000
0000
0030
00L0
0000
0000
0000
2000
0000
0000
0000
3000
0000
0000
0000
,  // measure 76
0002
0000
0000
0000
0000
0000
0000
0003
000L
0000
0000
0000
0020
0000
0000
0000
0000
0000
0000
0030
00L0
0000
0000
0000
0200
0000
0000
0000
0300
0000
0000
0000
;

//---------------dance-single - ----------------
#NOTEDATA:;
#CHARTNAME:Sight;
#STEPSTYPE:dance-single;
#DESCRIPTION:;
#CHARTSTYLE:;
#DIFFICULTY:Challenge;
#METER:10;
#RADARVALUES:283,32,76,0,18,1,0,236,87,283,32,76,0,18,1,0,236,87;
#CREDIT:Phil Lee;
#OFFSET:0.000000;
#BPMS:0.000000=170.000000
,372.000000=320.000000
,375.000000=270.000000
,378.000000=230.000000
,380.000000=196.000000
,383.000000=164.000000
,844.000000=82.000000
;
#STOPS:300.000000=0.562000
,332.000000=0.667000
,396.000000=0.522000
,428.000000=0.918000
,460.000000=1.098000
,492.000000=1.000000
;
#DELAYS:;
#WARPS:300.000000=240.000000
;
#TIMESIGNATURES:0.000000=4=4
;
#SPEEDS:0.000000=1.000000=0.000000=0
;
#SCROLLS:0.000000=1.000000
,31.000000=0.000000
,31.500000=1.000000
,63.000000=0.750000
,64.000000=1.000000
,126.000000=0.750000
,128.000000=1.500000
,129.000000=0.750000
,129.500000=1.500000
,130.500000=0.750000
,131.000000=1.500000
,131.500000=0.750000
,132.000000=1.500000
,133.000000=0.750000
,133.500000=1.500000
,134.500000=0.750000
,135.000000=1.500000
,135.500000=0.750000
,136.000000=1.500000
,137.000000=0.750000
,137.500000=1.500000
,138.500000=0.750000
,139.000000=1.500000
,139.500000=0.750000
,140.000000=1.500000
,141.000000=0.750000
,141.500000=1.500000
,142.500000=0.750000
,143.000000=1.500000
,143.500000=0.750000
,144.000000=1.500000
,145.000000=0.750000
,145.500000=1.500000
,146.500000=0.750000
,147.000000=1.500000
,147.500000=0.750000
,148.000000=1.500000
,149.000000=0.750000
,149.500000=1.500000
,150.500000=0.750000
,151.000000=1.500000
,151.500000=0.750000
,152.000000=1.500000
,153.000000=0.750000
,153.500000=1.500000
,154.500000=0.750000
,155.000000=1.500000
,155.500000=0.750000
,156.000000=1.500000
,157.000000=0.750000
,157.500000=1.500000
,158.500000=0.750000
,159.000000=1.500000
,159.500000=0.750000
,160.000000=1.500000
,161.000000=0.750000
,161.500000=1.500000
,162.500000=0.750000
,163.000000=1.500000
,163.500000=0.750000
,164.000000=1.500000
,165.000000=0.750000
,165.500000=1.500000
,166.500000=0.750000
,167.000000=1.500000
,167.500000=0.750000
,168.000000=1.500000
,169.000000=0.750000
,169.500000=1.500000
,170.500000=0.750000
,171.000000=1.500000
,171.500000=0.750000
,172.000000=1.500000
,173.000000=0.750000
,173.500000=1.500000
,174.500000=0.750000
,175.000000=1.500000
,175.500000=0.750000
,176.000000=1.500000
,177.000000=0.750000
,177.500000=1.500000
,178.500000=0.750000
,179.000000=1.500000
,179.500000=0.750000
,180.000000=1.500000
,181.000000=0.750000
,181.500000=1.500000
,182.500000=0.750000
,183.000000=1.500000
,183.500000=0.750000
,184.000000=1.500000
,185.000000=0.750000
,185.500000=1.500000
,186.500000=0.750000
,187.000000=1.500000
,187.500000=0.750000
,188.000000=0.500000
,192.000000=1.500000
,193.000000=0.750000
,193.500000=1.500000
,194.500000=0.750000
,195.000000=1.500000
,195.500000=0.750000
,196.000000=1.500000
,197.000000=0.750000
,197.500000=1.500000
,198.500000=0.750000
,199.000000=1.500000
,199.500000=0.750000
,200.000000=1.500000
,201.000000=0.750000
,201.500000=1.500000
,202.500000=0.750000
,203.000000=1.500000
,203.500000=0.750000
,204.000000=1.500000
,205.000000=0.750000
,205.500000=1.500000
,206.500000=0.750000
,207.000000=1.500000
,207.500000=0.750000
,208.000000=1.500000
,209.000000=0.750000
,209.500000=1.500000
,210.500000=0.750000
,211.000000=1.500000
,211.500000=0.750000
,212.000000=1.500000
,213.000000=0.750000
,213.500000=1.500000
,214.500000=0.750000
,215.000000=1.500000
,215.500000=0.750000
,216.000000=1.500000
,217.000000=0.750000
,217.500000=1.500000
,218.500000=0.750000
,219.000000=1.500000
,219.500000=0.750000
,220.000000=1.500000
,221.000000=0.750000
,221.500000=1.500000
,222.500000=0.750000
,223.000000=1.500000
,223.500000=0.750000
,224.000000=0.500000
,228.000000=1.000000
,292.000000=1.500000
,293.000000=0.750000
,293.500000=1.500000
,294.500000=0.750000
,295.000000=1.500000
,295.500000=0.750000
,296.000000=1.500000
,297.000000=0.750000
,297.500000=1.500000
,298.500000=0.750000
,299.000000=1.500000
,299.500000=0.750000
,300.000000=1.000000
;
#FAKES:300.000000=201.000000
;
#LABELS:0.000000=Song Start
;
#ATTACKS:TIME=105.554810:LEN=5.119942:MODS=*10 Mini,*10 13% Flip:TIME=105.025398:LEN=5.649353:MODS=1.2x;
#DISPLAYBPM:170.000000;
#NOTES:
// measure 0
0000
0000
0000
0000
,  // measure 1
0000
0000
0000
0000
,  // measure 2
0000
0000
0000
0000
,  // measure 3
0000
0000
0000
0000
,  // measure 4
1000
0000
0001
0200
0310
1000
0100
0010
,  // measure 5
0001
1000
0010
0100
0001
1000
0010
0100
,  // measure 6
0001
0000
0010
0000
0001
0000
1000
0100
0000
0100
1000
0000
0001
0000
0100
0010
,  // measure 7
0200
0000
0000
0300
,  // measure 8
1001
0000
0011
0000
1001
0000
0000
1010
,  // measure 9
0000
0000
0000
0000
0110
0000
0000
0000
0002
0000
0003
0002
0000
0003
0002
0003
,  // measure 10
2000
0000
3001
0100
1000
0100
0001
0010
,  // measure 11
0000
0000
4004
3003
,  // measure 12
1000
0100
1000
0002
0103
0010
0100
0001
,  // measure 13
1000
0002
0013
0100
1000
0002
0013
0100
,  // measure 14
1000
0000
0010
0000
0100
0000
0010
1000
0000
1000
0010
0000
0100
0000
0001
0010
,  // measure 15
0002
0000
0000
0003
,  // measure 16
1001
0000
0000
0000
1000
0000
0100
0000
0010
0001
0010
0000
0100
0000
0010
0000
,  // measure 17
0001
0100
0001
0000
0010
0000
0100
0000
2000
0000
3200
0000
0320
0000
0032
0000
,  // measure 18
1003
0010
0000
0000
0010
1000
0000
1000
0001
0000
0000
0000
0010
0000
0001
0000
,  // measure 19
1000
0100
0000
0000
1000
0010
1000
0010
0000
0100
0000
0001
0000
0010
0001
0000
,  // measure 20
0101
0000
1001
0000
0011
0000
0000
1001
,  // measure 21
0000
0000
0000
0000
1010
0000
0000
0000
0010
0000
1000
0001
0000
1000
0001
0000
,  // measure 22
0200
0000
0000
0301
0100
0000
0110
0000
,  // measure 23
0010
0000
1000
0000
0100
0000
1000
0000
0001
0010
0001
0010
0100
1000
0100
1000
,  // measure 24
0002
0000
0000
0000
1003
0100
2000
0000
0000
0000
0000
0000
3010
0100
0010
0100
,  // measure 25
0010
2000
3100
0010
0001
0200
0310
1000
,  // measure 26
0001
0000
0010
0000
0100
0000
1000
0010
0000
0010
1000
0000
0001
0000
0100
0010
,  // measure 27
0100
0000
0000
0001
0010
0100
0000
1000
0000
0000
0010
0000
1000
0000
0001
0000
,  // measure 28
1000
0000
0100
0000
1000
0000
0001
0100
0001
0100
0001
0000
1000
0100
1000
0100
,  // measure 29
1000
0000
0000
0000
0001
0010
0001
0010
0002
0000
2003
0000
3200
0000
0320
0000
,  // measure 30
0031
0100
0010
1000
0002
0000
0000
0000
2003
0000
0000
0000
3100
0010
0001
0010
,  // measure 31
0200
0000
0000
0000
1300
0010
1000
0010
0000
0200
0000
0002
0000
0000
0303
0000
,  // measure 32
2002
0000
0000
0110
0000
0000
3113
0000
,  // measure 33
2020
0000
0000
0101
0000
0000
3131
0000
,  // measure 34
0022
0000
0000
1100
0000
0000
1133
0000
,  // measure 35
2002
0000
0000
0110
0000
0000
3113
0000
,  // measure 36
2200
0000
0000
0011
0000
0000
3311
0000
,  // measure 37
0220
0000
0000
1001
0000
0000
1331
0000
,  // measure 38
2020
0000
0000
0000
0000
0000
0000
0000
0000
0101
0000
0000
0000
0000
0000
0000
0000
0000
3131
0000
0000
0000
0000
1000
,  // measure 39
0000
0000
0100
0000
0000
0010
0000
0000
0001
0000
0000
1000
0000
0000
0001
0000
0000
0100
0000
0000
0010
0000
0000
0000
,  // measure 40
2000
0000
0000
0001
0000
0000
3001
0000
,  // measure 41
0020
0000
0000
0130
2000
0000
3001
0000
,  // measure 42
0200
0000
0000
0001
0000
0000
0301
0000
,  // measure 43
0020
0000
0000
0100
0000
0000
0130
0000
,  // measure 44
2000
0000
0000
0001
0000
0000
3001
0000
,  // measure 45
0200
0000
0000
0310
2000
0000
3100
0000
,  // measure 46
0020
0000
0000
0001
0000
0000
0031
0000
,  // measure 47
2000
0000
0000
0001
0000
0000
3001
0000
,  // measure 48
1000
0000
1001
0001
0000
0001
0101
0000
,  // measure 49
0100
0000
0110
0010
0000
0010
1010
0000
,  // measure 50
1000
0000
1001
0001
0000
0001
1001
0000
,  // measure 51
1000
0000
1100
0100
0000
0100
0110
0000
,  // measure 52
0010
0000
0011
0001
0000
0001
1001
0000
,  // measure 53
0001
0000
0101
0100
0000
0100
0101
0000
,  // measure 54
0001
0000
0011
0010
0000
0010
0110
0000
,  // measure 55
0100
0000
1100
1000
0000
0000
1001
0000
,  // measure 56
1001
0000
0000
0000
,  // measure 57
2000
3002
0203
0302
,  // measure 58
0013
0100
0000
0100
0020
0000
0032
0000
,  // measure 59
2003
3020
0230
0320
,  // measure 60
1030
0100
0000
0100
2000
0000
3002
0000
,  // measure 61
0023
0230
2300
3002
,  // measure 62
0103
0010
0000
0010
0200
0000
0302
0000
,  // measure 63
2003
3200
0320
0230
,  // measure 64
1300
0001
0000
0001
2000
0000
3020
0000
,  // measure 65
1030
0100
1000
0000
0010
0100
0010
0000
1000
0001
1000
0000
0001
0010
0001
0000
,  // measure 66
1000
0100
0000
0100
0010
0000
0011
0000
,  // measure 67
0010
0001
0010
0000
0100
1000
0100
0000
1000
0010
1000
0000
0001
0010
0001
0000
,  // measure 68
1000
0010
0000
0010
0100
0000
0110
0000
,  // measure 69
1000
0100
1000
0000
0100
0010
0100
0000
0010
0001
0010
0000
0001
1000
0001
0000
,  // measure 70
0100
0000
1000
0000
0100
0000
0010
0000
1000
0001
1000
0001
0010
0100
0010
0100
,  // measure 71
1000
0002
0103
0020
2030
3002
0103
0002
,  // measure 72
0013
0100
0000
0100
1000
0000
1100
0000
,  // measure 73
2200
0000
0000
0011
0000
0000
3311
0000
,  // measure 74
0202
0000
0000
1010
0000
0000
1313
0000
,  // measure 75
MMMM
0MM0
0MM0
0MM0
0MM0
0MM0
0MM0
0MM0
0MM0
0000
0000
0000
0000
0000
0000
0000
,  // measure 76
0000
0000
0000
0000
,  // measure 77
0000
0000
0000
0000
,  // measure 78
0000
0000
0000
0000
,  // measure 79
0000
0000
0000
0000
,  // measure 80
0000
0000
0000
0000
,  // measure 81
0000
0000
0000
0000
,  // measure 82
0000
0000
0000
0000
,  // measure 83
MMMM
0MM0
0MM0
0MM0
0MM0
0MM0
0MM0
0MM0
0MM0
0000
0000
0000
M00M
M00M
M00M
M00M
,  // measure 84
MMMM
M00M
M00M
M00M
M00M
0000
0000
0000
0000
0000
0000
0000
0000
0000
0000
0000
,  // measure 85
0000
0000
0000
0000
,  // measure 86
0000
0000
0000
0000
,  // measure 87
0000
0000
0000
0000
,  // measure 88
0000
0000
0000
0000
,  // measure 89
0000
0000
0000
0000
,  // measure 90
0000
0000
0000
0000
,  // measure 91
0000
0000
0000
0000
,  // measure 92
0000
0000
0000
0000
,  // measure 93
0000
0000
0000
0000
,  // measure 94
0000
0000
0000
0000
,  // measure 95
0000
0000
0000
0000
,  // measure 96
0000
0000
0000
0000
,  // measure 97
0000
0000
0000
0000
,  // measure 98
0000
0000
0000
0000
,  // measure 99
MMMM
0MM0
0MM0
0MM0
0MM0
0MM0
0MM0
0MM0
0MM0
0000
0000
0000
M00M
M00M
M00M
M00M
,  // measure 100
MMMM
M00M
M00M
M00M
M00M
0000
0000
0000
MMMM
M000
M000
M000
MMMM
M000
M000
M000
,  // measure 101
MMMM
0000
0000
0000
,  // measure 102
0000
0000
0000
0000
,  // measure 103
0000
0000
0000
0000
,  // measure 104
0000
0000
0000
0000
,  // measure 105
0000
0000
0000
0000
,  // measure 106
0000
0000
0000
0000
,  // measure 107
MMMM
M000
M000
M000
MMMM
M000
M000
M000
MMMM
0000
0000
0000
0000
0000
0000
0000
,  // measure 108
0000
0000
0000
0000
,  // measure 109
0000
0000
0000
0000
,  // measure 110
0000
0000
0000
0000
,  // measure 111
0000
0000
0000
0000
,  // measure 112
0000
0000
0000
0000
,  // measure 113
0000
0000
0000
0000
,  // measure 114
0000
0000
0000
0000
,  // measure 115
MMMM
M000
M000
M000
MMMM
M000
M000
M000
MMMM
0000
0000
0000
M00M
M00M
MM0M
MM0M
,  // measure 116
M0MM
M0MM
M00M
M00M
M00M
0000
0000
0000
0000
0000
0000
0000
0000
0000
0000
0000
,  // measure 117
0000
0000
0000
0000
,  // measure 118
0000
0000
0000
0000
,  // measure 119
0000
0000
0000
0000
,  // measure 120
0000
0000
0000
0000
,  // measure 121
0000
0000
0000
0000
,  // measure 122
0000
0000
0000
0000
,  // measure 123
MMMM
M000
M000
M000
MMMM
M000
M000
M000
MMMM
0000
0000
0000
M00M
M00M
MM0M
MM0M
,  // measure 124
M0MM
M0MM
M00M
M00M
M00M
0000
0000
0000
MMM0
M00M
M00M
M00M
M00M
M00M
M00M
M00M
,  // measure 125
MMM0
0000
0000
0000
;
