#VERSION:0.83;
#TITLE:Art;
#SUBTITLE:;
#ARTIST:Correy Morales;
#TITLETRANSLIT:;
#SUBTITLETRANSLIT:;
#ARTISTTRANSLIT:;
#GENRE:;
#ORIGIN:;
#CREDIT:;
#BANNER:art-banner.png;
#BACKGROUND:art-bg.png;
#PREVIEWVID:;
#JACKET:;
#CDIMAGE:;
#DISCIMAGE:art-bg.png;
#LYRICSPATH:;
#CDTITLE:;
#MUSIC:Art - 90 Bpm.ogg;
#OFFSET:0.000000;
#SAMPLESTART:0.000000;
#SAMPLELENGTH:21.333378;
#SELECTABLE:YES;
#DISPLAYBPM:90.000000;
#BPMS:0.000=90.000,
64.000=180.000,
128.000=90.000;
#STOPS:64.000=0.083,
64.250=0.083,
64.500=0.083,
64.750=0.083,
65.000=0.083,
65.250=0.083,
65.500=0.083,
65.750=0.083,
66.000=0.083,
66.250=0.083,
66.500=0.083,
66.750=0.083,
67.000=0.333,
68.000=0.083,
68.250=0.083,
68.500=0.083,
68.750=0.083,
69.000=0.083,
69.250=0.083,
69.500=0.083,
69.750=0.083,
70.000=0.083,
70.250=0.083,
70.500=0.083,
70.750=0.083,
71.000=0.333,
72.000=0.083,
72.250=0.083,
72.500=0.083,
72.750=0.083,
73.000=0.083,
73.250=0.083,
73.500=0.083,
73.750=0.083,
74.000=0.083,
74.250=0.083,
74.500=0.083,
74.750=0.083,
75.000=0.333,
76.000=0.083,
76.250=0.083,
76.500=0.083,
76.750=0.083,
77.000=0.083,
77.250=0.083,
77.500=0.083,
77.750=0.083,
78.000=0.083,
78.250=0.083,
78.500=0.083,
78.750=0.083,
79.000=0.333,
80.000=0.167,
80.500=0.083,
80.750=0.083,
81.000=0.083,
81.250=0.083,
81.500=0.083,
81.750=0.083,
82.000=0.083,
82.250=0.083,
82.500=0.083,
82.750=0.083,
83.000=0.333,
84.000=0.083,
84.250=0.083,
84.500=0.083,
84.750=0.083,
85.000=0.083,
85.250=0.083,
85.500=0.083,
85.750=0.083,
86.000=0.083,
86.250=0.083,
86.500=0.083,
86.750=0.083,
87.000=0.333,
88.000=0.083,
88.250=0.083,
88.500=0.083,
88.750=0.083,
89.000=0.083,
89.250=0.083,
89.500=0.083,
89.750=0.083,
90.000=0.083,
90.250=0.083,
90.500=0.083,
90.750=0.083,
91.000=0.333,
92.000=0.083,
92.250=0.083,
92.500=0.083,
92.750=0.083,
93.000=0.083,
93.250=0.083,
93.500=0.083,
93.750=0.083,
94.000=0.083,
94.250=0.083,
94.500=0.083,
94.750=0.083,
95.000=0.333,
96.000=0.083,
96.250=0.083,
96.500=0.083,
96.750=0.083,
97.000=0.083,
97.250=0.083,
97.500=0.083,
97.750=0.083,
98.000=0.083,
98.250=0.083,
98.500=0.083,
98.750=0.083,
99.000=0.333,
100.000=0.083,
100.250=0.083,
100.500=0.083,
100.750=0.083,
101.000=0.083,
101.250=0.083,
101.500=0.083,
101.750=0.083,
102.000=0.083,
102.250=0.083,
102.500=0.083,
102.750=0.083,
103.000=0.333,
104.000=0.083,
104.250=0.083,
104.500=0.083,
104.750=0.083,
105.000=0.083,
105.250=0.083,
105.500=0.083,
105.750=0.083,
106.000=0.083,
106.250=0.083,
106.500=0.083,
106.750=0.083,
107.000=0.333,
108.000=0.083,
108.250=0.083,
108.500=0.083,
108.750=0.083,
109.000=0.083,
109.250=0.083,
109.500=0.083,
109.750=0.083,
110.000=0.083,
110.250=0.083,
110.500=0.083,
110.750=0.083,
111.000=0.333,
112.000=0.167,
112.500=0.083,
112.750=0.083,
113.000=0.083,
113.250=0.083,
113.500=0.083,
113.750=0.083,
114.000=0.083,
114.250=0.083,
114.500=0.083,
114.750=0.083,
115.000=0.333,
116.000=0.083,
116.250=0.083,
116.500=0.083,
116.750=0.083,
117.000=0.083,
117.250=0.083,
117.500=0.083,
117.750=0.083,
118.000=0.083,
118.250=0.083,
118.500=0.083,
118.750=0.083,
119.000=0.333,
120.000=0.042,
120.125=0.042,
120.250=0.042,
120.375=0.042,
120.500=0.042,
120.625=0.042,
120.750=0.042,
120.875=0.042,
121.000=0.042,
121.125=0.042,
121.250=0.042,
121.375=0.042,
121.500=0.042,
121.625=0.042,
121.750=0.042,
121.875=0.042,
122.000=0.042,
122.125=0.042,
122.250=0.042,
122.375=0.042,
122.500=0.042,
122.625=0.042,
122.750=0.042,
122.875=0.042,
123.000=0.333,
124.000=0.042,
124.125=0.042,
124.250=0.042,
124.375=0.042,
124.500=0.042,
124.625=0.042,
124.750=0.042,
124.875=0.042,
125.000=0.042,
125.125=0.042,
125.250=0.042,
125.375=0.042,
125.500=0.042,
125.625=0.042,
125.750=0.042,
125.875=0.042,
126.000=0.042,
126.125=0.042,
126.250=0.042,
126.375=0.042,
126.500=0.042,
126.625=0.042,
126.750=0.042,
126.875=0.042,
127.000=0.333;
#DELAYS:;
#WARPS:;
#TIMESIGNATURES:0.000=4=4;
#TICKCOUNTS:0.000=4;
#COMBOS:0.000=1;
#SPEEDS:0.000=1.000=0.000=0;
#SCROLLS:0.000=1.000;
#FAKES:;
#LABELS:0.000=Song Start;
#BGCHANGES:0.000=art-bg.png=1.000=1=0=1===CrossFade==,
99999=-nosongbg-=1.000=0=0=0 // don't automatically add -songbackground-
;
#KEYSOUNDS:;
#ATTACKS:
;

//---------------dance-single - ----------------
#NOTEDATA:;
#CHARTNAME:Digital Art;
#STEPSTYPE:dance-single;
#DESCRIPTION:;
#CHARTSTYLE:;
#DIFFICULTY:Edit;
#METER:9;
#RADARVALUES:0.652523,0.616471,0.000000,2.639510,1.305715,488.000000,488.000000,0.000000,282.000000,99.000000,0.000000,26.000000,0.000000,0.000000,0.652523,0.616471,0.000000,2.639510,1.305715,488.000000,488.000000,0.000000,282.000000,99.000000,0.000000,26.000000,0.000000,0.000000;
#CREDIT:Jaymes "JAiZ" Hayward;
#OFFSET:0.000000;
#BPMS:0.000000=90.000000
;
#STOPS:;
#DELAYS:;
#WARPS:;
#TIMESIGNATURES:0.000000=4=4
;
#TICKCOUNTS:0.000000=4
;
#COMBOS:0.000000=1
;
#SPEEDS:0.000000=1.000000=0.000000=0
;
#SCROLLS:0.000000=1.000000
,64.000000=0.000000
,64.125000=2.000000
,64.250000=0.000000
,64.375000=2.000000
,64.500000=0.000000
,64.625000=2.000000
,64.750000=0.000000
,64.875000=2.000000
,65.000000=0.000000
,65.125000=2.000000
,65.250000=0.000000
,65.375000=2.000000
,65.500000=0.000000
,65.625000=2.000000
,65.750000=0.000000
,65.875000=2.000000
,66.000000=0.000000
,66.125000=2.000000
,66.250000=0.000000
,66.375000=2.000000
,66.500000=0.000000
,66.625000=2.000000
,66.750000=0.000000
,66.875000=2.000000
,67.000000=0.000000
,67.250000=1.250000
,68.000000=0.000000
,68.125000=2.000000
,68.250000=0.000000
,68.375000=2.000000
,68.500000=0.000000
,68.625000=2.000000
,68.750000=0.000000
,68.875000=2.000000
,69.000000=0.000000
,69.125000=2.000000
,69.250000=0.000000
,69.375000=2.000000
,69.500000=0.000000
,69.625000=2.000000
,69.750000=0.000000
,69.875000=2.000000
,70.000000=0.000000
,70.125000=2.000000
,70.250000=0.000000
,70.375000=2.000000
,70.500000=0.000000
,70.625000=2.000000
,70.750000=0.000000
,70.875000=2.000000
,71.000000=0.000000
,71.250000=1.250000
,72.000000=0.000000
,72.125000=2.000000
,72.250000=0.000000
,72.375000=2.000000
,72.500000=0.000000
,72.625000=2.000000
,72.750000=0.000000
,72.875000=2.000000
,73.000000=0.000000
,73.125000=2.000000
,73.250000=0.000000
,73.375000=2.000000
,73.500000=0.000000
,73.625000=2.000000
,73.750000=0.000000
,73.875000=2.000000
,74.000000=0.000000
,74.125000=2.000000
,74.250000=0.000000
,74.375000=2.000000
,74.500000=0.000000
,74.625000=2.000000
,74.750000=0.000000
,74.875000=2.000000
,75.000000=0.000000
,75.250000=1.250000
,76.000000=0.000000
,76.125000=2.000000
,76.250000=0.000000
,76.375000=2.000000
,76.500000=0.000000
,76.625000=2.000000
,76.750000=0.000000
,76.875000=2.000000
,77.000000=0.000000
,77.125000=2.000000
,77.250000=0.000000
,77.375000=2.000000
,77.500000=0.000000
,77.625000=2.000000
,77.750000=0.000000
,77.875000=2.000000
,78.000000=0.000000
,78.125000=2.000000
,78.250000=0.000000
,78.375000=2.000000
,78.500000=0.000000
,78.625000=2.000000
,78.750000=0.000000
,78.875000=2.000000
,79.000000=0.000000
,79.250000=1.250000
,80.000000=0.000000
,80.250000=2.000000
,80.500000=0.000000
,80.625000=2.000000
,80.750000=0.000000
,80.875000=2.000000
,81.000000=0.000000
,81.125000=2.000000
,81.250000=0.000000
,81.375000=2.000000
,81.500000=0.000000
,81.625000=2.000000
,81.750000=0.000000
,81.875000=2.000000
,82.000000=0.000000
,82.125000=2.000000
,82.250000=0.000000
,82.375000=2.000000
,82.500000=0.000000
,82.625000=2.000000
,82.750000=0.000000
,82.875000=2.000000
,83.000000=0.000000
,83.250000=1.250000
,84.000000=0.000000
,84.125000=2.000000
,84.250000=0.000000
,84.375000=2.000000
,84.500000=0.000000
,84.625000=2.000000
,84.750000=0.000000
,84.875000=2.000000
,85.000000=0.000000
,85.125000=2.000000
,85.250000=0.000000
,85.375000=2.000000
,85.500000=0.000000
,85.625000=2.000000
,85.750000=0.000000
,85.875000=2.000000
,86.000000=0.000000
,86.125000=2.000000
,86.250000=0.000000
,86.375000=2.000000
,86.500000=0.000000
,86.625000=2.000000
,86.750000=0.000000
,86.875000=2.000000
,87.000000=0.000000
,87.250000=1.250000
,88.000000=0.000000
,88.125000=2.000000
,88.250000=0.000000
,88.375000=2.000000
,88.500000=0.000000
,88.625000=2.000000
,88.750000=0.000000
,88.875000=2.000000
,89.000000=0.000000
,89.125000=2.000000
,89.250000=0.000000
,89.375000=2.000000
,89.500000=0.000000
,89.625000=2.000000
,89.750000=0.000000
,89.875000=2.000000
,90.000000=0.000000
,90.125000=2.000000
,90.250000=0.000000
,90.375000=2.000000
,90.500000=0.000000
,90.625000=2.000000
,90.750000=0.000000
,90.875000=2.000000
,91.000000=0.000000
,91.250000=1.250000
,92.000000=0.000000
,92.125000=2.000000
,92.250000=0.000000
,92.375000=2.000000
,92.500000=0.000000
,92.625000=2.000000
,92.750000=0.000000
,92.875000=2.000000
,93.000000=0.000000
,93.125000=2.000000
,93.250000=0.000000
,93.375000=2.000000
,93.500000=0.000000
,93.625000=2.000000
,93.750000=0.000000
,93.875000=2.000000
,94.000000=0.000000
,94.125000=2.000000
,94.250000=0.000000
,94.375000=2.000000
,94.500000=0.000000
,94.625000=2.000000
,94.750000=0.000000
,94.875000=2.000000
,95.000000=0.000000
,95.250000=1.250000
,96.000000=0.000000
,96.125000=2.000000
,96.250000=0.000000
,96.375000=2.000000
,96.500000=0.000000
,96.625000=2.000000
,96.750000=0.000000
,96.875000=2.000000
,97.000000=0.000000
,97.125000=2.000000
,97.250000=0.000000
,97.375000=2.000000
,97.500000=0.000000
,97.625000=2.000000
,97.750000=0.000000
,97.875000=2.000000
,98.000000=0.000000
,98.125000=2.000000
,98.250000=0.000000
,98.375000=2.000000
,98.500000=0.000000
,98.625000=2.000000
,98.750000=0.000000
,98.875000=2.000000
,99.000000=0.000000
,99.250000=1.250000
,100.000000=0.000000
,100.125000=2.000000
,100.250000=0.000000
,100.375000=2.000000
,100.500000=0.000000
,100.625000=2.000000
,100.750000=0.000000
,100.875000=2.000000
,101.000000=0.000000
,101.125000=2.000000
,101.250000=0.000000
,101.375000=2.000000
,101.500000=0.000000
,101.625000=2.000000
,101.750000=0.000000
,101.875000=2.000000
,102.000000=0.000000
,102.125000=2.000000
,102.250000=0.000000
,102.375000=2.000000
,102.500000=0.000000
,102.625000=2.000000
,102.750000=0.000000
,102.875000=2.000000
,103.000000=0.000000
,103.250000=1.250000
,104.000000=0.000000
,104.125000=2.000000
,104.250000=0.000000
,104.375000=2.000000
,104.500000=0.000000
,104.625000=2.000000
,104.750000=0.000000
,104.875000=2.000000
,105.000000=0.000000
,105.125000=2.000000
,105.250000=0.000000
,105.375000=2.000000
,105.500000=0.000000
,105.625000=2.000000
,105.750000=0.000000
,105.875000=2.000000
,106.000000=0.000000
,106.125000=2.000000
,106.250000=0.000000
,106.375000=2.000000
,106.500000=0.000000
,106.625000=2.000000
,106.750000=0.000000
,106.875000=2.000000
,107.000000=0.000000
,107.250000=1.250000
,108.000000=0.000000
,108.125000=2.000000
,108.250000=0.000000
,108.375000=2.000000
,108.500000=0.000000
,108.625000=2.000000
,108.750000=0.000000
,108.875000=2.000000
,109.000000=0.000000
,109.125000=2.000000
,109.250000=0.000000
,109.375000=2.000000
,109.500000=0.000000
,109.625000=2.000000
,109.750000=0.000000
,109.875000=2.000000
,110.000000=0.000000
,110.125000=2.000000
,110.250000=0.000000
,110.375000=2.000000
,110.500000=0.000000
,110.625000=2.000000
,110.750000=0.000000
,110.875000=2.000000
,111.000000=0.000000
,111.250000=1.250000
,112.000000=0.000000
,112.250000=2.000000
,112.500000=0.000000
,112.625000=2.000000
,112.750000=0.000000
,112.875000=2.000000
,113.000000=0.000000
,113.125000=2.000000
,113.250000=0.000000
,113.375000=2.000000
,113.500000=0.000000
,113.625000=2.000000
,113.750000=0.000000
,113.875000=2.000000
,114.000000=0.000000
,114.125000=2.000000
,114.250000=0.000000
,114.375000=2.000000
,114.500000=0.000000
,114.625000=2.000000
,114.750000=0.000000
,114.875000=2.000000
,115.000000=0.000000
,115.250000=1.250000
,116.000000=0.000000
,116.125000=2.000000
,116.250000=0.000000
,116.375000=2.000000
,116.500000=0.000000
,116.625000=2.000000
,116.750000=0.000000
,116.875000=2.000000
,117.000000=0.000000
,117.125000=2.000000
,117.250000=0.000000
,117.375000=2.000000
,117.500000=0.000000
,117.625000=2.000000
,117.750000=0.000000
,117.875000=2.000000
,118.000000=0.000000
,118.125000=2.000000
,118.250000=0.000000
,118.375000=2.000000
,118.500000=0.000000
,118.625000=2.000000
,118.750000=0.000000
,118.875000=2.000000
,119.000000=0.000000
,119.250000=1.250000
,120.000000=0.000000
,120.062500=2.000000
,120.125000=0.000000
,120.187500=2.000000
,120.250000=0.000000
,120.312500=2.000000
,120.375000=0.000000
,120.437500=2.000000
,120.500000=0.000000
,120.562500=2.000000
,120.625000=0.000000
,120.687500=2.000000
,120.750000=0.000000
,120.812500=2.000000
,120.875000=0.000000
,120.937500=2.000000
,121.000000=0.000000
,121.062500=2.000000
,121.125000=0.000000
,121.187500=2.000000
,121.250000=0.000000
,121.312500=2.000000
,121.375000=0.000000
,121.437500=2.000000
,121.500000=0.000000
,121.562500=2.000000
,121.625000=0.000000
,121.687500=2.000000
,121.750000=0.000000
,121.812500=2.000000
,121.875000=0.000000
,121.937500=2.000000
,122.000000=0.000000
,122.062500=2.000000
,122.125000=0.000000
,122.187500=2.000000
,122.250000=0.000000
,122.312500=2.000000
,122.375000=0.000000
,122.437500=2.000000
,122.500000=0.000000
,122.562500=2.000000
,122.625000=0.000000
,122.687500=2.000000
,122.750000=0.000000
,122.812500=2.000000
,122.875000=0.000000
,122.937500=2.000000
,123.000000=0.000000
,123.250000=1.250000
,124.000000=0.000000
,124.062500=2.000000
,124.125000=0.000000
,124.187500=2.000000
,124.250000=0.000000
,124.312500=2.000000
,124.375000=0.000000
,124.437500=2.000000
,124.500000=0.000000
,124.562500=2.000000
,124.625000=0.000000
,124.687500=2.000000
,124.750000=0.000000
,124.812500=2.000000
,124.875000=0.000000
,124.937500=2.000000
,125.000000=0.000000
,125.062500=2.000000
,125.125000=0.000000
,125.187500=2.000000
,125.250000=0.000000
,125.312500=2.000000
,125.375000=0.000000
,125.437500=2.000000
,125.500000=0.000000
,125.562500=2.000000
,125.625000=0.000000
,125.687500=2.000000
,125.750000=0.000000
,125.812500=2.000000
,125.875000=0.000000
,125.937500=2.000000
,126.000000=0.000000
,126.062500=2.000000
,126.125000=0.000000
,126.187500=2.000000
,126.250000=0.000000
,126.312500=2.000000
,126.375000=0.000000
,126.437500=2.000000
,126.500000=0.000000
,126.562500=2.000000
,126.625000=0.000000
,126.687500=2.000000
,126.750000=0.000000
,126.812500=2.000000
,126.875000=0.000000
,126.937500=2.000000
,127.000000=0.000000
,127.250000=1.250000
,128.000000=1.000000
;
#FAKES:;
#LABELS:0.000000=Song Start
;
#DISPLAYBPM:90.000000;
#NOTES:
// measure 0
0000
0000
0000
0000
,  // measure 1
0000
0000
0000
0000
0000
0000
0000
0000
0000
0000
0000
0000
2000
0000
0000
3002
0003
0000
0200
0300
0000
0002
0003
0000
,  // measure 2
0020
0030
0000
0200
0300
0000
2000
0000
0000
3002
0003
0000
0020
0030
0000
0200
0300
0000
2000
3000
0000
0020
0030
0000
,  // measure 3
0200
0000
0000
0302
0003
0000
0020
0030
0000
0200
0300
0000
0020
0030
0000
0002
0003
0000
2000
0000
0000
3002
0003
0000
,  // measure 4
0200
0000
0000
0000
0000
0000
0300
0000
0000
0000
0000
0000
0000
0000
0000
0000
0000
0000
0000
0000
0000
0000
0000
0000
0020
0000
0000
0000
0000
0000
0030
0000
0000
0000
0000
0000
0000
0000
0000
0000
0000
0000
0000
0000
0000
0000
0000
0000
0200
0000
0000
0000
0000
0000
0300
0000
0000
0000
0000
0000
0000
0000
0000
0000
0000
0000
0000
0000
0000
0000
0000
0000
0002
0000
0000
0000
0000
0000
0000
0000
0003
0000
0000
0000
0000
0000
0000
0000
0000
0000
0000
0000
0000
0000
0000
0000
2000
0000
0000
0000
0000
0000
0000
0000
0000
0000
0000
0000
0000
0000
0000
0000
0000
0000
0000
0000
0000
0000
0000
0000
3200
0000
0000
0000
0000
0000
0300
0000
0000
0000
0000
0000
0000
0000
0000
0000
0000
0000
0000
0000
0000
0000
0000
0000
0020
0000
0000
0000
0000
0000
0030
0000
0000
0000
0000
0000
0000
0000
0000
0000
0000
0000
0000
0000
0000
0000
0000
0000
0002
0000
0000
0000
0000
0000
0000
0000
0003
0000
0000
0000
0000
0000
0000
0000
0000
0000
0000
0000
0000
0000
0000
0000
,  // measure 5
0200
0300
0000
0020
0030
0000
2000
0000
0000
3002
0003
0000
2000
3000
0000
0020
0030
0000
0200
0300
0000
0020
0030
0000
,  // measure 6
2000
0000
0000
3002
0003
0000
2000
3000
0000
0200
0300
0000
0020
0030
0000
0002
0003
0000
0200
0000
0000
0302
0003
0000
,  // measure 7
2000
3000
0000
0020
0030
0000
0200
0300
0000
0002
0003
0000
2000
0000
0000
3002
0003
0000
0020
0030
0000
0200
0300
0000
,  // measure 8
2000
3200
0320
0032
0203
0320
2030
3200
0320
0032
2003
3002
0203
0320
2030
3020
,  // measure 9
0230
0302
0023
0230
2300
3020
2030
3200
2300
3020
2030
3200
0320
0032
0203
0302
,  // measure 10
2003
3020
0230
0302
2003
3200
0320
0230
2300
3020
0230
0302
0203
0320
0230
0302
,  // measure 11
2003
3200
0320
0032
0203
0320
2030
3200
0320
0032
2003
3200
2300
3020
0230
0302
,  // measure 12
0023
0230
0320
0032
2003
3020
0230
0320
2030
3002
0203
0302
0023
0230
0320
0032
,  // measure 13
2003
3020
0230
0320
2030
3200
0320
0032
0203
0302
0023
0032
0203
0320
2030
3002
,  // measure 14
2003
3200
0320
0230
2300
3002
0203
0302
2003
3020
2030
3200
2300
3002
0203
0320
,  // measure 15
2030
3002
0023
0230
2300
3020
0230
0302
2003
3020
2030
3002
2003
3200
0320
0030
,  // measure 16
0001
0000
0000
0100
0000
0000
0010
0000
0000
1000
0000
0000
0001
0000
0000
0100
0000
0000
0010
0000
0000
1000
0000
0000
0001
0000
0000
0100
0000
0000
0010
0000
0000
1000
0000
0000
0001
0000
0000
0000
0000
M000
0M00
00M0
000M
0000
0000
0000
,  // measure 17
1000
0000
0000
0100
0000
0000
0010
0000
0000
0100
0000
0000
1000
0000
0000
0001
0000
0000
0010
0000
0000
0001
0000
0000
1000
0000
0000
0100
0000
0000
0010
0000
0000
0001
0000
0000
1000
0000
0000
0000
0000
000M
00M0
0M00
M000
0000
0000
0000
,  // measure 18
0001
0000
0000
0010
0000
0000
0100
0000
0000
1000
0000
0000
0001
0000
0000
0100
0000
0000
0010
0000
0000
0100
0000
0000
0001
0000
0000
0100
0000
0000
0010
0000
0000
1000
0000
0000
0001
0000
0000
0000
0000
M000
0M00
00M0
000M
0000
0000
0000
,  // measure 19
1000
0000
0000
0010
0000
0000
0100
0000
0000
0001
0000
0000
0010
0000
0000
0001
0000
0000
1000
0000
0000
0001
0000
0000
0100
0000
0000
0010
0000
0000
1000
0000
0000
0100
0000
0000
1000
0000
0000
0000
0000
000M
00M0
0M00
M000
0000
0000
0000
,  // measure 20
0001
0000
0000
M000
0000
0000
0010
0000
0000
0001
0000
0000
0100
0000
0000
0010
0000
0000
1000
0000
0000
0001
0000
0000
0100
0000
0000
0001
0000
0000
0010
0000
0000
0001
0000
0000
1000
0000
0000
0000
0000
000M
00M0
0M00
M000
0000
0000
0000
,  // measure 21
0001
0000
0000
0100
0000
0000
0010
0000
0000
1000
0000
0000
0010
0000
0000
0100
0000
0000
0001
0000
0000
0010
0000
0000
0100
0000
0000
1000
0000
0000
0100
0000
0000
0010
0000
0000
0001
0000
0000
0000
0000
M000
0M00
00M0
000M
0000
0000
0000
,  // measure 22
1000
0000
0000
0010
0000
0000
0100
0000
0000
0001
0000
0000
0010
0000
0000
0001
0000
0000
1000
0000
0000
0010
0000
0000
1000
0000
0000
0100
0000
0000
1000
0000
0000
0010
0000
0000
1000
0000
0000
0000
0000
000M
00M0
0M00
M000
0000
0000
0000
,  // measure 23
0001
0000
0000
0100
0000
0000
0001
0000
0000
0010
0000
0000
0001
0000
0000
1000
0000
0000
0010
0000
0000
1000
0000
0000
0100
0000
0000
1000
0000
0000
0010
0000
0000
0100
0000
0000
0001
0000
0000
0000
0000
M000
0M00
00M0
000M
0000
0000
0000
,  // measure 24
1000
0000
0000
0010
0000
0000
1000
0000
0000
0100
0000
0000
1000
0000
0000
0001
0000
0000
0010
0000
0000
0001
0000
0000
1000
0000
0000
0001
0000
0000
0100
0000
0000
0010
0000
0000
1000
0000
0000
0000
0000
000M
00M0
0M00
M000
0000
0000
0000
,  // measure 25
0001
0000
0000
0100
0000
0000
0010
0000
0000
0100
0000
0000
0001
0000
0000
1000
0000
0000
0100
0000
0000
1000
0000
0000
0001
0000
0000
0100
0000
0000
0010
0000
0000
1000
0000
0000
0001
0000
0000
0000
0000
M000
0M00
00M0
000M
0000
0000
0000
,  // measure 26
1000
0000
0000
0100
0000
0000
1000
0000
0000
0010
0000
0000
0100
0000
0000
0001
0000
0000
1000
0000
0000
0001
0000
0000
0010
0000
0000
0100
0000
0000
1000
0000
0000
0100
0000
0000
0010
0000
0000
0000
0000
000M
00M0
0M00
M000
0000
0000
0000
,  // measure 27
0001
0000
0000
0100
0000
0000
0010
0000
0000
0100
0000
0000
0001
0000
0000
1000
0000
0000
0001
0000
0000
0010
0000
0000
0001
0000
0000
0100
0000
0000
0001
0000
0000
1000
0000
0000
0010
0000
0000
0000
0000
M000
0M00
00M0
000M
0000
0000
0000
,  // measure 28
1000
0000
0000
000M
0000
0000
0100
0000
0000
0010
0000
0000
0001
0000
0000
0010
0000
0000
0100
0000
0000
1000
0000
0000
0010
0000
0000
0100
0000
0000
0001
0000
0000
0100
0000
0000
0010
0000
0000
0000
0000
000M
0M00
00M0
M000
0000
0000
0000
,  // measure 29
1000
0000
0000
0100
0000
0000
1000
0000
0000
0010
0000
0000
0100
0000
0000
0001
0000
0000
1000
0000
0000
0100
0000
0000
1000
0000
0000
0010
0000
0000
1000
0000
0000
0100
0000
0000
1000
0000
0000
0000
0000
000M
0M00
00M0
M000
0000
0000
0000
,  // measure 30
0004
0000
0000
0003
0000
0000
0000
0000
0000
0000
0000
0000
0040
0000
0000
0030
0000
0000
0000
0000
0000
0000
0000
0000
0004
0000
0000
0003
0000
0000
0000
0000
0000
0000
0000
0000
0400
0000
0000
0300
0000
0000
0000
0000
0000
0000
0000
0000
0004
0000
0000
0003
0000
0000
0000
0000
0000
0000
0000
0000
4000
0000
0000
3000
0000
0000
0000
0000
0000
0000
0000
0000
0040
0000
0000
0030
0000
0000
0000
0000
0000
0000
0000
0000
4000
0000
0000
3000
0000
0000
0000
0000
0000
0000
0000
0000
0004
0000
0000
0003
0000
0000
0000
0000
0000
0000
0000
0000
4000
0000
0000
3000
0000
0000
0000
0000
0000
0000
0000
0000
0400
0000
0000
0300
0000
0000
0000
0000
0000
0000
0000
0000
0040
0000
0000
0030
0000
0000
0000
0000
0000
0000
0000
0000
0004
0000
0000
0003
0000
0000
0000
0000
0000
0000
0000
0000
0000
0000
0000
0000
0000
0000
0000
0000
M000
0000
0000
0000
0M00
0000
0000
0000
00M0
0000
0000
0000
000M
0000
0000
0000
0000
0000
0000
0000
0000
0000
0000
0000
0000
0000
0000
0000
,  // measure 31
4000
0000
0000
3000
0000
0000
0000
0000
0000
0000
0000
0000
0040
0000
0000
0030
0000
0000
0000
0000
0000
0000
0000
0000
0400
0000
0000
0300
0000
0000
0000
0000
0000
0000
0000
0000
0004
0000
0000
0003
0000
0000
0000
0000
0000
0000
0000
0000
4000
0000
0000
3000
0000
0000
0000
0000
0000
0000
0000
0000
0400
0000
0000
0300
0000
0000
0000
0000
0000
0000
0000
0000
0040
0000
0000
0030
0000
0000
0000
0000
0000
0000
0000
0000
0004
0000
0000
0003
0000
0000
0000
0000
0000
0000
0000
0000
4000
0000
0000
3000
0000
0000
0000
0000
0000
0000
0000
0000
0400
0000
0000
0300
0000
0000
0000
0000
0000
0000
0000
0000
4000
0000
0000
3000
0000
0000
0000
0000
0000
0000
0000
0000
0004
0000
0000
0003
0000
0000
0000
0000
0000
0000
0000
0000
0040
0030
0000
0000
0000
0000
0000
0000
0000
0000
0000
0000
0000
0000
0000
0000
0000
0000
0000
0000
0000
0000
0000
0000
0000
0000
0000
0000
000M
0000
0000
0000
0M00
0000
0000
0000
00M0
0000
0000
0000
M000
0000
0000
0000
0000
0000
0000
0000
,  // measure 32
0002
0000
0000
0000
0000
0000
0003
0000
0000
0000
0000
0000
0200
0000
0000
0000
0000
0000
0300
0000
0000
0000
0000
0000
0020
0000
0000
0000
0000
0000
0030
0000
0000
0000
0000
0000
2000
0000
0000
0000
0000
0000
3000
0000
0000
0000
0000
0000
0002
0000
0000
0000
0000
0000
0003
0000
0000
0000
0000
0000
0020
0000
0000
0000
0000
0000
0030
0000
0000
0000
0000
0000
0200
0000
0000
0000
0000
0000
0300
0000
0000
0000
0000
0000
2000
0000
0000
0000
0000
0000
3000
0000
0000
0000
0000
0000
0002
0000
0000
0000
0000
0000
0003
0000
0000
0000
0000
0000
0200
0000
0000
0000
0000
0000
0300
0000
0000
0000
0000
0000
0020
0000
0000
0000
0000
0000
0030
0000
0000
0000
0000
0000
2000
0000
0000
0000
0000
0000
3000
0000
0000
0000
0000
0000
0002
0000
0000
0000
0000
0000
0003
0000
M000
0000
0000
0000
0000
0000
0000
0000
00M0
0000
0000
0000
0000
0000
0000
0000
0M00
0000
0000
0000
0000
0000
0000
0000
000M
0000
0000
0000
0000
0000
0000
0000
0000
0000
0000
0000
0000
0000
0000
0000
,  // measure 33
2000
0000
0000
0000
0000
0000
3000
0000
0000
0000
0000
0000
0200
0000
0000
0000
0000
0000
0300
0000
0000
0000
0000
0000
0020
0000
0000
0000
0000
0000
0030
0000
0000
0000
0000
0000
0200
0000
0000
0000
0000
0000
0300
0000
0000
0000
0000
0000
2000
0000
0000
0000
0000
0000
3000
0000
0000
0000
0000
0000
0002
0000
0000
0000
0000
0000
0003
0000
0000
0000
0000
0000
0200
0000
0000
0000
0000
0000
0300
0000
0000
0000
0000
0000
0002
0000
0000
0000
0000
0000
0003
0000
0000
0000
0000
0000
2000
0000
0000
0000
0000
0000
3000
0000
0000
0000
0000
0000
0200
0000
0000
0000
0000
0000
0300
0000
0000
0000
0000
0000
0020
0000
0000
0000
0000
0000
0030
0000
0000
0000
0000
0000
0002
0000
0000
0000
0000
0000
0003
0000
0000
0000
0000
0000
2000
0000
0000
0000
0000
0000
3000
0000
000M
0000
0000
0000
0000
0000
0000
0000
0M00
0000
0000
0000
0000
0000
0000
0000
00M0
0000
0000
0000
0000
0000
0000
0000
M000
0000
0000
0000
0000
0000
0000
0000
0000
0000
0000
0000
0000
0000
0000
0000
,  // measure 34
0002
0000
0000
0000
0000
0000
0003
0000
0000
0000
0000
0000
0200
0000
0000
0000
0000
0000
0300
0000
0000
0000
0000
0000
0020
0000
0000
0000
0000
0000
0030
0000
0000
0000
0000
0000
2000
0000
0000
0000
0000
0000
3000
0000
0000
0000
0000
0000
0002
0000
0000
0000
0000
0000
0003
0000
0000
0000
0000
0000
0020
0000
0000
0000
0000
0000
0030
0000
0000
0000
0000
0000
0200
0000
0000
0000
0000
0000
0300
0000
0000
0000
0000
0000
0020
0000
0000
0000
0000
0000
0030
0000
0000
0000
0000
0000
0002
0000
0000
0000
0000
0000
0003
0000
0000
0000
0000
0000
0200
0000
0000
0000
0000
0000
0300
0000
0000
0000
0000
0000
0020
0000
0000
0000
0000
0000
0030
0000
0000
0000
0000
0000
0200
0000
0000
0000
0000
0000
0300
0000
0000
0000
0000
0000
0002
0000
0000
0000
0000
0000
0003
0000
M000
0000
0000
0000
0000
0000
0000
0000
00M0
0000
0000
0000
0000
0000
0000
0000
0M00
0000
0000
0000
0000
0000
0000
0000
000M
0000
0000
0000
0000
0000
0000
0000
0000
0000
0000
0000
0000
0000
0000
0000
,  // measure 35
2000
0000
0000
0000
0000
0000
3000
0000
0000
0000
0000
0000
0200
0000
0000
0000
0000
0000
0300
0000
0000
0000
0000
0000
0020
0000
0000
0000
0000
0000
0030
0000
0000
0000
0000
0000
0200
0000
0000
0000
0000
0000
0300
0000
0000
0000
0000
0000
2000
0000
0000
0000
0000
0000
3000
0000
0000
0000
0000
0000
0002
0000
0000
0000
0000
0000
0003
0000
0000
0000
0000
0000
2000
0000
0000
0000
0000
0000
3000
0000
0000
0000
0000
0000
0200
0000
0000
0000
0000
0000
0300
0000
0000
0000
0000
0000
0020
0000
0000
0000
0000
0000
0030
0000
0000
0000
0000
0000
0002
0000
0000
0000
0000
0000
0003
0000
0000
0000
0000
0000
0020
0000
0000
0000
0000
0000
0030
0000
0000
0000
0000
0000
0200
0000
0000
0000
0000
0000
0300
0000
0000
0000
0000
0000
2000
0000
0000
0000
0000
0000
3000
0000
000M
0000
0000
0000
0000
0000
0000
0000
0M00
0000
0000
0000
0000
0000
0000
0000
00M0
0000
0000
0000
0000
0000
0000
0000
M000
0000
0000
0000
0000
0000
0000
0000
0000
0000
0000
0000
0000
0000
0000
0000
,  // measure 36
0002
0000
0000
0000
0000
0000
0003
0000
0000
0000
0000
0000
0000
0000
0000
0000
0000
0000
0000
0000
0000
0000
0000
0000
002M
0000
0000
0000
0000
0000
0030
0000
0000
0000
0000
0000
0200
0000
0000
0000
0000
0000
0300
0000
0000
0000
0000
0000
2000
0000
0000
0000
0000
0000
3000
0000
0000
0000
0000
0000
0020
0000
0000
0000
0000
0000
0030
0000
0000
0000
0000
0000
2000
0000
0000
0000
0000
0000
3000
0000
0000
0000
0000
0000
0002
0000
0000
0000
0000
0000
0003
0000
0000
0000
0000
0000
0020
0000
0000
0000
0000
0000
0030
0000
0000
0000
0000
0000
0002
0000
0000
0000
0000
0000
0003
0000
0000
0000
0000
0000
0200
0000
0000
0000
0000
0000
0300
0000
0000
0000
0000
0000
0002
0000
0000
0000
0000
0000
0003
0000
0000
0000
0000
0000
2000
0000
0000
0000
0000
0000
3000
0000
000M
0000
0000
0000
0000
0000
0000
0000
0M00
0000
0000
0000
0000
0000
0000
0000
00M0
0000
0000
0000
0000
0000
0000
0000
M000
0000
0000
0000
0000
0000
0000
0000
0000
0000
0000
0000
0000
0000
0000
0000
,  // measure 37
0002
0000
0000
0000
0000
0000
0003
0000
0000
0000
0000
0000
0020
0000
0000
0000
0000
0000
0030
0000
0000
0000
0000
0000
0200
0000
0000
0000
0000
0000
0300
0000
0000
0000
0000
0000
2000
0000
0000
0000
0000
0000
3000
0000
0000
0000
0000
0000
0200
0000
0000
0000
0000
0000
0300
0000
0000
0000
0000
0000
0020
0000
0000
0000
0000
0000
0030
0000
0000
0000
0000
0000
0002
0000
0000
0000
0000
0000
0003
0000
0000
0000
0000
0000
0200
0000
0000
0000
0000
0000
0300
0000
0000
0000
0000
0000
0020
0000
0000
0000
0000
0000
0030
0000
0000
0000
0000
0000
2000
0000
0000
0000
0000
0000
3000
0000
0000
0000
0000
0000
0020
0000
0000
0000
0000
0000
0030
0000
0000
0000
0000
0000
0200
0000
0000
0000
0000
0000
0300
0000
0000
0000
0000
0000
0002
0000
0000
0000
0000
0000
0003
0000
M000
0000
0000
0000
0000
0000
0000
0000
00M0
0000
0000
0000
0000
0000
0000
0000
0M00
0000
0000
0000
0000
0000
0000
0000
000M
0000
0000
0000
0000
0000
0000
0000
0000
0000
0000
0000
0000
0000
0000
0000
,  // measure 38
2000
0000
0000
0000
0000
0000
3000
0000
0000
0000
0000
0000
0200
0000
0000
0000
0000
0000
0300
0000
0000
0000
0000
0000
0020
0000
0000
0000
0000
0000
0030
0000
0000
0000
0000
0000
0002
0000
0000
0000
0000
0000
0003
0000
0000
0000
0000
0000
0200
0000
0000
0000
0000
0000
0300
0000
0000
0000
0000
0000
0002
0000
0000
0000
0000
0000
0003
0000
0000
0000
0000
0000
2000
0000
0000
0000
0000
0000
3000
0000
0000
0000
0000
0000
0200
0000
0000
0000
0000
0000
0300
0000
0000
0000
0000
0000
2000
0000
0000
0000
0000
0000
3000
0000
0000
0000
0000
0000
0020
0000
0000
0000
0000
0000
0030
0000
0000
0000
0000
0000
2000
0000
0000
0000
0000
0000
3000
0000
0000
0000
0000
0000
0200
0000
0000
0000
0000
0000
0300
0000
0000
0000
0000
0000
2000
0000
0000
0000
0000
0000
3000
0000
000M
0000
0000
0000
0000
0000
0000
0000
0M00
0000
0000
0000
0000
0000
0000
0000
00M0
0000
0000
0000
0000
0000
0000
0000
M000
0000
0000
0000
0000
0000
0000
0000
0000
0000
0000
0000
0000
0000
0000
0000
,  // measure 39
0002
0000
0000
0000
0000
0000
0003
0000
0000
0000
0000
0000
0020
0000
0000
0000
0000
0000
0030
0000
0000
0000
0000
0000
0200
0000
0000
0000
0000
0000
0300
0000
0000
0000
0000
0000
0020
0000
0000
0000
0000
0000
0030
0000
0000
0000
0000
0000
0002
0000
0000
0000
0000
0000
0003
0000
0000
0000
0000
0000
2000
0000
0000
0000
0000
0000
3000
0000
0000
0000
0000
0000
0200
0000
0000
0000
0000
0000
0300
0000
0000
0000
0000
0000
0020
0000
0000
0000
0000
0000
0030
0000
0000
0000
0000
0000
0200
0000
0000
0000
0000
0000
0300
0000
0000
0000
0000
0000
2000
0000
0000
0000
0000
0000
3000
0000
0000
0000
0000
0000
0020
0000
0000
0000
0000
0000
0030
0000
0000
0000
0000
0000
0200
0000
0000
0000
0000
0000
0300
0000
0000
0000
0000
0000
0002
0000
0000
0000
0000
0000
0003
0000
M000
0000
0000
0000
0000
0000
0000
0000
00M0
0000
0000
0000
0000
0000
0000
0000
0M00
0000
0000
0000
0000
0000
0000
0000
000M
0000
0000
0000
0000
0000
0000
0000
0000
0000
0000
0000
0000
0000
0000
0000
;

//---------------dance-single - ----------------
#NOTEDATA:;
#CHARTNAME:Cartoon;
#STEPSTYPE:dance-single;
#DESCRIPTION:;
#CHARTSTYLE:;
#DIFFICULTY:Easy;
#METER:3;
#RADARVALUES:0.119005,0.167953,0.000000,0.533518,0.000000,89.000000,89.000000,0.000000,57.000000,0.000000,0.000000,0.000000,0.000000,0.000000,0.119005,0.167953,0.000000,0.533518,0.000000,89.000000,89.000000,0.000000,57.000000,0.000000,0.000000,0.000000,0.000000,0.000000;
#CREDIT:Jaymes "JAiZ" Hayward;
#OFFSET:0.000000;
#BPMS:0.000000=90.000000
;
#STOPS:;
#DELAYS:;
#WARPS:;
#TIMESIGNATURES:0.000000=4=4
;
#TICKCOUNTS:0.000000=4
;
#COMBOS:0.000000=1
;
#SPEEDS:0.000000=1.000000=0.000000=0
;
#SCROLLS:0.000000=1.000000
;
#FAKES:;
#LABELS:0.000000=Song Start
;
#DISPLAYBPM:90.000000;
#NOTES:
// measure 0
0000
0000
0000
0000
,  // measure 1
0000
0000
2000
0000
,  // measure 2
0000
3002
0000
0000
,  // measure 3
0023
0000
0000
0230
,  // measure 4
0000
0000
0320
0000
,  // measure 5
0000
0032
0000
0000
,  // measure 6
2003
0000
0000
3200
,  // measure 7
0000
0000
2300
0000
,  // measure 8
3001
0100
0010
1000
,  // measure 9
0100
0010
0100
1000
,  // measure 10
0001
0100
0001
0010
,  // measure 11
0100
0010
0001
1000
,  // measure 12
0100
1000
0010
0100
,  // measure 13
0001
0100
0010
1000
,  // measure 14
0100
0010
0001
0100
,  // measure 15
0010
1000
0100
0010
,  // measure 16
0002
0000
0000
0003
,  // measure 17
2000
0000
0000
3000
,  // measure 18
0020
0000
0000
0030
,  // measure 19
0200
0000
0000
0300
,  // measure 20
0002
0000
0000
0003
,  // measure 21
0020
0000
0000
0030
,  // measure 22
0200
0000
0000
0300
,  // measure 23
2000
0000
0000
3000
,  // measure 24
0200
0000
0000
0300
,  // measure 25
0020
0000
0000
0030
,  // measure 26
0002
0000
0000
0003
,  // measure 27
0200
0000
0000
0300
,  // measure 28
0020
0000
0000
0030
,  // measure 29
2000
0000
0000
3000
,  // measure 30
0200
0000
0000
0300
,  // measure 31
0020
0000
0000
0030
,  // measure 32
0002
0003
0200
0300
0020
0030
2000
3000
,  // measure 33
0002
0003
0020
0030
0200
0300
2000
3000
,  // measure 34
0002
0003
0200
0300
0020
0030
0200
0300
,  // measure 35
0002
0003
2000
3000
0020
0030
0200
0300
,  // measure 36
0020
0030
2000
3000
0002
0003
0020
0030
,  // measure 37
0200
0300
2000
3000
0002
0003
0200
0300
,  // measure 38
0020
0030
2000
3000
0002
0003
0020
0030
,  // measure 39
0200
0300
2000
3000
0002
0003
2000
3000
;

//---------------dance-single - ----------------
#NOTEDATA:;
#CHARTNAME:Sculpture;
#STEPSTYPE:dance-single;
#DESCRIPTION:;
#CHARTSTYLE:;
#DIFFICULTY:Challenge;
#METER:9;
#RADARVALUES:0.562935,0.558088,0.149759,0.683277,0.566278,421.000000,405.000000,16.000000,73.000000,0.000000,0.000000,0.000000,0.000000,0.000000,0.562935,0.558088,0.149759,0.683277,0.566278,421.000000,405.000000,16.000000,73.000000,0.000000,0.000000,0.000000,0.000000,0.000000;
#CREDIT:Jaymes "JAiZ" Hayward;
#OFFSET:0.000000;
#BPMS:0.000000=90.000000
;
#STOPS:;
#DELAYS:;
#WARPS:;
#TIMESIGNATURES:0.000000=4=4
;
#TICKCOUNTS:0.000000=4
;
#COMBOS:0.000000=1
;
#SPEEDS:0.000000=1.000000=0.000000=0
;
#SCROLLS:0.000000=1.000000
,64.000000=0.000000
,64.125000=2.000000
,64.250000=0.000000
,64.375000=2.000000
,64.500000=0.000000
,64.625000=2.000000
,64.750000=0.000000
,64.875000=2.000000
,65.000000=0.000000
,65.125000=2.000000
,65.250000=0.000000
,65.375000=2.000000
,65.500000=0.000000
,65.625000=2.000000
,65.750000=0.000000
,65.875000=2.000000
,66.000000=0.000000
,66.125000=2.000000
,66.250000=0.000000
,66.375000=2.000000
,66.500000=0.000000
,66.625000=2.000000
,66.750000=0.000000
,66.875000=2.000000
,67.000000=0.000000
,67.250000=1.250000
,68.000000=0.000000
,68.125000=2.000000
,68.250000=0.000000
,68.375000=2.000000
,68.500000=0.000000
,68.625000=2.000000
,68.750000=0.000000
,68.875000=2.000000
,69.000000=0.000000
,69.125000=2.000000
,69.250000=0.000000
,69.375000=2.000000
,69.500000=0.000000
,69.625000=2.000000
,69.750000=0.000000
,69.875000=2.000000
,70.000000=0.000000
,70.125000=2.000000
,70.250000=0.000000
,70.375000=2.000000
,70.500000=0.000000
,70.625000=2.000000
,70.750000=0.000000
,70.875000=2.000000
,71.000000=0.000000
,71.250000=1.250000
,72.000000=0.000000
,72.125000=2.000000
,72.250000=0.000000
,72.375000=2.000000
,72.500000=0.000000
,72.625000=2.000000
,72.750000=0.000000
,72.875000=2.000000
,73.000000=0.000000
,73.125000=2.000000
,73.250000=0.000000
,73.375000=2.000000
,73.500000=0.000000
,73.625000=2.000000
,73.750000=0.000000
,73.875000=2.000000
,74.000000=0.000000
,74.125000=2.000000
,74.250000=0.000000
,74.375000=2.000000
,74.500000=0.000000
,74.625000=2.000000
,74.750000=0.000000
,74.875000=2.000000
,75.000000=0.000000
,75.250000=1.250000
,76.000000=0.000000
,76.125000=2.000000
,76.250000=0.000000
,76.375000=2.000000
,76.500000=0.000000
,76.625000=2.000000
,76.750000=0.000000
,76.875000=2.000000
,77.000000=0.000000
,77.125000=2.000000
,77.250000=0.000000
,77.375000=2.000000
,77.500000=0.000000
,77.625000=2.000000
,77.750000=0.000000
,77.875000=2.000000
,78.000000=0.000000
,78.125000=2.000000
,78.250000=0.000000
,78.375000=2.000000
,78.500000=0.000000
,78.625000=2.000000
,78.750000=0.000000
,78.875000=2.000000
,79.000000=0.000000
,79.250000=1.250000
,80.000000=0.000000
,80.250000=2.000000
,80.500000=0.000000
,80.625000=2.000000
,80.750000=0.000000
,80.875000=2.000000
,81.000000=0.000000
,81.125000=2.000000
,81.250000=0.000000
,81.375000=2.000000
,81.500000=0.000000
,81.625000=2.000000
,81.750000=0.000000
,81.875000=2.000000
,82.000000=0.000000
,82.125000=2.000000
,82.250000=0.000000
,82.375000=2.000000
,82.500000=0.000000
,82.625000=2.000000
,82.750000=0.000000
,82.875000=2.000000
,83.000000=0.000000
,83.250000=1.250000
,84.000000=0.000000
,84.125000=2.000000
,84.250000=0.000000
,84.375000=2.000000
,84.500000=0.000000
,84.625000=2.000000
,84.750000=0.000000
,84.875000=2.000000
,85.000000=0.000000
,85.125000=2.000000
,85.250000=0.000000
,85.375000=2.000000
,85.500000=0.000000
,85.625000=2.000000
,85.750000=0.000000
,85.875000=2.000000
,86.000000=0.000000
,86.125000=2.000000
,86.250000=0.000000
,86.375000=2.000000
,86.500000=0.000000
,86.625000=2.000000
,86.750000=0.000000
,86.875000=2.000000
,87.000000=0.000000
,87.250000=1.250000
,88.000000=0.000000
,88.125000=2.000000
,88.250000=0.000000
,88.375000=2.000000
,88.500000=0.000000
,88.625000=2.000000
,88.750000=0.000000
,88.875000=2.000000
,89.000000=0.000000
,89.125000=2.000000
,89.250000=0.000000
,89.375000=2.000000
,89.500000=0.000000
,89.625000=2.000000
,89.750000=0.000000
,89.875000=2.000000
,90.000000=0.000000
,90.125000=2.000000
,90.250000=0.000000
,90.375000=2.000000
,90.500000=0.000000
,90.625000=2.000000
,90.750000=0.000000
,90.875000=2.000000
,91.000000=0.000000
,91.250000=1.250000
,92.000000=0.000000
,92.125000=2.000000
,92.250000=0.000000
,92.375000=2.000000
,92.500000=0.000000
,92.625000=2.000000
,92.750000=0.000000
,92.875000=2.000000
,93.000000=0.000000
,93.125000=2.000000
,93.250000=0.000000
,93.375000=2.000000
,93.500000=0.000000
,93.625000=2.000000
,93.750000=0.000000
,93.875000=2.000000
,94.000000=0.000000
,94.125000=2.000000
,94.250000=0.000000
,94.375000=2.000000
,94.500000=0.000000
,94.625000=2.000000
,94.750000=0.000000
,94.875000=2.000000
,95.000000=0.000000
,95.250000=1.250000
,96.000000=0.000000
,96.125000=2.000000
,96.250000=0.000000
,96.375000=2.000000
,96.500000=0.000000
,96.625000=2.000000
,96.750000=0.000000
,96.875000=2.000000
,97.000000=0.000000
,97.125000=2.000000
,97.250000=0.000000
,97.375000=2.000000
,97.500000=0.000000
,97.625000=2.000000
,97.750000=0.000000
,97.875000=2.000000
,98.000000=0.000000
,98.125000=2.000000
,98.333336=0.000000
,98.375000=2.000000
,98.500000=0.000000
,98.625000=2.000000
,98.750000=0.000000
,98.875000=2.000000
,99.000000=0.000000
,99.250000=1.250000
,100.000000=0.000000
,100.125000=2.000000
,100.250000=0.000000
,100.375000=2.000000
,100.500000=0.000000
,100.625000=2.000000
,100.750000=0.000000
,100.875000=2.000000
,101.000000=0.000000
,101.125000=2.000000
,101.250000=0.000000
,101.375000=2.000000
,101.500000=0.000000
,101.625000=2.000000
,101.750000=0.000000
,101.875000=2.000000
,102.000000=0.000000
,102.125000=2.000000
,102.333336=0.000000
,102.375000=2.000000
,102.500000=0.000000
,102.625000=2.000000
,102.750000=0.000000
,102.875000=2.000000
,103.000000=0.000000
,103.250000=1.250000
,104.000000=0.000000
,104.125000=2.000000
,104.250000=0.000000
,104.375000=2.000000
,104.500000=0.000000
,104.625000=2.000000
,104.750000=0.000000
,104.875000=2.000000
,105.000000=0.000000
,105.125000=2.000000
,105.250000=0.000000
,105.375000=2.000000
,105.500000=0.000000
,105.625000=2.000000
,105.750000=0.000000
,105.875000=2.000000
,106.000000=0.000000
,106.125000=2.000000
,106.250000=0.000000
,106.375000=2.000000
,106.500000=0.000000
,106.625000=2.000000
,106.750000=0.000000
,106.875000=2.000000
,107.000000=0.000000
,107.250000=1.250000
,108.000000=0.000000
,108.125000=2.000000
,108.250000=0.000000
,108.375000=2.000000
,108.500000=0.000000
,108.625000=2.000000
,108.750000=0.000000
,108.875000=2.000000
,109.000000=0.000000
,109.125000=2.000000
,109.250000=0.000000
,109.375000=2.000000
,109.500000=0.000000
,109.625000=2.000000
,109.750000=0.000000
,109.875000=2.000000
,110.000000=0.000000
,110.125000=2.000000
,110.250000=0.000000
,110.375000=2.000000
,110.500000=0.000000
,110.625000=2.000000
,110.750000=0.000000
,110.875000=2.000000
,111.000000=0.000000
,111.250000=1.250000
,112.000000=0.000000
,112.250000=2.000000
,112.500000=0.000000
,112.625000=2.000000
,112.750000=0.000000
,112.875000=2.000000
,113.000000=0.000000
,113.125000=2.000000
,113.250000=0.000000
,113.375000=2.000000
,113.500000=0.000000
,113.625000=2.000000
,113.750000=0.000000
,113.875000=2.000000
,114.000000=0.000000
,114.125000=2.000000
,114.250000=0.000000
,114.375000=2.000000
,114.500000=0.000000
,114.625000=2.000000
,114.750000=0.000000
,114.875000=2.000000
,115.000000=0.000000
,115.250000=1.250000
,116.000000=0.000000
,116.125000=2.000000
,116.250000=0.000000
,116.375000=2.000000
,116.500000=0.000000
,116.625000=2.000000
,116.750000=0.000000
,116.875000=2.000000
,117.000000=0.000000
,117.125000=2.000000
,117.250000=0.000000
,117.375000=2.000000
,117.500000=0.000000
,117.625000=2.000000
,117.750000=0.000000
,117.875000=2.000000
,118.000000=0.000000
,118.125000=2.000000
,118.250000=0.000000
,118.375000=2.000000
,118.500000=0.000000
,118.625000=2.000000
,118.750000=0.000000
,118.875000=2.000000
,119.000000=0.000000
,119.250000=1.250000
,120.000000=0.000000
,120.062500=2.000000
,120.125000=0.000000
,120.187500=2.000000
,120.250000=0.000000
,120.312500=2.000000
,120.375000=0.000000
,120.437500=2.000000
,120.500000=0.000000
,120.562500=2.000000
,120.625000=0.000000
,120.687500=2.000000
,120.750000=0.000000
,120.812500=2.000000
,120.875000=0.000000
,120.937500=2.000000
,121.000000=0.000000
,121.062500=2.000000
,121.125000=0.000000
,121.187500=2.000000
,121.250000=0.000000
,121.312500=2.000000
,121.375000=0.000000
,121.437500=2.000000
,121.500000=0.000000
,121.562500=2.000000
,121.625000=0.000000
,121.687500=2.000000
,121.750000=0.000000
,121.812500=2.000000
,121.875000=0.000000
,121.937500=2.000000
,122.000000=0.000000
,122.062500=2.000000
,122.125000=0.000000
,122.187500=2.000000
,122.250000=0.000000
,122.312500=2.000000
,122.375000=0.000000
,122.437500=2.000000
,122.500000=0.000000
,122.562500=2.000000
,122.625000=0.000000
,122.687500=2.000000
,122.750000=0.000000
,122.812500=2.000000
,122.875000=0.000000
,122.937500=2.000000
,123.000000=0.000000
,123.250000=1.250000
,124.000000=0.000000
,124.062500=2.000000
,124.125000=0.000000
,124.187500=2.000000
,124.250000=0.000000
,124.312500=2.000000
,124.375000=0.000000
,124.437500=2.000000
,124.500000=0.000000
,124.562500=2.000000
,124.625000=0.000000
,124.687500=2.000000
,124.750000=0.000000
,124.812500=2.000000
,124.875000=0.000000
,124.937500=2.000000
,125.000000=0.000000
,125.062500=2.000000
,125.125000=0.000000
,125.187500=2.000000
,125.250000=0.000000
,125.312500=2.000000
,125.375000=0.000000
,125.437500=2.000000
,125.500000=0.000000
,125.562500=2.000000
,125.625000=0.000000
,125.687500=2.000000
,125.750000=0.000000
,125.812500=2.000000
,125.875000=0.000000
,125.937500=2.000000
,126.000000=0.000000
,126.062500=2.000000
,126.125000=0.000000
,126.187500=2.000000
,126.250000=0.000000
,126.312500=2.000000
,126.375000=0.000000
,126.437500=2.000000
,126.500000=0.000000
,126.562500=2.000000
,126.625000=0.000000
,126.687500=2.000000
,126.750000=0.000000
,126.812500=2.000000
,126.875000=0.000000
,126.937500=2.000000
,127.000000=0.000000
,127.250000=1.250000
,128.000000=1.000000
;
#FAKES:;
#LABELS:0.000000=Song Start
;
#DISPLAYBPM:90.000000;
#NOTES:
// measure 0
0000
0000
0000
0000
,  // measure 1
0000
0000
0000
0000
0000
0000
0000
0000
2000
3000
0010
0000
0100
0000
0001
0000
,  // measure 2
0010
0000
0100
0000
2000
3000
0001
0000
0010
0000
0100
0000
1000
0000
0010
0000
,  // measure 3
0200
0300
0001
0000
0010
0000
0100
0000
0010
0000
0001
0000
2000
3000
0001
0000
,  // measure 4
0100
0000
0010
0000
0100
0000
0001
0000
2000
3000
0010
0000
0100
0000
0001
0000
,  // measure 5
0010
0000
0100
0000
2000
3000
0001
0000
1000
0000
0010
0000
0100
0000
0010
0000
,  // measure 6
2000
3000
0001
0000
1000
0000
0100
0000
0010
0000
0001
0000
0200
0300
0001
0000
,  // measure 7
1000
0000
0010
0000
0100
0000
0001
0000
2000
3000
0001
0000
0010
0000
0100
0000
,  // measure 8
2000
3020
0230
0302
0023
0230
2300
3200
,  // measure 9
0320
0032
2003
3200
2300
3020
2030
3002
,  // measure 10
0203
0302
0023
0032
0203
0320
2030
3200
,  // measure 11
0320
0230
2300
3002
0203
0302
0023
0230
,  // measure 12
0320
0032
2003
3200
2300
3020
0230
0302
,  // measure 13
0203
0320
0230
0302
2003
3020
0230
0320
,  // measure 14
2030
3002
0023
0230
2300
3020
0230
0302
,  // measure 15
0203
0320
2030
3200
0320
0032
2003
3200
,  // measure 16
1300
0010
1000
0010
1000
0010
1000
0010
1000
0010
1000
0010
1000
0000
0000
0000
,  // measure 17
0001
0010
0001
0010
0001
0010
0001
0010
0001
0010
0001
0010
0001
0000
0000
0000
,  // measure 18
0100
0010
0100
0010
0100
0010
0100
0010
0100
0010
0100
0010
0100
0000
0000
0000
,  // measure 19
0001
1000
0001
1000
0001
1000
0001
1000
0001
1000
0001
1000
0001
0000
0000
0000
,  // measure 20
0010
0000
0100
1000
0100
0010
0001
0100
0010
0100
0001
0010
0001
0000
0000
0000
,  // measure 21
1000
0010
1000
0100
0010
0001
0100
0010
1000
0100
1000
0010
0100
0000
0000
0000
,  // measure 22
0001
0010
0100
0010
0001
0100
0010
0100
0001
0010
0100
1000
0100
0000
0000
0000
,  // measure 23
0010
0001
1000
0100
1000
0001
0100
0001
1000
0100
0010
0001
1000
0000
0000
0000
,  // measure 24
0001
0000
0000
0000
0000
0000
0010
0000
0000
0001
0000
0000
0100
0000
0000
0000
0000
0000
0010
0000
0000
0000
0000
0000
1000
0000
0000
0000
0100
0000
0010
0000
0000
0000
0000
0000
0101
0000
0000
0000
0000
0000
0000
0000
0000
0000
0000
0000
,  // measure 25
0001
0000
0000
0000
0000
0000
0100
0000
0000
0010
0000
0000
1000
0000
0000
0000
0000
0000
0100
0000
0000
0000
0000
0000
0010
0000
0000
0000
0001
0000
0100
0000
0000
0000
0000
0000
0011
0000
0000
0000
0000
0000
0000
0000
0000
0000
0000
0000
,  // measure 26
1001
1010
1100
0110
0011
0101
1001
0000
,  // measure 27
1010
0101
1100
0011
1001
1010
1001
0000
,  // measure 28
0001
0000
0010
0100
0010
0001
0100
0010
0100
0001
0010
0100
1000
0000
0000
0000
,  // measure 29
0010
0100
0010
1000
0001
0010
0001
0100
0010
0100
0001
0010
0100
0000
0000
0000
,  // measure 30
1000
0100
0010
0001
1000
0010
0100
0001
0010
0100
0010
0001
1000
0000
0000
0000
,  // measure 31
0010
0100
0001
0010
0100
1000
0010
0100
0010
1000
0001
0100
0010
0000
0000
0000
,  // measure 32
1000
0100
0010
0001
1000
0010
0100
0001
1000
0100
0010
0001
1000
0000
0000
0000
,  // measure 33
0001
0100
0010
0100
0001
1000
0100
1000
0001
0100
0010
1000
0001
0000
0000
0000
,  // measure 34
1000
0100
0010
0001
1000
0010
0100
0010
1000
0010
0100
0001
1000
0000
0000
0000
,  // measure 35
0001
0100
0010
1000
0100
1000
0001
1000
0010
0100
0001
0010
0001
0000
0000
0000
,  // measure 36
1000
0000
0010
0100
0001
0010
0001
1000
0010
1000
0100
1000
0001
0000
0000
0000
,  // measure 37
1000
0010
0100
0001
0100
0010
1000
0100
0010
0001
0010
0100
1000
0000
0000
0000
,  // measure 38
0001
0100
0010
0100
0001
1000
0010
1000
0001
0010
0001
0100
0001
0000
0000
0000
,  // measure 39
1000
0010
1000
0100
0010
0001
0100
0010
0100
0001
0010
0100
1000
0000
0000
0000
;

//---------------dance-single - ----------------
#NOTEDATA:;
#CHARTNAME:Painting;
#STEPSTYPE:dance-single;
#DESCRIPTION:;
#CHARTSTYLE:;
#DIFFICULTY:Hard;
#METER:8;
#RADARVALUES:0.454627,0.539485,0.168479,0.084240,0.177839,340.000000,322.000000,18.000000,9.000000,0.000000,0.000000,0.000000,0.000000,0.000000,0.454627,0.539485,0.168479,0.084240,0.177839,340.000000,322.000000,18.000000,9.000000,0.000000,0.000000,0.000000,0.000000,0.000000;
#CREDIT:Jaymes "JAiZ" Hayward;
#OFFSET:0.000000;
#BPMS:0.000000=90.000000
;
#STOPS:;
#DELAYS:;
#WARPS:;
#TIMESIGNATURES:0.000000=4=4
;
#TICKCOUNTS:0.000000=4
;
#COMBOS:0.000000=1
;
#SPEEDS:0.000000=1.000000=0.000000=0
;
#SCROLLS:0.000000=1.000000
,64.000000=0.000000
,64.125000=2.000000
,64.250000=0.000000
,64.375000=2.000000
,64.500000=0.000000
,64.625000=2.000000
,64.750000=0.000000
,64.875000=2.000000
,65.000000=0.000000
,65.125000=2.000000
,65.250000=0.000000
,65.375000=2.000000
,65.500000=0.000000
,65.625000=2.000000
,65.750000=0.000000
,65.875000=2.000000
,66.000000=0.000000
,66.125000=2.000000
,66.250000=0.000000
,66.375000=2.000000
,66.500000=0.000000
,66.625000=2.000000
,66.750000=0.000000
,66.875000=2.000000
,67.000000=0.000000
,67.250000=1.250000
,68.000000=0.000000
,68.125000=2.000000
,68.250000=0.000000
,68.375000=2.000000
,68.500000=0.000000
,68.625000=2.000000
,68.750000=0.000000
,68.875000=2.000000
,69.000000=0.000000
,69.125000=2.000000
,69.250000=0.000000
,69.375000=2.000000
,69.500000=0.000000
,69.625000=2.000000
,69.750000=0.000000
,69.875000=2.000000
,70.000000=0.000000
,70.125000=2.000000
,70.250000=0.000000
,70.375000=2.000000
,70.500000=0.000000
,70.625000=2.000000
,70.750000=0.000000
,70.875000=2.000000
,71.000000=0.000000
,71.250000=1.250000
,72.000000=0.000000
,72.125000=2.000000
,72.250000=0.000000
,72.375000=2.000000
,72.500000=0.000000
,72.625000=2.000000
,72.750000=0.000000
,72.875000=2.000000
,73.000000=0.000000
,73.125000=2.000000
,73.250000=0.000000
,73.375000=2.000000
,73.500000=0.000000
,73.625000=2.000000
,73.750000=0.000000
,73.875000=2.000000
,74.000000=0.000000
,74.125000=2.000000
,74.250000=0.000000
,74.375000=2.000000
,74.500000=0.000000
,74.625000=2.000000
,74.750000=0.000000
,74.875000=2.000000
,75.000000=0.000000
,75.250000=1.250000
,76.000000=0.000000
,76.125000=2.000000
,76.250000=0.000000
,76.375000=2.000000
,76.500000=0.000000
,76.625000=2.000000
,76.750000=0.000000
,76.875000=2.000000
,77.000000=0.000000
,77.125000=2.000000
,77.250000=0.000000
,77.375000=2.000000
,77.500000=0.000000
,77.625000=2.000000
,77.750000=0.000000
,77.875000=2.000000
,78.000000=0.000000
,78.125000=2.000000
,78.250000=0.000000
,78.375000=2.000000
,78.500000=0.000000
,78.625000=2.000000
,78.750000=0.000000
,78.875000=2.000000
,79.000000=0.000000
,79.250000=1.250000
,80.000000=0.000000
,80.250000=2.000000
,80.500000=0.000000
,80.625000=2.000000
,80.750000=0.000000
,80.875000=2.000000
,81.000000=0.000000
,81.125000=2.000000
,81.250000=0.000000
,81.375000=2.000000
,81.500000=0.000000
,81.625000=2.000000
,81.750000=0.000000
,81.875000=2.000000
,82.000000=0.000000
,82.125000=2.000000
,82.250000=0.000000
,82.375000=2.000000
,82.500000=0.000000
,82.625000=2.000000
,82.750000=0.000000
,82.875000=2.000000
,83.000000=0.000000
,83.250000=1.250000
,84.000000=0.000000
,84.125000=2.000000
,84.250000=0.000000
,84.375000=2.000000
,84.500000=0.000000
,84.625000=2.000000
,84.750000=0.000000
,84.875000=2.000000
,85.000000=0.000000
,85.125000=2.000000
,85.250000=0.000000
,85.375000=2.000000
,85.500000=0.000000
,85.625000=2.000000
,85.750000=0.000000
,85.875000=2.000000
,86.000000=0.000000
,86.125000=2.000000
,86.250000=0.000000
,86.375000=2.000000
,86.500000=0.000000
,86.625000=2.000000
,86.750000=0.000000
,86.875000=2.000000
,87.000000=0.000000
,87.250000=1.250000
,88.000000=0.000000
,88.125000=2.000000
,88.250000=0.000000
,88.375000=2.000000
,88.500000=0.000000
,88.625000=2.000000
,88.750000=0.000000
,88.875000=2.000000
,89.000000=0.000000
,89.125000=2.000000
,89.250000=0.000000
,89.375000=2.000000
,89.500000=0.000000
,89.625000=2.000000
,89.750000=0.000000
,89.875000=2.000000
,90.000000=0.000000
,90.125000=2.000000
,90.250000=0.000000
,90.375000=2.000000
,90.500000=0.000000
,90.625000=2.000000
,90.750000=0.000000
,90.875000=2.000000
,91.000000=0.000000
,91.250000=1.250000
,92.000000=0.000000
,92.125000=2.000000
,92.250000=0.000000
,92.375000=2.000000
,92.500000=0.000000
,92.625000=2.000000
,92.750000=0.000000
,92.875000=2.000000
,93.000000=0.000000
,93.125000=2.000000
,93.250000=0.000000
,93.375000=2.000000
,93.500000=0.000000
,93.625000=2.000000
,93.750000=0.000000
,93.875000=2.000000
,94.000000=0.000000
,94.125000=2.000000
,94.250000=0.000000
,94.375000=2.000000
,94.500000=0.000000
,94.625000=2.000000
,94.750000=0.000000
,94.875000=2.000000
,95.000000=0.000000
,95.250000=1.250000
,96.000000=0.000000
,96.125000=2.000000
,96.250000=0.000000
,96.375000=2.000000
,96.500000=0.000000
,96.625000=2.000000
,96.750000=0.000000
,96.875000=2.000000
,97.000000=0.000000
,97.125000=2.000000
,97.250000=0.000000
,97.375000=2.000000
,97.500000=0.000000
,97.625000=2.000000
,97.750000=0.000000
,97.875000=2.000000
,98.000000=0.000000
,98.125000=2.000000
,98.333336=0.000000
,98.375000=2.000000
,98.500000=0.000000
,98.625000=2.000000
,98.750000=0.000000
,98.875000=2.000000
,99.000000=0.000000
,99.250000=1.250000
,100.000000=0.000000
,100.125000=2.000000
,100.250000=0.000000
,100.375000=2.000000
,100.500000=0.000000
,100.625000=2.000000
,100.750000=0.000000
,100.875000=2.000000
,101.000000=0.000000
,101.125000=2.000000
,101.250000=0.000000
,101.375000=2.000000
,101.500000=0.000000
,101.625000=2.000000
,101.750000=0.000000
,101.875000=2.000000
,102.000000=0.000000
,102.125000=2.000000
,102.333336=0.000000
,102.375000=2.000000
,102.500000=0.000000
,102.625000=2.000000
,102.750000=0.000000
,102.875000=2.000000
,103.000000=0.000000
,103.250000=1.250000
,104.000000=0.000000
,104.125000=2.000000
,104.250000=0.000000
,104.375000=2.000000
,104.500000=0.000000
,104.625000=2.000000
,104.750000=0.000000
,104.875000=2.000000
,105.000000=0.000000
,105.125000=2.000000
,105.250000=0.000000
,105.375000=2.000000
,105.500000=0.000000
,105.625000=2.000000
,105.750000=0.000000
,105.875000=2.000000
,106.000000=0.000000
,106.125000=2.000000
,106.250000=0.000000
,106.375000=2.000000
,106.500000=0.000000
,106.625000=2.000000
,106.750000=0.000000
,106.875000=2.000000
,107.000000=0.000000
,107.250000=1.250000
,108.000000=0.000000
,108.125000=2.000000
,108.250000=0.000000
,108.375000=2.000000
,108.500000=0.000000
,108.625000=2.000000
,108.750000=0.000000
,108.875000=2.000000
,109.000000=0.000000
,109.125000=2.000000
,109.250000=0.000000
,109.375000=2.000000
,109.500000=0.000000
,109.625000=2.000000
,109.750000=0.000000
,109.875000=2.000000
,110.000000=0.000000
,110.125000=2.000000
,110.250000=0.000000
,110.375000=2.000000
,110.500000=0.000000
,110.625000=2.000000
,110.750000=0.000000
,110.875000=2.000000
,111.000000=0.000000
,111.250000=1.250000
,112.000000=0.000000
,112.250000=2.000000
,112.500000=0.000000
,112.625000=2.000000
,112.750000=0.000000
,112.875000=2.000000
,113.000000=0.000000
,113.125000=2.000000
,113.250000=0.000000
,113.375000=2.000000
,113.500000=0.000000
,113.625000=2.000000
,113.750000=0.000000
,113.875000=2.000000
,114.000000=0.000000
,114.125000=2.000000
,114.250000=0.000000
,114.375000=2.000000
,114.500000=0.000000
,114.625000=2.000000
,114.750000=0.000000
,114.875000=2.000000
,115.000000=0.000000
,115.250000=1.250000
,116.000000=0.000000
,116.125000=2.000000
,116.250000=0.000000
,116.375000=2.000000
,116.500000=0.000000
,116.625000=2.000000
,116.750000=0.000000
,116.875000=2.000000
,117.000000=0.000000
,117.125000=2.000000
,117.250000=0.000000
,117.375000=2.000000
,117.500000=0.000000
,117.625000=2.000000
,117.750000=0.000000
,117.875000=2.000000
,118.000000=0.000000
,118.125000=2.000000
,118.250000=0.000000
,118.375000=2.000000
,118.500000=0.000000
,118.625000=2.000000
,118.750000=0.000000
,118.875000=2.000000
,119.000000=0.000000
,119.250000=1.250000
,120.000000=0.000000
,120.062500=2.000000
,120.125000=0.000000
,120.187500=2.000000
,120.250000=0.000000
,120.312500=2.000000
,120.375000=0.000000
,120.437500=2.000000
,120.500000=0.000000
,120.562500=2.000000
,120.625000=0.000000
,120.687500=2.000000
,120.750000=0.000000
,120.812500=2.000000
,120.875000=0.000000
,120.937500=2.000000
,121.000000=0.000000
,121.062500=2.000000
,121.125000=0.000000
,121.187500=2.000000
,121.250000=0.000000
,121.312500=2.000000
,121.375000=0.000000
,121.437500=2.000000
,121.500000=0.000000
,121.562500=2.000000
,121.625000=0.000000
,121.687500=2.000000
,121.750000=0.000000
,121.812500=2.000000
,121.875000=0.000000
,121.937500=2.000000
,122.000000=0.000000
,122.062500=2.000000
,122.125000=0.000000
,122.187500=2.000000
,122.250000=0.000000
,122.312500=2.000000
,122.375000=0.000000
,122.437500=2.000000
,122.500000=0.000000
,122.562500=2.000000
,122.625000=0.000000
,122.687500=2.000000
,122.750000=0.000000
,122.812500=2.000000
,122.875000=0.000000
,122.937500=2.000000
,123.000000=0.000000
,123.250000=1.250000
,124.000000=0.000000
,124.062500=2.000000
,124.125000=0.000000
,124.187500=2.000000
,124.250000=0.000000
,124.312500=2.000000
,124.375000=0.000000
,124.437500=2.000000
,124.500000=0.000000
,124.562500=2.000000
,124.625000=0.000000
,124.687500=2.000000
,124.750000=0.000000
,124.812500=2.000000
,124.875000=0.000000
,124.937500=2.000000
,125.000000=0.000000
,125.062500=2.000000
,125.125000=0.000000
,125.187500=2.000000
,125.250000=0.000000
,125.312500=2.000000
,125.375000=0.000000
,125.437500=2.000000
,125.500000=0.000000
,125.562500=2.000000
,125.625000=0.000000
,125.687500=2.000000
,125.750000=0.000000
,125.812500=2.000000
,125.875000=0.000000
,125.937500=2.000000
,126.000000=0.000000
,126.062500=2.000000
,126.125000=0.000000
,126.187500=2.000000
,126.250000=0.000000
,126.312500=2.000000
,126.375000=0.000000
,126.437500=2.000000
,126.500000=0.000000
,126.562500=2.000000
,126.625000=0.000000
,126.687500=2.000000
,126.750000=0.000000
,126.812500=2.000000
,126.875000=0.000000
,126.937500=2.000000
,127.000000=0.000000
,127.250000=1.250000
,128.000000=1.000000
;
#FAKES:;
#LABELS:0.000000=Song Start
;
#DISPLAYBPM:90.000000;
#NOTES:
// measure 0
0000
0000
0000
0000
,  // measure 1
0000
0000
0000
0000
0000
0000
0000
0000
2000
3000
0010
0000
0100
0000
0001
0000
,  // measure 2
0010
0000
0100
0000
2000
3000
0001
0000
0010
0000
0100
0000
1000
0000
0010
0000
,  // measure 3
0200
0300
0001
0000
0010
0000
0100
0000
0010
0000
0001
0000
2000
3000
0001
0000
,  // measure 4
0010
0000
0100
0000
0010
0000
0001
0000
2000
3000
0010
0000
0100
0000
0001
0000
,  // measure 5
0100
0000
0010
0000
2000
3000
0001
0000
1000
0000
0010
0000
0100
0000
0010
0000
,  // measure 6
2000
3000
0001
0000
1000
0000
0100
0000
0010
0000
0001
0000
0200
0300
0001
0000
,  // measure 7
1000
0000
0010
0000
0100
0000
0001
0000
2000
3000
0001
0000
0010
0000
0100
0000
,  // measure 8
1000
0010
0100
0001
0010
0100
1000
0100
,  // measure 9
0010
0001
1000
0100
1000
0010
1000
0001
,  // measure 10
0100
0001
0010
0001
0100
0010
1000
0100
,  // measure 11
0010
0100
1000
0001
0100
0001
0010
0100
,  // measure 12
0010
0001
1000
0100
1000
0010
0100
0001
,  // measure 13
0100
0010
0100
0001
1000
0010
0100
0010
,  // measure 14
1000
0001
0010
0100
1000
0010
0100
0001
,  // measure 15
0100
0010
1000
0100
0010
0001
1000
0100
,  // measure 16
1000
0010
1000
0000
0100
0000
1000
0001
1000
0000
0100
0010
0100
0000
0000
0000
,  // measure 17
1000
0010
1000
0000
0001
0000
0100
0010
0100
0000
0001
0010
0001
0000
0000
0000
,  // measure 18
0100
0010
0100
0000
0001
0000
0010
0100
0010
0000
0001
0100
0001
0000
0000
0000
,  // measure 19
0010
0100
0010
0000
0001
0000
1000
0100
1000
0000
0010
0100
0010
0000
0000
0000
,  // measure 20
1000
0000
0001
0000
0110
0000
0001
0010
0001
0000
1000
0010
1000
0000
0000
0000
,  // measure 21
0100
0010
0100
0000
1001
0000
1000
0100
1000
0000
0010
0100
0010
0000
0000
0000
,  // measure 22
1000
0001
1000
0000
1100
0000
0001
0010
0001
0000
1000
0010
1000
0000
0000
0000
,  // measure 23
0001
0100
0001
0000
1010
0000
1000
0100
1000
0000
0001
0100
0001
0000
0000
0000
,  // measure 24
1000
0000
0000
0000
0000
0000
0010
0000
0000
0100
0000
0000
0010
0000
0000
0000
0000
0000
1000
0000
0000
0000
0000
0000
0100
0000
0000
0000
0010
0000
0100
0000
0000
0000
0000
0000
1000
0000
0000
0000
0000
0000
0000
0000
0000
0000
0000
0000
,  // measure 25
0001
0000
0000
0000
0000
0000
0010
0000
0000
0100
0000
0000
0010
0000
0000
0000
0000
0000
0001
0000
0000
0000
0000
0000
0100
0000
0000
0000
0010
0000
0100
0000
0000
0000
0000
0000
0001
0000
0000
0000
0000
0000
0000
0000
0000
0000
0000
0000
,  // measure 26
1001
1001
1001
1001
1001
1001
1001
0000
,  // measure 27
0110
0110
0110
0110
0110
0110
0110
0000
,  // measure 28
0001
0000
0100
0000
0001
0000
0010
0100
0010
0000
0001
0100
0001
0000
0000
0000
,  // measure 29
1000
0010
1000
0000
0100
0000
1000
0001
1000
0000
0001
0010
0001
0000
0000
0000
,  // measure 30
0100
0010
0100
0000
0001
0000
1000
0100
1000
0000
0010
0100
0010
0000
0000
0000
,  // measure 31
1000
0001
1000
0000
0100
0000
0010
0001
0010
0000
0001
0100
0001
0000
0000
0000
,  // measure 32
1000
0100
0010
0001
0100
0010
1000
0000
,  // measure 33
0001
0010
0100
1000
0100
0010
0001
0000
,  // measure 34
1000
0010
1000
0100
1000
0001
1000
0000
,  // measure 35
0001
0100
0001
0010
0001
1000
0001
0000
,  // measure 36
1000
0100
0010
0001
0100
0010
1000
0000
,  // measure 37
0001
0100
0010
0100
0001
1000
0100
0000
,  // measure 38
1000
0010
0100
0001
1000
0100
1000
0000
,  // measure 39
0001
0100
0010
1000
0100
1000
0001
0000
;

//---------------dance-single - ----------------
#NOTEDATA:;
#CHARTNAME:Drawing;
#STEPSTYPE:dance-single;
#DESCRIPTION:;
#CHARTSTYLE:;
#DIFFICULTY:Beginner;
#METER:1;
#RADARVALUES:0.081565,0.130221,0.000000,0.074880,0.000000,61.000000,61.000000,0.000000,8.000000,0.000000,0.000000,0.000000,0.000000,0.000000,0.081565,0.130221,0.000000,0.074880,0.000000,61.000000,61.000000,0.000000,8.000000,0.000000,0.000000,0.000000,0.000000,0.000000;
#CREDIT:Phil Lee;
#OFFSET:0.000000;
#BPMS:0.000000=90.000000
;
#STOPS:;
#DELAYS:;
#WARPS:;
#TIMESIGNATURES:0.000000=4=4
;
#TICKCOUNTS:0.000000=4
;
#COMBOS:0.000000=1
;
#SPEEDS:0.000000=1.000000=0.000000=0
;
#SCROLLS:0.000000=1.000000
;
#FAKES:;
#LABELS:0.000000=Song Start
;
#DISPLAYBPM:90.000000;
#NOTES:
// measure 0
0000
0000
0000
0000
,  // measure 1
0000
0000
0001
0001
,  // measure 2
0000
0010
0000
0010
,  // measure 3
0010
0010
0000
0001
,  // measure 4
0000
0100
0100
0100
,  // measure 5
0000
0010
0000
0010
,  // measure 6
0010
0010
0000
1000
,  // measure 7
0000
0100
0000
0010
,  // measure 8
0100
0000
0000
1000
,  // measure 9
0000
0000
0001
0000
,  // measure 10
0000
0100
0000
0000
,  // measure 11
0010
0000
0000
0100
,  // measure 12
0000
0000
0001
0000
,  // measure 13
0000
0010
0000
0000
,  // measure 14
0100
0000
0000
1000
,  // measure 15
0000
0000
0010
0000
,  // measure 16
2000
0000
0000
3000
,  // measure 17
0002
0000
0000
0003
,  // measure 18
0020
0000
0000
0030
,  // measure 19
0200
0000
0000
0300
,  // measure 20
0020
0000
0000
0030
,  // measure 21
0002
0000
0000
0003
,  // measure 22
2000
0000
0000
3000
,  // measure 23
0020
0000
0000
0030
,  // measure 24
1000
0000
1000
0000
,  // measure 25
0100
0000
0100
0000
,  // measure 26
0010
0000
0010
0000
,  // measure 27
0100
0000
0100
0000
,  // measure 28
1000
0000
1000
0000
,  // measure 29
0001
0000
0001
0000
,  // measure 30
0100
0000
0100
0000
,  // measure 31
0001
0000
0001
0000
,  // measure 32
1000
0000
0000
0000
,  // measure 33
0001
0000
0000
0000
,  // measure 34
0100
0000
0000
0000
,  // measure 35
0010
0000
0000
0000
,  // measure 36
1000
0000
0000
0000
,  // measure 37
0100
0000
0000
0000
,  // measure 38
0010
0000
0000
0000
,  // measure 39
0001
0000
0000
0001
;

//---------------dance-single - ----------------
#NOTEDATA:;
#CHARTNAME:Photography;
#STEPSTYPE:dance-single;
#DESCRIPTION:;
#CHARTSTYLE:;
#DIFFICULTY:Medium;
#METER:5;
#RADARVALUES:0.278125,0.260441,0.074880,0.000000,0.000000,208.000000,200.000000,8.000000,0.000000,0.000000,0.000000,0.000000,0.000000,0.000000,0.278125,0.260441,0.074880,0.000000,0.000000,208.000000,200.000000,8.000000,0.000000,0.000000,0.000000,0.000000,0.000000,0.000000;
#CREDIT:Phil Lee;
#OFFSET:0.000000;
#BPMS:0.000000=90.000000
;
#STOPS:;
#DELAYS:;
#WARPS:;
#TIMESIGNATURES:0.000000=4=4
;
#TICKCOUNTS:0.000000=4
;
#COMBOS:0.000000=1
;
#SPEEDS:0.000000=1.000000=0.000000=0
;
#SCROLLS:0.000000=1.000000
,64.000000=0.000000
,64.125000=2.000000
,64.250000=0.000000
,64.375000=2.000000
,64.500000=0.000000
,64.625000=2.000000
,64.750000=0.000000
,64.875000=2.000000
,65.000000=0.000000
,65.125000=2.000000
,65.250000=0.000000
,65.375000=2.000000
,65.500000=0.000000
,65.625000=2.000000
,65.750000=0.000000
,65.875000=2.000000
,66.000000=0.000000
,66.125000=2.000000
,66.250000=0.000000
,66.375000=2.000000
,66.500000=0.000000
,66.625000=2.000000
,66.750000=0.000000
,66.875000=2.000000
,67.000000=0.000000
,67.250000=1.250000
,68.000000=0.000000
,68.125000=2.000000
,68.250000=0.000000
,68.375000=2.000000
,68.500000=0.000000
,68.625000=2.000000
,68.750000=0.000000
,68.875000=2.000000
,69.000000=0.000000
,69.125000=2.000000
,69.250000=0.000000
,69.375000=2.000000
,69.500000=0.000000
,69.625000=2.000000
,69.750000=0.000000
,69.875000=2.000000
,70.000000=0.000000
,70.125000=2.000000
,70.250000=0.000000
,70.375000=2.000000
,70.500000=0.000000
,70.625000=2.000000
,70.750000=0.000000
,70.875000=2.000000
,71.000000=0.000000
,71.250000=1.250000
,72.000000=0.000000
,72.125000=2.000000
,72.250000=0.000000
,72.375000=2.000000
,72.500000=0.000000
,72.625000=2.000000
,72.750000=0.000000
,72.875000=2.000000
,73.000000=0.000000
,73.125000=2.000000
,73.250000=0.000000
,73.375000=2.000000
,73.500000=0.000000
,73.625000=2.000000
,73.750000=0.000000
,73.875000=2.000000
,74.000000=0.000000
,74.125000=2.000000
,74.250000=0.000000
,74.375000=2.000000
,74.500000=0.000000
,74.625000=2.000000
,74.750000=0.000000
,74.875000=2.000000
,75.000000=0.000000
,75.250000=1.250000
,76.000000=0.000000
,76.125000=2.000000
,76.250000=0.000000
,76.375000=2.000000
,76.500000=0.000000
,76.625000=2.000000
,76.750000=0.000000
,76.875000=2.000000
,77.000000=0.000000
,77.125000=2.000000
,77.250000=0.000000
,77.375000=2.000000
,77.500000=0.000000
,77.625000=2.000000
,77.750000=0.000000
,77.875000=2.000000
,78.000000=0.000000
,78.125000=2.000000
,78.250000=0.000000
,78.375000=2.000000
,78.500000=0.000000
,78.625000=2.000000
,78.750000=0.000000
,78.875000=2.000000
,79.000000=0.000000
,79.250000=1.250000
,80.000000=0.000000
,80.250000=2.000000
,80.500000=0.000000
,80.625000=2.000000
,80.750000=0.000000
,80.875000=2.000000
,81.000000=0.000000
,81.125000=2.000000
,81.250000=0.000000
,81.375000=2.000000
,81.500000=0.000000
,81.625000=2.000000
,81.750000=0.000000
,81.875000=2.000000
,82.000000=0.000000
,82.125000=2.000000
,82.250000=0.000000
,82.375000=2.000000
,82.500000=0.000000
,82.625000=2.000000
,82.750000=0.000000
,82.875000=2.000000
,83.000000=0.000000
,83.250000=1.250000
,84.000000=0.000000
,84.125000=2.000000
,84.250000=0.000000
,84.375000=2.000000
,84.500000=0.000000
,84.625000=2.000000
,84.750000=0.000000
,84.875000=2.000000
,85.000000=0.000000
,85.125000=2.000000
,85.250000=0.000000
,85.375000=2.000000
,85.500000=0.000000
,85.625000=2.000000
,85.750000=0.000000
,85.875000=2.000000
,86.000000=0.000000
,86.125000=2.000000
,86.250000=0.000000
,86.375000=2.000000
,86.500000=0.000000
,86.625000=2.000000
,86.750000=0.000000
,86.875000=2.000000
,87.000000=0.000000
,87.250000=1.250000
,88.000000=0.000000
,88.125000=2.000000
,88.250000=0.000000
,88.375000=2.000000
,88.500000=0.000000
,88.625000=2.000000
,88.750000=0.000000
,88.875000=2.000000
,89.000000=0.000000
,89.125000=2.000000
,89.250000=0.000000
,89.375000=2.000000
,89.500000=0.000000
,89.625000=2.000000
,89.750000=0.000000
,89.875000=2.000000
,90.000000=0.000000
,90.125000=2.000000
,90.250000=0.000000
,90.375000=2.000000
,90.500000=0.000000
,90.625000=2.000000
,90.750000=0.000000
,90.875000=2.000000
,91.000000=0.000000
,91.250000=1.250000
,92.000000=0.000000
,92.125000=2.000000
,92.250000=0.000000
,92.375000=2.000000
,92.500000=0.000000
,92.625000=2.000000
,92.750000=0.000000
,92.875000=2.000000
,93.000000=0.000000
,93.125000=2.000000
,93.250000=0.000000
,93.375000=2.000000
,93.500000=0.000000
,93.625000=2.000000
,93.750000=0.000000
,93.875000=2.000000
,94.000000=0.000000
,94.125000=2.000000
,94.250000=0.000000
,94.375000=2.000000
,94.500000=0.000000
,94.625000=2.000000
,94.750000=0.000000
,94.875000=2.000000
,95.000000=0.000000
,95.250000=1.250000
,96.000000=0.000000
,96.125000=2.000000
,96.250000=0.000000
,96.375000=2.000000
,96.500000=0.000000
,96.625000=2.000000
,96.750000=0.000000
,96.875000=2.000000
,97.000000=0.000000
,97.125000=2.000000
,97.250000=0.000000
,97.375000=2.000000
,97.500000=0.000000
,97.625000=2.000000
,97.750000=0.000000
,97.875000=2.000000
,98.000000=0.000000
,98.125000=2.000000
,98.250000=0.000000
,98.375000=2.000000
,98.500000=0.000000
,98.625000=2.000000
,98.750000=0.000000
,98.875000=2.000000
,99.000000=0.000000
,99.250000=1.250000
,100.000000=0.000000
,100.125000=2.000000
,100.250000=0.000000
,100.375000=2.000000
,100.500000=0.000000
,100.625000=2.000000
,100.750000=0.000000
,100.875000=2.000000
,101.000000=0.000000
,101.125000=2.000000
,101.250000=0.000000
,101.375000=2.000000
,101.500000=0.000000
,101.625000=2.000000
,101.750000=0.000000
,101.875000=2.000000
,102.000000=0.000000
,102.125000=2.000000
,102.250000=0.000000
,102.375000=2.000000
,102.500000=0.000000
,102.625000=2.000000
,102.750000=0.000000
,102.875000=2.000000
,103.000000=0.000000
,103.250000=1.250000
,104.000000=0.000000
,104.125000=2.000000
,104.250000=0.000000
,104.375000=2.000000
,104.500000=0.000000
,104.625000=2.000000
,104.750000=0.000000
,104.875000=2.000000
,105.000000=0.000000
,105.125000=2.000000
,105.250000=0.000000
,105.375000=2.000000
,105.500000=0.000000
,105.625000=2.000000
,105.750000=0.000000
,105.875000=2.000000
,106.000000=0.000000
,106.125000=2.000000
,106.250000=0.000000
,106.375000=2.000000
,106.500000=0.000000
,106.625000=2.000000
,106.750000=0.000000
,106.875000=2.000000
,107.000000=0.000000
,107.250000=1.250000
,108.000000=0.000000
,108.125000=2.000000
,108.250000=0.000000
,108.375000=2.000000
,108.500000=0.000000
,108.625000=2.000000
,108.750000=0.000000
,108.875000=2.000000
,109.000000=0.000000
,109.125000=2.000000
,109.250000=0.000000
,109.375000=2.000000
,109.500000=0.000000
,109.625000=2.000000
,109.750000=0.000000
,109.875000=2.000000
,110.000000=0.000000
,110.125000=2.000000
,110.250000=0.000000
,110.375000=2.000000
,110.500000=0.000000
,110.625000=2.000000
,110.750000=0.000000
,110.875000=2.000000
,111.000000=0.000000
,111.250000=1.250000
,112.000000=0.000000
,112.250000=2.000000
,112.500000=0.000000
,112.625000=2.000000
,112.750000=0.000000
,112.875000=2.000000
,113.000000=0.000000
,113.125000=2.000000
,113.250000=0.000000
,113.375000=2.000000
,113.500000=0.000000
,113.625000=2.000000
,113.750000=0.000000
,113.875000=2.000000
,114.000000=0.000000
,114.125000=2.000000
,114.250000=0.000000
,114.375000=2.000000
,114.500000=0.000000
,114.625000=2.000000
,114.750000=0.000000
,114.875000=2.000000
,115.000000=0.000000
,115.250000=1.250000
,116.000000=0.000000
,116.125000=2.000000
,116.250000=0.000000
,116.375000=2.000000
,116.500000=0.000000
,116.625000=2.000000
,116.750000=0.000000
,116.875000=2.000000
,117.000000=0.000000
,117.125000=2.000000
,117.250000=0.000000
,117.375000=2.000000
,117.500000=0.000000
,117.625000=2.000000
,117.750000=0.000000
,117.875000=2.000000
,118.000000=0.000000
,118.125000=2.000000
,118.250000=0.000000
,118.375000=2.000000
,118.500000=0.000000
,118.625000=2.000000
,118.750000=0.000000
,118.875000=2.000000
,119.000000=0.000000
,119.250000=1.250000
,120.000000=0.000000
,120.062500=2.000000
,120.125000=0.000000
,120.187500=2.000000
,120.250000=0.000000
,120.312500=2.000000
,120.375000=0.000000
,120.437500=2.000000
,120.500000=0.000000
,120.562500=2.000000
,120.625000=0.000000
,120.687500=2.000000
,120.750000=0.000000
,120.812500=2.000000
,120.875000=0.000000
,120.937500=2.000000
,121.000000=0.000000
,121.062500=2.000000
,121.125000=0.000000
,121.187500=2.000000
,121.250000=0.000000
,121.312500=2.000000
,121.375000=0.000000
,121.437500=2.000000
,121.500000=0.000000
,121.562500=2.000000
,121.625000=0.000000
,121.687500=2.000000
,121.750000=0.000000
,121.812500=2.000000
,121.875000=0.000000
,121.937500=2.000000
,122.000000=0.000000
,122.062500=2.000000
,122.125000=0.000000
,122.187500=2.000000
,122.250000=0.000000
,122.312500=2.000000
,122.375000=0.000000
,122.437500=2.000000
,122.500000=0.000000
,122.562500=2.000000
,122.625000=0.000000
,122.687500=2.000000
,122.750000=0.000000
,122.812500=2.000000
,122.875000=0.000000
,122.937500=2.000000
,123.000000=0.000000
,123.250000=1.250000
,124.000000=0.000000
,124.062500=2.000000
,124.125000=0.000000
,124.187500=2.000000
,124.250000=0.000000
,124.312500=2.000000
,124.375000=0.000000
,124.437500=2.000000
,124.500000=0.000000
,124.562500=2.000000
,124.625000=0.000000
,124.687500=2.000000
,124.750000=0.000000
,124.812500=2.000000
,124.875000=0.000000
,124.937500=2.000000
,125.000000=0.000000
,125.062500=2.000000
,125.125000=0.000000
,125.187500=2.000000
,125.250000=0.000000
,125.312500=2.000000
,125.375000=0.000000
,125.437500=2.000000
,125.500000=0.000000
,125.562500=2.000000
,125.625000=0.000000
,125.687500=2.000000
,125.750000=0.000000
,125.812500=2.000000
,125.875000=0.000000
,125.937500=2.000000
,126.000000=0.000000
,126.062500=2.000000
,126.125000=0.000000
,126.187500=2.000000
,126.250000=0.000000
,126.312500=2.000000
,126.375000=0.000000
,126.437500=2.000000
,126.500000=0.000000
,126.562500=2.000000
,126.625000=0.000000
,126.687500=2.000000
,126.750000=0.000000
,126.812500=2.000000
,126.875000=0.000000
,126.937500=2.000000
,127.000000=0.000000
,127.250000=1.250000
,128.000000=1.000000
;
#FAKES:;
#LABELS:0.000000=Song Start
;
#DISPLAYBPM:90.000000;
#NOTES:
// measure 0
0000
0000
0000
0000
,  // measure 1
0000
0000
0000
0000
1000
0000
0001
0010
,  // measure 2
0001
0000
1000
0000
0010
0100
0010
0000
,  // measure 3
1000
0000
0100
0010
0100
0000
1000
0000
,  // measure 4
0001
0100
0001
0000
0010
0000
0100
0010
,  // measure 5
0100
0000
1000
0000
0001
0100
0001
0000
,  // measure 6
1000
0000
0100
0010
0100
0000
1000
0000
,  // measure 7
0001
0100
0001
0000
0010
0000
0001
1000
,  // measure 8
0001
0000
0010
0100
1000
0000
0010
0000
,  // measure 9
0100
0001
0010
0000
0001
0000
1000
0100
,  // measure 10
0010
0000
0100
0000
1000
0001
0100
0000
,  // measure 11
0010
0000
1000
0001
0010
0000
0001
0000
,  // measure 12
0100
0001
0010
0000
0100
0000
1000
0001
,  // measure 13
0100
0000
0010
0000
0100
0001
1000
0000
,  // measure 14
0100
0000
0010
0100
1000
0000
0001
0000
,  // measure 15
0010
0001
0100
0000
0010
0000
1000
0100
,  // measure 16
1000
1000
1000
1000
,  // measure 17
0100
0100
0100
0100
,  // measure 18
0010
0010
0010
0010
,  // measure 19
0100
0100
0100
0100
,  // measure 20
1000
1001
1000
1001
,  // measure 21
0001
0101
0001
0101
,  // measure 22
0001
0011
0001
0011
,  // measure 23
0010
0110
0010
0110
,  // measure 24
1000
0000
0001
0100
0000
0100
0001
0000
,  // measure 25
0010
0000
0100
1000
0000
1000
0100
0000
,  // measure 26
0010
0001
0010
0000
0100
1000
0100
0000
,  // measure 27
1000
0010
1000
0000
0100
0010
0100
0000
,  // measure 28
1000
0001
1000
0000
0010
0100
0010
0000
,  // measure 29
1000
0100
1000
0000
0001
0100
0001
0000
,  // measure 30
0010
0100
0010
0000
0001
1000
0001
0000
,  // measure 31
1000
0010
1000
0000
0001
0010
0001
0000
,  // measure 32
1000
0100
1000
0000
0001
0100
0001
0000
,  // measure 33
0010
0100
0010
0000
0001
1000
0001
0000
,  // measure 34
0100
0010
0100
0000
0001
0010
0001
0000
,  // measure 35
1000
0010
1000
0000
0100
0010
0100
0000
,  // measure 36
1000
0000
0001
0100
0001
0000
0010
0000
,  // measure 37
0010
0000
0001
0010
0001
0000
1000
0000
,  // measure 38
1000
0000
0010
0100
0010
0000
1000
0000
,  // measure 39
1000
0000
0100
0010
0100
0000
1000
0000
;
