#TITLE:You Reposted in the Wrong Plastic Love;
#SUBTITLE:;
#ARTIST:Nate Dogg, Eminem ft. Mariya Takeuchi;
#CREDIT:WithoutWhy;
#MUSIC:YouRepostedintheWrongPlasticLove_audio.ogg;
#SELECTABLE:YES;
#BACKGROUND:YouRepostedintheWrongPlasticLove_bg.png;
#BANNER:YouRepostedintheWrongPlasticLove_bg.png;
#CDTITLE:;
#OFFSET:-0.3;
#SAMPLESTART:75.137;
#SAMPLELENGTH:18.120;
#BPMS:0=105.002,1=104.998,2=105.002,3=104.998,4=105.002,5=104.998,7=105.002,8=104.998,9=105.002,10=104.998,11=105.002,12=104.998,14=105.002,15=104.998,16=105.002,17=104.998,18=105.002,19=104.998,20=107,21=104.027,22=108.023,23=104.031,24=105.988,25=107,26=102.139,27=104.031,28=106.996,29=105.988,30=107,31=103.074,32=107,33=105.988,34=108.027,35=110.138,36=104.031,37=105.988,38=104.998,39=104.031,40=110.138,41=104.027,42=105.002,43=103.074,44=104.031,45=110.138,46=108.023,47=105.002,48=106.996,49=114.627,50=96.8653,51=108.023,52=103.078,53=105.988,54=110.138,55=101.223,56=106.996,58=113.475,59=108.023,60=99.4338,61=105.988,62=108.023,63=112.342,64=101.22,65=105.988,66=107,67=105.988,68=105.002,69=104.027,70=106.996,71=109.074,72=101.22,73=110.138,74=105.991,75=105.988,76=105.991,77=104.998,78=109.074,79=104.998,80=107,81=105.988,82=105.991,83=103.074,84=109.074,85=104.998,86=108.027,87=114.627,88=98.5626,89=105.988,90=108.027,91=104.998,92=108.027,93=106.996,94=104.031,95=103.074,96=110.142,97=111.231,98=104.027,99=108.027,100=118.241,101=96.0384,102=104.998,103=108.027,104=101.22,105=110.142,106=106.996,107=107,108=102.139,109=111.231,110=105.988,111=108.027,112=108.023,113=103.078,114=104.998,115=107,116=104.027,117=105.991,118=106.996,119=105.002,120=104.998,121=108.027,122=103.074,123=110.142,124=104.027,125=109.074,126=104.998,127=104.031,128=106.996,129=105.002,130=104.998,131=105.002,132=104.998,133=105.991,134=104.998,135=105.002,136=105.988,137=108.027,138=102.139,139=110.142,140=104.998,141=105.002,142=108.023,143=105.991,144=105.988,145=105.991,146=105.988,147=107,148=106.996,149=103.074,150=107,151=106.996,152=105.002,153=108.023,154=105.991,155=103.074,156=107,157=104.998,158=107,159=106.996,160=108.027,161=100.317,162=117.016,163=96.8621,164=110.142,165=101.22,166=107,167=104.998,168=105.002,169=106.996,170=105.991,171=104.998,172=105.002,173=108.023,174=107,175=106.996,176=105.002,177=111.227,178=107,179=105.988,180=101.223,181=108.023,182=108.027,183=104.998,184=107,185=105.988,186=107,187=104.027,188=107,189=105.988,190=105.002,191=105.988,192=101.223,193=111.227,194=103.078,195=106.996,196=109.074,197=104.027,198=105.002,199=108.023,200=105.002,201=105.988,202=107,203=104.998,204=108.027,205=104.998,206=105.991,207=106.996,208=103.078,209=105.638,210=107.203,214=104.223,215=106.191,216=105.198,217=107.203,218=104.223,219=105.198,220=107.203,221=104.223,222=107.203,223=105.198,224=107.203,225=104.223,226=107.203,227=105.198,228=106.191,229=105.198,230=107.203,231=106.191,232=108.234,233=106.191,234=104.223,235=108.234,236=102.327,237=105.198,238=106.191,239=107.203,240=108.234,241=103.267,242=106.191,243=105.198,244=106.191,245=110.358,246=107.203,247=106.191,249=107.203,250=104.223,251=109.285,252=103.267,253=105.198,254=106.191,256=109.285,257=107.203;
#STOPS:96.5=1.7356,209=3.97585;

//---------------dance-single - ----------------
#NOTES:
     dance-single:
     :
     Beginner:
     4:
     0.000,0.000,0.000,0.000,0.000:
0000
0000
0000
0000
,
0000
0000
0000
0000
,
0000
0000
0000
0000
,
0000
0000
0000
0000
,
0000
0000
0000
0000
,
1000
1000
1000
0000
,
0010
0010
0010
0000
,
0100
0100
0100
0000
,
0001
0001
0001
0000
,
1000
0010
1000
0010
,
0000
1001
0000
1001
,
1000
0100
1000
0100
,
0110
0000
0110
0000
,
0001
0010
0001
0010
,
0000
1001
0000
1001
,
0001
0100
0001
0100
,
0110
0000
0110
0000
,
0001
0010
0110
0000
,
0001
0100
0110
0000
,
1000
0100
1100
0000
,
1000
0010
1010
0000
,
1000
0000
0001
0000
1000
1000
0000
0000
,
0001
0000
1000
0000
0001
0001
0000
0000
,
0200
0001
0001
0000
,
0301
0110
0000
0000
,
0000
0110
0000
0000
,
0000
1000
0100
0010
,
0001
1000
0100
0010
,
0001
0110
0000
0000
,
0000
0110
0000
0000
,
0000
0001
0100
0010
,
1000
0001
0100
0010
,
1000
1000
0100
1000
,
0000
0001
0100
0001
,
0000
1000
0100
1000
,
0000
0001
0100
0001
,
0000
4400
0000
3300
,
0000
0404
0000
0303
,
0000
1000
0001
1000
,
0000
0001
1000
0001
,
0000
1001
1000
0001
,
1000
0000
0002
0000
0000
0023
0030
0000
,
0000
0000
0000
0000
0000
0100
0000
0000
,
0000
1000
0000
0010
0000
0100
0000
0001
,
0000
1000
0010
0100
,
0001
0000
0000
0000
,
0000
0001
0100
0001
,
0100
0010
1000
0010
,
1000
0001
0100
0001
,
0100
0010
1000
0010
,
1000
0000
0000
1000
0000
0000
0000
0010
,
0000
0000
0000
0100
0000
0000
0000
0001
,
0100
0000
0101
0000
,
0000
1000
1100
0010
,
0001
0000
1000
0010
,
1000
0000
0100
2000
0000
0000
0000
0000
,
0000
0000
3020
0000
,
0000
0030
0101
0010
,
1000
0000
0001
0010
,
0001
0000
0100
0002
0000
0000
0000
0000
,
0000
0000
0023
0000
,
0000
0030
1100
0010
,
0001
0000
1000
0010
,
1000
0000
0100
2000
0000
0000
0000
0000
,
0000
0000
3020
0000
,
0000
0030
0000
0000
,
0000
0000
0000
0000
;

//---------------dance-single - ----------------
#NOTES:
     dance-single:
     :
     Easy:
     6:
     0.000,0.000,0.000,0.000,0.000:
0000
0000
0000
0000
,
0000
0000
0000
0000
,
0000
0000
0000
0000
,
0000
0000
0000
0000
,
0000
0000
0000
0000
,
1000
1000
1000
1010
,
0010
0010
0010
0110
,
0100
0100
0100
0101
,
0001
0001
0001
1001
,
1000
0010
1000
0010
,
0100
1001
0100
1001
,
1000
0100
1000
0100
,
0110
0001
0110
1000
,
0001
0010
0001
0010
,
0100
1001
0100
1001
,
0001
0100
0001
0100
,
0110
1000
0110
0001
,
0001
0010
0110
1000
,
0001
0100
0110
0001
,
1000
0100
1100
0010
,
1000
0010
1010
0001
,
1000
0000
0000
0000
0000
0000
0000
0000
0001
0000
0000
0000
0000
0000
0000
1000
0000
0000
1000
0000
0000
0000
1000
0000
0000
0000
0000
0000
0000
0000
0000
0000
,
0001
0000
0000
0000
0000
0000
0000
0000
1000
0000
0000
0000
0000
0000
0000
0001
0000
0000
0001
0000
0000
0000
0001
0000
0000
0000
0000
0000
0000
0000
0000
0000
,
0200
0001
1000
0001
,
0310
0000
0110
0000
0000
1000
0000
0000
,
0000
0000
0000
0000
0110
0000
0000
0000
0000
0000
0000
0001
0000
0000
0000
0000
,
0000
1000
0100
1000
,
0010
0100
0001
0010
,
0001
0110
0000
0000
,
0000
0110
0000
0000
,
0000
0001
0100
0001
,
0010
0100
1000
0010
,
1000
0000
1000
0100
1000
0100
1000
0100
,
1000
0000
0001
0100
0001
0100
0001
0100
,
0001
0000
1000
0100
1000
0100
1000
0000
,
0000
0000
0001
0100
0001
0100
0001
1000
,
0000
0100
0000
0000
4400
0000
0000
0000
0000
0000
0000
0000
3300
0000
0000
0000
,
0000
0404
0000
0303
,
0000
0000
1000
0001
1000
0001
1000
0001
,
1000
0000
0001
1000
0001
1000
0000
0000
,
0000
1200
0001
1000
,
0301
0000
0002
0000
0000
0203
0300
0000
,
1000
0010
0100
0001
,
0001
0100
0001
0100
0010
0000
0100
0000
,
0001
0001
0010
0100
,
0010
0001
1000
0010
,
0100
0001
0100
0001
,
0100
0010
1000
0010
,
1000
0001
0100
0001
,
0100
0010
1000
0010
,
1000
0000
0000
1000
0000
0000
0010
0000
0000
1000
0000
0000
0001
0000
0000
1000
,
0000
0000
1000
0100
0010
0000
0100
0010
,
0001
0000
0000
0000
0000
0000
0000
0000
1000
0001
1000
0000
0000
0000
0000
0000
,
0000
0000
0000
0000
1000
0000
0000
0000
1100
0000
0000
0000
0010
0000
0000
0001
,
0000
0000
1000
0010
,
1000
0000
0100
2000
0000
0000
0000
0000
,
0000
0000
0000
0010
3200
0000
0000
0000
,
0000
0000
0000
0000
0300
0000
0000
0000
0101
0000
0000
0000
0010
0000
0000
1000
,
0000
0000
0000
0000
0001
0000
0010
0002
,
0000
0000
0103
0002
0000
0000
0000
0000
,
0000
0000
0000
0010
0203
0000
0000
0000
,
0000
0000
0000
0000
0300
0000
0000
0000
1100
0000
0000
0000
0010
0000
0000
0001
,
0000
0000
1000
0010
,
1000
0000
0100
2000
0000
0000
0000
0000
,
0000
0000
0000
0001
3020
0000
0000
0000
,
0000
0030
0000
0000
,
0000
0000
0000
0000
;

//---------------dance-single - ----------------
#NOTES:
     dance-single:
     :
     Medium:
     9:
     0.000,0.000,0.000,0.000,0.000:
0000
0000
0000
0000
,
0000
0000
0000
0000
,
0000
0000
0000
0000
,
0000
0000
0000
0000
,
0000
0000
0000
0000
,
1000
1000
1000
1010
,
0010
0010
0010
0110
,
0100
0100
0100
0101
,
0001
0001
0001
1001
,
1000
0000
0010
0000
1000
0000
0010
0000
1000
0000
0010
0000
0001
0000
0000
0010
,
0000
0000
1000
0000
1001
0000
0000
M010
0000
0000
0001
0000
1001
0000
0000
0000
,
1000
0100
1000
0100
1000
0100
0001
0000
,
0110
0000
0010
0100
0000
0000
0000
0000
0002
0000
0203
0000
2300
0000
3000
0000
,
0001
0000
0010
0000
0001
0000
0010
0000
0001
0000
0010
0000
1000
0000
0000
0010
,
0000
0000
0001
0000
1001
0000
0000
001M
0000
0000
1000
0000
1001
0000
0000
0000
,
0001
0100
0001
0100
0001
0100
1000
0000
,
0110
0000
0010
0100
0000
0000
0000
0000
2000
0000
3200
0000
0302
0000
0003
0000
,
0001
0000
0010
0000
0100
0000
1000
0000
0110
0000
0010
0100
0000
0000
0000
0000
,
0001
0000
0100
0000
0010
0000
1000
0000
0110
0000
0100
0010
0000
0000
1000
0000
,
0010
0000
0100
0000
0001
0000
0000
0000
0010
0100
0010
0100
0000
0000
1000
0000
,
0100
0000
0010
0002
0000
0003
0000
0000
0100
0010
0100
0010
0000
0000
0000
0000
,
1010
0000
0000
0000
0100
0000
0000
0000
0001
0000
0000
0000
0000
0000
0000
1000
0000
0000
1000
0000
0000
0000
1000
0000
0000
0000
0000
0000
0000
0000
0000
0000
,
0011
0000
0000
0000
0000
0000
0000
0000
0000
0000
0000
0000
0100
0000
0000
0000
0000
0000
0000
0000
0000
0000
0000
0000
1000
0000
0000
0000
0000
0000
0000
0000
0000
0000
0000
0000
0000
0000
0000
0000
0000
0000
0000
0000
0000
0001
0000
0000
0000
0000
0000
0000
0000
0000
0001
0000
0000
0000
0000
0000
0000
0000
0000
0000
0000
0000
0001
0000
0000
0000
0000
0000
0000
0000
0000
0000
0000
0000
0000
0000
0000
0000
0100
0000
0000
0000
0000
0000
0000
0000
0000
0000
0000
0000
0000
0000
,
0200
0000
0000
0000
0000
0001
0000
0000
0000
0000
0000
1000
0000
0000
0000
0000
0000
0000
0001
0000
0000
0000
0000
0000
1000
0000
0000
0000
0000
0000
0000
0000
0000
0002
0000
0000
0000
0000
0000
0000
0000
0000
0003
0000
0000
0000
0000
0000
,
0310
0000
0000
0000
0000
0000
0000
0000
0000
0000
0000
0000
0110
0000
0000
0000
0000
0000
0000
0000
0000
0000
0000
0000
0000
0000
0000
0000
0000
0000
1000
0000
0000
0100
0000
0000
1000
0000
0000
0000
0000
0000
0000
0000
1000
0000
0000
0000
,
0000
0000
0000
0000
0000
0000
0000
0000
0110
0000
0000
0000
0000
0000
0000
0000
0000
0100
0000
0000
0000
0000
0001
0000
0000
0000
0100
0000
0001
0000
0000
0000
,
0000
1000
0100
1000
,
0010
0100
0001
0010
,
0001
0000
0000
1000
0100
0000
0001
0000
0000
0000
0000
0000
0000
0000
0000
0000
,
0000
0000
0000
0000
0000
0110
0000
0000
0000
0000
0000
0000
0000
0000
0110
0000
0000
0000
0000
0000
0000
0000
0000
0000
0000
0000
0000
0000
0000
0000
0000
0000
0000
0000
0000
0000
0000
0000
0000
0000
0000
0000
0000
0000
0000
0000
0000
0000
,
0001
0010
0001
0000
0100
0000
0001
0000
,
0010
0100
1000
0010
,
1000
0000
1000
0100
1000
0100
1000
0100
,
1000
0000
0001
0100
0001
0100
0001
0100
,
0001
0000
1000
0100
1000
0100
1000
0000
,
0000
0000
0001
0100
0001
0100
0001
1000
,
0000
0100
0000
0000
4400
0000
0000
0000
0000
0000
0000
0000
3300
0000
0000
0000
,
0000
0404
0000
0303
,
0000
0000
1000
0001
1000
0001
1000
0001
,
1000
0000
0001
1000
0001
1000
0000
0000
,
0000
1200
0001
1000
,
0301
0000
0002
0000
0000
0203
0300
0000
,
1000
0010
0100
0001
,
0001
0100
0001
0100
0010
1000
0100
1000
,
0010
1000
0010
0100
0001
0100
0010
0100
,
0001
0010
0100
0010
0001
0010
0100
0010
,
0001
0001
0010
0100
,
1000
0000
1000
0100
1000
0100
0010
0001
,
0100
0001
0010
0001
0010
0100
1000
0100
,
0010
0100
1000
0010
0100
0010
1000
0100
,
1000
0000
0100
1000
0000
0100
1000
0000
0100
1000
0000
0100
1000
0000
0100
1000
,
0000
0000
1000
0100
0010
0001
0100
0010
,
1000
0000
0000
0000
0000
0000
0000
0000
1000
0001
1000
0000
0000
0000
0000
0000
,
0000
0000
0000
0000
1000
0000
0000
0000
1100
0000
1000
0000
0010
0100
0000
0001
,
0000
0000
0000
0001
1000
0000
0010
0000
,
1000
0000
0100
2000
0000
0000
0000
0000
,
0000
0000
0000
0000
0000
0000
3010
0100
0002
0000
0000
0000
0000
0000
0000
0000
,
0000
0000
0003
0000
0000
0000
0000
0000
0101
0000
0001
0000
0010
0000
0100
1000
,
0000
0000
0000
1000
0001
0000
0010
0001
,
0000
0000
0100
0002
0000
0000
0000
0000
,
0000
0000
0000
0000
0000
0000
0013
0100
2000
0000
0000
0000
0000
0000
0000
0000
,
0000
0000
3000
0000
0000
0000
0000
0000
1100
0000
1000
0000
0010
0100
0000
0001
,
0000
0000
0000
0001
1000
0000
0010
0000
,
1000
0000
0100
2000
0000
0000
0000
0000
,
0000
0000
0000
0000
0000
0000
3010
0100
0002
0000
0000
0000
0000
0000
0000
0000
,
0000
0003
0000
0000
0000
0000
0000
0000
,
0000
0000
0000
0000
;

//---------------dance-single - ----------------
#NOTES:
     dance-single:
     :
     Hard:
     13:
     0.000,0.000,0.000,0.000,0.000:
0000
0000
0000
0000
,
0000
0000
0000
0000
,
0000
0000
0000
0000
,
0000
0000
0000
0000
,
0000
0000
0000
0000
,
1000
0000
0100
1000
0100
0010
0000
0100
0010
0000
0000
0000
1010
0000
0000
1000
,
0001
0000
0100
0001
0100
0010
0000
0100
0010
0000
0000
0000
0110
0000
1000
0100
,
1000
0000
0010
1000
0010
0100
0000
0010
0100
0000
0000
0000
0101
0000
0001
0100
,
0001
0000
0010
0001
0010
0100
0000
0010
0100
0000
0000
0001
1000
0100
0010
0001
,
1000
0000
0001
0100
1000
0000
0001
0010
1000
0000
0001
0100
1000
0000
0000
0100
,
0010
0000
0110
0000
0001
1000
0100
0010
0001
0000
1001
0000
0110
0000
0000
1000
,
0000
0000
0100
1000
0000
0100
0000
1000
0010
0100
0002
0000
0013
0000
0001
0010
,
0100
0000
0010
0200
0000
0000
0301
0100
0002
0000
0203
0000
2300
0000
3000
0000
,
0001
0000
1000
0100
0001
0000
1000
0010
0001
0000
1000
0100
0001
0000
1000
0010
,
0100
0000
0110
0000
1001
0000
010M
0000
1000
0000
0100
0010
0100
0000
0010
0001
,
0100
0000
0100
0001
0000
0100
0001
0010
0100
0000
2000
0000
3010
0000
0000
0000
,
0100
0000
0010
0200
0000
1300
0100
0000
2000
0000
3200
0000
0302
0000
0013
0000
,
1001
0000
0000
0000
0000
0000
0000
0000
0000
0000
0000
0000
0000
0000
0000
0000
0000
0000
0000
0000
0000
0000
0000
0000
1000
0000
0000
0000
0000
0000
0000
0000
0000
0000
0000
0000
0010
0000
0000
0000
0000
0000
0000
0000
0000
0000
0000
0000
1000
0000
0000
0000
0000
0000
0000
0000
0000
0000
0000
0000
0010
0000
0000
0000
0000
0000
0000
0000
0000
0000
0000
0000
1000
0000
0000
0000
0000
0000
0000
0000
0000
0000
0000
0000
0010
0000
0000
0000
0000
0000
0000
0000
0000
0000
0000
0000
0100
0000
0000
0000
0000
0000
0000
0000
0000
0000
0000
0000
0000
0000
0000
0000
0000
0000
0001
0000
0000
0000
0000
0000
0000
0000
0000
0000
0000
0000
0000
0000
0000
0000
0000
0100
0000
0000
0000
0000
0000
0000
0000
0000
0000
0000
0000
0000
0000
0000
0000
0000
0000
0000
0000
0000
0000
0000
0000
0000
0000
0000
0000
0000
0000
0000
0000
0000
0000
0000
0000
0000
0000
0000
0000
0000
0000
0000
0000
0000
0000
0000
0000
0000
0000
0000
0000
0000
0000
0000
0000
0000
0000
0000
0000
0000
,
1001
0000
0000
0000
0001
0000
0010
0000
0001
0000
0010
0000
0001
0000
0000
0000
1000
0000
0000
0000
0100
0000
0000
1000
0000
0000
0000
0000
1000
0000
0100
0000
,
0010
0000
0001
0010
1000
0010
0001
0010
1000
0010
0100
1000
0000
1000
0100
0010
,
0001
0000
0000
0000
0010
0000
0002
0000
0000
0000
1003
0000
0010
0000
0001
0000
0010
0000
1000
0000
0010
0000
0001
0000
0000
0000
0000
0001
0000
0010
0000
0100
,
0000
0000
0000
0010
0000
0100
0000
1000
0000
0000
0000
0100
0000
0001
0000
1000
0000
0000
1000
0000
0000
0000
1000
0000
0000
0000
0000
0000
0000
0000
0000
0000
,
M101
0000
0000
0000
0000
0000
0000
0000
0000
0000
0000
0000
110M
0000
0000
0000
0000
0000
0000
0000
0000
0000
0000
0000
M100
0000
0000
0001
0000
0000
0000
0000
0000
1000
0000
0000
0000
0000
0000
0000
0000
0000
0000
0000
0000
0001
0000
0000
0000
0000
0000
0000
0000
0000
0001
0000
0000
0000
0000
0000
0010
0000
0000
0000
0000
0000
0001
0000
0000
0000
0000
0000
0000
0000
0000
0000
0000
0000
0000
0000
0000
0000
0100
0000
0000
0000
0000
0000
0000
0000
0000
0000
0000
0000
0000
0000
,
0200
0000
0000
0000
0000
0001
0000
0000
0000
0000
0000
1000
0000
0000
0000
0000
0000
0000
0001
0000
0000
0000
0000
0000
1000
0000
0000
0000
0000
0000
0001
0000
0000
0002
0000
0000
0000
0000
0000
0000
0000
0000
0003
0000
0000
0000
0000
0000
,
0310
0000
0000
0000
0000
0000
0000
0000
0000
0000
0000
0000
0000
0000
0000
0000
0000
0000
0000
0000
0000
0000
0000
0000
0110
0000
0000
0000
0000
0000
0000
0000
0000
0000
0000
0000
0000
0000
0000
0000
0000
0000
0000
0000
0000
0000
0000
0000
0000
0000
0000
0000
0000
0000
0000
0000
0000
0000
0000
0000
1000
0000
0000
0000
0000
0000
0100
0000
0000
0000
0000
0000
1000
0000
0000
0000
0000
0000
0000
0000
0000
0010
0000
0000
0000
0000
0000
0000
1000
0000
0000
0000
0000
0000
0000
0000
,
0000
0000
0000
0000
0000
0000
0000
0000
0110
0000
0000
0000
0000
0000
0000
0000
0000
0100
0000
0001
0000
0000
0100
0000
0000
0000
0001
0000
0100
0000
0000
0000
,
0000
0000
0000
0000
0000
0000
0000
0000
0000
0000
0000
0000
0101
0000
0000
0000
0000
0000
1000
0000
0000
0100
0000
0000
0010
0000
0000
0100
0000
0000
1000
0000
0000
0100
0000
0000
1000
0000
0000
0000
0000
0000
0001
0000
0000
0000
0010
0000
,
0000
0000
0000
0000
0000
0000
0001
0000
0100
0000
0001
0000
1000
0000
0001
0000
0100
0000
0001
0000
1000
0000
0001
0000
0000
0000
0000
1000
0000
0010
0000
0000
,
1000
0100
0010
0100
0020
0000
0030
1001
0000
0000
0000
0000
0000
0000
1000
0100
,
0010
0000
0000
0000
0000
0000
0000
0000
0000
0000
0100
0000
0000
0000
0000
0000
0000
0000
0010
0000
0000
0000
0000
0000
0000
0000
0000
0000
0100
0000
0000
0000
0000
0000
0000
0000
0000
0000
0000
0000
0000
0000
0020
0000
0000
0000
0000
0000
0000
0000
0000
0000
0000
0000
0000
0000
0000
0000
0000
0000
0000
0000
0000
0000
0000
0000
0030
0000
0000
0000
0000
0000
0000
0000
0000
0000
0000
0000
0000
0000
0000
0000
0000
0000
0000
0000
0000
0001
0000
0000
0000
0000
0000
0100
0000
0000
,
0000
0010
0000
0100
0000
0010
0000
0100
0000
0000
0000
0001
0000
0100
0000
1000
0000
0000
0000
0001
0000
0000
0000
0010
0000
0100
0000
0001
0000
0010
0000
0000
,
0000
0000
0000
0110
0000
0000
0000
0110
0000
0000
0000
1000
0000
0100
0000
0001
0000
0000
0000
1000
0000
0010
0000
0100
0000
1000
0000
0010
0000
1000
0000
0000
,
0000
0000
0000
0000
1000
0000
0100
0000
1000
0000
0100
0000
1000
0000
0100
1000
,
0000
0000
0000
0000
0000
0000
0000
0000
0001
0000
0000
0000
0100
0000
0000
0000
0001
0000
0000
0000
0100
0000
0001
0000
0000
0000
0000
0100
0000
0001
0000
0000
,
0000
0100
0000
0000
010M
0000
1000
0000
0100
0000
1000
0000
0100
0000
1000
0100
,
0000
0000
0000
0000
M100
0000
0001
0000
0100
0000
0001
0100
0000
0000
0101
0000
,
0000
1100
0000
0000
4400
0000
0000
0000
0000
0000
0000
0000
3300
0000
1000
0100
,
0000
0000
0000
0000
0000
0000
0000
0000
0000
0000
0000
0000
0000
0000
0000
0000
0404
0000
0000
0000
0000
0000
0000
0000
0000
0000
0000
0000
0000
0000
0000
0000
0000
0000
0000
0000
0000
0000
0000
0000
0000
0000
0000
0000
0000
0000
0000
0000
0303
0000
0000
0000
0000
0000
0000
0001
0000
0000
0000
0000
0100
0000
0000
0000
,
0000
0001
0000
0000
2000
0000
0000
0000
0002
0000
0000
0000
0020
0003
3002
2000
,
0000
0000
0003
0000
3001
0000
1000
0000
0001
0000
1000
0031
0000
0000
0000
0000
,
0000
0000
0000
1100
0001
0110
1000
0101
,
0010
0000
1100
0000
0002
0000
0000
0000
0000
0000
0203
0000
0300
0000
0001
0010
,
0100
0000
1100
0000
1000
0100
0010
0000
0011
0000
0001
0100
1000
0000
1100
0000
,
1000
0110
0100
0001
0010
1010
1000
0100
,
1000
0001
0100
0010
0100
1000
0100
0010
,
0100
0010
1000
0100
1000
0000
0010
0000
0001
0010
0100
0000
0100
0000
0110
0000
,
0100
0010
0000
0000
1000
0000
0100
0000
0001
0000
0100
1000
0010
0000
1000
0000
,
0001
1000
0100
0010
0001
0100
0010
0000
1010
0000
1000
0100
0010
0000
0101
0000
,
0001
0010
0001
0010
0001
0000
1000
0000
0010
0100
0010
0100
0001
0000
0010
0000
,
0010
0100
1000
0010
1000
0000
1100
0000
0001
0100
1000
0100
0002
0000
0013
0000
,
1000
0010
0100
2000
0000
3001
2000
0000
3010
2000
0000
3001
2000
0000
3100
2000
,
0000
3001
0010
0100
1100
0000
0110
0000
0011
0000
0001
0100
0101
0000
0110
0000
,
1010
0000
0000
0000
0000
0000
0000
0000
1000
0001
1000
0000
0000
0000
0000
0000
,
0000
0000
0000
0000
1000
0000
0000
0000
0001
0000
0100
0001
0100
0010
0000
0100
,
0010
0000
0000
0000
0011
0000
0000
0001
1000
0000
0100
1000
0100
0010
0000
0100
,
0010
0000
0000
0000
0110
0000
0000
1000
0001
0000
0010
0001
0010
0100
0000
0010
,
0100
0000
0000
0000
1100
0000
0000
1000
0100
0000
0010
1000
0010
0100
0000
1000
,
0110
0000
0000
0000
1000
0100
0010
0001
0101
0000
0100
1000
0100
0010
0000
0100
,
0010
0000
0000
0000
1010
0000
0000
1000
0001
0000
0100
0001
0100
0010
0000
0100
,
0010
0000
0000
0000
0110
0000
0000
0001
1000
0000
0010
1000
0010
0100
0000
0010
,
0100
0000
0000
0000
0101
0000
0000
0001
0100
0000
0010
0001
0010
0100
0000
0001
,
0110
0000
0000
0000
0001
0100
0010
1000
1100
0000
1000
0000
0010
0100
0000
0001
,
0000
0000
0000
0001
1000
0000
0010
0000
,
1000
0000
0100
2000
0000
0000
0000
0000
,
0000
0000
0000
0000
0000
0000
3010
0100
0002
0000
0000
0000
0000
0000
0000
0000
,
0000
0003
0000
0000
0000
0000
0000
0000
,
0000
0000
0000
0000
;
