#TITLE:Woman;
#SUBTITLE:;
#ARTIST:Doja Cat;
#TITLETRANSLIT:;
#SUBTITLETRANSLIT:;
#ARTISTTRANSLIT:;
#CREDIT:Vndt;
#MUSIC:Woman_audio.ogg;
#BANNER:woman_bn.png;
#BACKGROUND:woman_bg.png;
#CDTITLE:Planet Her;
#SAMPLESTART:32.486;
#SAMPLELENGTH:18.553;
#JACKET:Woman_jk.png;
#SELECTABLE:YES;
#OFFSET:-0.206;
#BPMS:0.000=108.000;
#STOPS:56.750=1.111
,262.500=1.111
;
#BGCHANGES:;
#FGCHANGES:;
#GENRE:Afrobeat;
#BGCHANGES:-0.37=Woman_video.mov=1.000=1=0=0=StretchNoLoop==CrossFade==,
99999=-nosongbg-=1.000=0=0=0 // don't automatically add -songbackground-

//--------------- dance-single - Vndt ----------------
#NOTES:
     dance-single:
     Vndt:
     Beginner:
     4:
     0,0,0,0,0:
0000
0000
0000
0000
,
0000
0000
0000
0000
,
0000
0000
0000
0000
,
0000
0000
0000
0000
,
0000
0000
0000
0000
,
0000
0000
0000
0000
,
0000
0000
0000
0001
,
0000
0100
0000
0010
,
0000
0000
1000
0001
0001
0000
1000
0000
,
0200
0000
0000
0000
0000
0000
0000
0300
,
0020
0000
0000
0000
0000
0030
0001
0000
,
0000
0010
0000
0100
,
0000
0000
1000
0001
0001
0000
1000
0000
,
0000
0010
0000
0100
,
0000
0000
0001
0001
0000
0000
0001
0000
,
0010
0000
0010
0010
0000
0000
0100
0000
,
0010
0000
0001
0001
0000
0000
0001
0000
,
0100
0000
0100
0100
0000
0000
0010
0000
,
0010
0000
1000
1000
0000
0000
1000
0000
,
0010
0000
0010
0010
0000
0000
0100
0000
,
0010
0000
1000
1000
0000
0000
1000
0000
,
0100
0000
0100
0100
0000
0000
0010
0000
,
0010
0001
0000
0200
,
0000
0000
0300
0000
0000
0000
0000
0000
0002
0003
0000
0000
0020
0000
0030
0000
,
0100
0000
1000
1000
1000
0000
0002
0000
,
0000
0000
0003
0000
0000
0000
0000
0000
1000
0000
0000
0000
0020
0000
0000
0030
,
0100
0010
0010
2000
,
0000
0000
3000
0000
0000
0000
0000
0000
0001
0000
0000
0000
0020
0000
0000
0030
,
0100
0010
0010
0002
,
0000
0000
0000
0000
0000
0000
0000
0003
0000
0000
2000
0000
0020
0000
0000
0000
,
0000
0000
3030
0001
,
0000
1000
0000
1000
,
0001
1000
0000
0010
,
0100
0010
0000
1000
,
0100
0010
0000
0100
,
2000
0000
0002
0000
0000
3003
1000
0000
,
0001
0010
0000
0001
,
0100
0010
0110
0002
,
0000
0003
1000
1000
0000
2000
0000
0000
,
0010
0000
3010
0010
0000
0000
0100
0000
,
0010
0000
1000
1000
0000
2000
0000
0000
,
0100
0000
3100
0100
0000
0000
0010
0000
,
0010
0000
0001
0001
0000
0002
0000
0000
,
0010
0000
0013
0010
0000
0000
1001
0000
,
1001
0000
0110
0000
0000
0002
0000
0000
,
0100
0000
0103
0100
0000
0000
0010
0000
,
0010
0000
0110
0000
0000
0000
0000
1001
,
0000
0000
0000
0000
0000
0000
0000
1100
,
0000
0000
0000
0000
0000
0000
0000
0101
,
0000
0000
0000
0000
0000
0000
0000
1001
,
0000
0000
0000
0000
0000
0000
0000
1010
,
0000
0000
0000
0000
0000
0000
0000
0011
,
0000
0000
0000
0000
0000
0000
0000
0110
,
0000
0000
0000
0000
0000
0000
0000
1001
,
0000
0000
0001
0000
0001
0001
0000
0010
,
0000
0000
0010
0000
0010
0010
0000
0100
,
0000
0000
0000
0000
0000
0100
0100
0100
,
0000
1000
0000
0000
1000
1000
1000
0000
,
0000
0000
0010
0000
0010
0010
0000
0000
,
0100
0000
0000
0000
0100
0100
0000
0000
,
0001
0000
0000
0000
0001
0001
0000
1000
,
1000
1000
0000
0000
0000
0000
0000
0000
,
1001
0000
1000
0000
0100
0100
0000
0010
,
0000
0000
0001
0000
0100
0100
0000
0010
,
0000
0100
0100
0100
,
0020
0000
0000
0000
0030
0000
0000
0000
0220
0000
0000
0000
0000
0000
0000
0000
0000
0000
0000
0000
0000
0330
0000
0000
1000
0000
0000
0000
1000
0000
0000
0000
,
0000
2000
0000
0000
0100
0000
3100
0100
,
0000
0000
0010
0000
0100
0000
1000
1000
,
0000
2000
0000
0000
0010
0000
3010
0010
,
0000
0000
0100
0000
0100
0000
0001
0001
,
0000
0002
0000
0000
0100
0000
0103
0100
,
0000
1001
1001
0110
,
0000
0002
0000
0000
0010
0000
0013
0010
,
0000
0100
0100
1000
,
0000
0000
0100
0000
0000
0000
0010
0010
,
0000
0000
0001
0000
1000
0000
0001
0001
,
0000
0000
0100
0000
0000
0000
0010
0010
,
0000
0000
0100
0000
0001
0000
0001
0001
,
0000
0000
0100
0000
0000
0000
0010
0010
,
0000
0000
1000
0000
0001
0000
1000
1000
,
0000
0000
0100
0000
0000
0000
0010
0010
,
0000
0000
0100
0000
1000
0000
0002
1003
;

//--------------- dance-single - Vndt ----------------
#NOTES:
     dance-single:
     Vndt:
     Easy:
     8:
     0,0,0,0,0:
0000
0000
0000
0000
,
0000
0000
0000
0000
,
0000
0000
0000
0000
,
0000
0000
0000
0000
,
0000
0000
0000
0000
,
0000
0000
0000
0000
,
0000
0000
0000
0001
,
1000
0010
0100
0000
0001
0100
0010
0000
,
0100
0010
0100
0001
0001
0010
0001
0000
,
1000
0100
0010
0000
0001
0010
0100
0000
,
0010
0100
0010
0001
0001
1000
1000
0000
,
0001
0010
0100
0000
1000
0100
0010
0000
,
0100
0010
0100
1000
1000
0010
1000
0000
,
0001
0100
0010
0000
1000
0010
0100
0000
,
0010
0100
0001
0001
0000
0000
0001
0100
,
0010
1000
0010
0010
0000
0000
0100
0100
,
0001
0001
1001
1000
0000
0000
0001
0010
,
0100
1000
0100
0100
0000
0000
0010
0010
,
0001
0001
1001
1000
0000
0000
1000
0100
,
0010
0001
0010
0010
0000
0000
0100
0100
,
1000
1000
1001
0001
0000
0000
1000
0010
,
0100
0001
0100
0100
0000
0000
0010
0010
,
1000
0000
1000
0000
1001
0000
0000
0001
0000
0000
0010
0000
0200
0000
0000
0000
,
0000
0000
0300
0000
1000
0000
0000
0000
0002
0003
0002
0000
0023
0000
0230
0000
,
1300
0100
0010
0010
0010
0001
0002
0000
,
0000
0000
0003
0000
1000
0000
0000
0000
2000
3000
2000
0000
3020
0000
0000
0030
,
0100
0100
0010
0000
0010
1000
2000
0000
,
0000
0000
3000
0000
1000
0000
0000
0000
0002
0003
0002
0000
0203
0000
0320
0000
,
1030
0010
0100
0100
0100
0001
0002
0000
,
0000
0000
0003
2000
0000
0000
3010
0000
0000
0000
2000
0000
0020
0000
0000
0000
,
0000
0000
0000
0000
0000
0000
3000
0000
0000
0000
0000
0000
0230
0000
0000
0000
0000
0000
0000
0000
0000
0000
0000
0000
0302
0000
0000
0000
0000
0000
0000
0000
0000
0003
0000
0000
0001
0000
0000
0000
0100
0000
0000
0000
0010
0000
0000
0000
,
1000
0000
0000
0100
0000
0000
0110
0000
0000
0000
0000
0000
0000
0000
0000
0000
0000
0000
1000
0000
0100
0000
0010
0000
,
0001
0000
0010
0000
0110
0000
0100
0000
0010
0000
0001
0000
1000
0010
0000
0010
,
1000
0000
0000
0010
0000
0000
1000
0000
0000
0000
0000
0000
0100
0000
0000
0010
0000
0000
0001
0000
0010
0000
0100
0000
,
1000
0000
0000
0010
0000
0000
0110
0000
0000
0000
0000
0000
0100
0000
0000
0010
0000
0000
1000
0000
0100
0000
0100
0000
,
1000
0000
0000
0000
0000
0000
4000
0000
0000
0004
0000
0000
0000
0000
0000
0000
0000
0000
0000
0000
0000
0000
0000
0000
0000
0000
0000
3000
0000
0000
0003
0000
0000
0000
0000
0000
1000
0000
0000
0000
0100
0000
0000
0000
0010
0000
0000
0000
,
0001
0010
0011
0001
0001
0100
0002
0103
,
0100
0010
0110
0000
1001
0000
2000
3002
,
2003
0000
3020
0030
1000
0000
1000
0000
0000
0000
0020
0000
2030
0000
3200
0000
,
0320
0031
0010
0010
0000
0020
0100
0130
,
1000
1000
1001
0001
0000
0002
2003
3020
,
0230
0301
0100
0100
0000
0200
0010
0310
,
1000
0000
1000
0000
1001
0000
0002
0000
0023
0000
0032
0003
0002
0000
0203
0000
,
0320
1030
0010
0010
0000
0000
1001
0000
,
1001
0000
0110
0000
0000
2000
3002
0010
,
0010
0013
0100
0100
0000
2000
3010
0010
,
1000
1000
1010
0010
1000
0010
0000
0010
,
0100
0001
0100
0010
1000
0010
0000
1000
,
0100
0010
0100
1000
0001
0100
0000
0100
,
0001
1000
0100
1000
0001
0001
0000
0001
,
0010
0000
0100
0000
1000
0000
0001
0000
0010
0000
0200
0300
0000
0000
0100
0000
,
1000
0000
0100
0000
0010
0000
0100
0000
1000
0000
2000
3000
0000
0000
0010
0000
,
1000
0000
0010
0000
0100
0000
0010
0000
1000
0000
2000
3000
0000
0000
0100
0000
,
0010
0100
0010
0100
1000
1000
0010
0100
,
0010
1000
0001
0001
0010
0010
0000
0001
,
0010
0100
0010
0001
1000
1000
0000
1000
,
0020
0000
0430
0040
0000
0000
0000
0330
0000
0000
0110
0000
1001
0000
0001
0000
,
0100
0010
0100
0001
1000
1000
1001
0001
,
0100
0010
0100
0010
1000
1001
0000
1000
,
0001
1000
0010
0010
0100
0110
0000
0100
,
0001
1000
0010
0100
0001
2002
3003
0001
,
1000
0000
1000
0000
0010
0000
0100
0000
0001
0000
1000
0000
1000
0010
1000
0010
,
2000
0000
0000
0000
3010
0000
0000
0000
0100
0000
0000
0000
0000
0000
0000
0000
0100
0000
0000
0000
0001
0000
0000
0000
0000
0000
0000
0000
0000
0002
0000
0000
,
0023
0000
0030
0000
0100
0000
0000
0000
0100
0000
1000
0000
0000
0000
0000
1000
,
0020
0000
0130
0001
0010
0010
0110
1000
,
0020
0000
0000
0000
0030
0000
1000
0000
0001
0000
0000
0000
2002
0000
0000
0000
0000
0000
0000
0000
0000
3003
0000
0000
0001
0000
0000
0000
0001
0000
0000
0000
,
0000
0020
0032
0203
0320
1030
0010
0010
,
0000
0020
0100
0130
0001
0001
1001
1000
,
0010
2000
3002
0023
0230
1300
0100
0100
,
0000
0200
0010
0310
0001
0001
1001
1000
,
0000
0020
2030
3200
0320
0031
0010
0010
,
0000
1001
1001
0110
,
0000
0002
2003
0010
0010
3010
0100
0100
,
0000
0002
0103
0100
0010
0010
0110
0100
,
0001
0010
0100
0000
1000
0100
0010
0010
,
0100
1000
0002
0013
0011
0000
0001
0001
,
0100
0010
1000
0000
0010
0100
0010
0010
,
1000
0001
0010
0100
1100
0000
0110
0010
,
0001
0100
0010
0000
1000
0010
0100
0100
,
0010
1000
0002
0103
0101
0000
0001
0001
,
0010
0100
1000
0000
0100
0010
0100
0100
,
1000
0001
0100
0010
1010
0000
1001
1001
;

//--------------- dance-single - Vndt ----------------
#NOTES:
     dance-single:
     Vndt:
     Medium:
     10:
     0,0,0,0,0:
0000
0000
0000
0000
,
0000
0000
0000
0000
,
0000
0000
0000
0000
,
0000
0000
0000
0000
,
0000
0000
0000
0000
,
0000
0000
0000
0000
,
0000
0000
0000
0000
0000
0000
0000
0000
0000
0000
0000
0000
0001
0000
0000
0010
,
0100
0000
0010
0000
0100
0000
0000
1000
0010
0000
0100
0000
0010
0000
0000
0100
,
0001
0000
0100
0000
0001
0000
0100
0000
0100
0000
0001
0000
1000
0000
0000
0010
,
0100
0000
0010
0000
0100
0000
0000
0001
0010
0000
0100
0000
0010
0000
0000
0100
,
1000
0000
0100
0000
1000
0000
0010
0000
0010
0000
1000
0000
1000
0000
0000
0100
,
0010
0000
0100
0000
0010
0000
0000
0001
0100
0000
0010
0000
0100
0000
0000
0010
,
1000
0000
0010
0000
1000
0000
0100
0000
0100
0000
1000
0000
0001
0000
0000
0100
,
0010
0000
0100
0000
0010
0000
0000
1000
0100
0000
0010
0000
0100
0000
0000
0010
,
0001
0010
0011
0010
0001
1000
0001
0100
,
0010
1000
1010
0010
0100
0001
0010
0010
,
0001
0001
0101
0100
0001
1000
0001
0010
,
0100
1000
1100
0100
0010
0001
0100
0100
,
0001
0001
1100
0100
1000
0001
1000
0010
,
0100
0001
0101
0100
0010
1000
0100
0100
,
1000
1000
0101
0100
0001
1000
0001
0010
,
0100
1000
1100
0100
0010
0001
0100
0100
,
0001
0000
0001
0000
0011
0000
0010
0001
0000
0000
0010
0000
0020
0000
0000
0000
,
0100
0000
0130
0000
1000
0000
0000
0000
0002
0003
0002
0000
0023
0000
0230
0000
,
1300
0100
0010
0010
0010
0001
0002
0000
,
1000
0000
1003
0000
0001
0000
0000
0000
2000
3000
2000
0000
3020
0000
0000
0130
,
0001
0000
0100
0000
0010
0000
0000
0100
0010
0000
1000
0000
2000
0000
0000
0000
,
0001
0000
3001
0000
1000
0000
0000
0000
0002
0003
0002
0000
0203
0000
0320
0000
,
1030
0010
0100
0100
0100
0001
0002
0000
,
1000
0000
1003
0002
2003
0000
3010
0000
0000
0000
2000
0000
0020
0000
0000
0000
,
0000
0000
0000
0000
0000
0000
3000
0000
0000
0000
0000
0000
0230
0000
0000
0000
0000
0000
0000
0000
0000
0000
0000
0000
0302
0000
0000
0000
0000
0000
0000
0000
0000
0003
0000
0000
0001
0000
0000
0000
0100
0000
0000
0000
0010
0000
0000
0000
,
1000
0000
0000
0100
0000
0000
0110
0000
0000
0000
0000
0000
1000
0000
0000
0001
0000
0000
1000
0000
0100
0000
0010
0000
,
0001
0000
0010
0000
0110
0000
0100
0000
0010
0000
0001
0000
1000
0010
0000
0010
,
1000
0000
0000
0010
0000
0000
1000
0000
0000
0000
0000
0000
0100
0000
0000
0010
0000
0000
0001
0000
0010
0000
0100
0000
,
1000
0000
0000
0010
0000
0000
0110
0000
0000
0000
0000
0000
0010
0000
0000
0100
0000
0000
0001
0000
0100
0000
0100
0000
,
0001
0000
0000
0000
0000
0000
4000
0000
0000
0004
0000
0000
0000
0000
0000
0000
0000
0000
0000
0000
0000
0000
0000
0000
0000
0000
0000
3000
0000
0000
0003
0000
0000
0000
0000
0000
1000
0000
0000
0000
0100
0000
0000
0000
0010
0000
0000
0000
,
0001
0000
0010
0000
0011
0000
0001
0000
0001
0000
0100
0000
0002
0000
0103
0001
,
0100
0010
0110
0000
MMMM
0000
2000
3002
,
2003
0000
3020
0030
1010
0000
0010
0000
1000
0000
0002
0000
2003
0000
0100
0000
,
0001
3001
0011
0010
0100
1000
0010
0010
,
1000
1000
1100
0100
1000
0002
2003
0010
,
0001
3001
0101
0100
0010
1000
0100
0100
,
1000
1000
0101
0100
0001
2000
3002
0010
,
1000
1003
1100
0200
0320
0031
1001
0000
,
1001
0000
0110
1000
0001
0002
2003
0010
,
0001
3001
0101
0100
0010
1000
0100
0100
,
1000
0000
1000
0000
1010
0000
0010
0000
1000
0000
0010
1000
0000
0000
0010
0000
,
0100
0000
0001
0000
0100
0000
0010
0000
1000
0000
0010
1000
0000
0000
1000
0000
,
0100
0000
0010
0000
0100
0000
1000
0000
0001
0000
0100
0001
0000
0000
0100
0000
,
0001
0000
1000
0000
0100
0000
1000
0000
0001
0100
0001
0100
0000
0000
0001
0000
,
0010
0000
0100
0000
1000
0000
0001
0000
0010
0100
0020
0030
0000
0000
0100
0000
,
1000
0000
0100
0000
0010
0000
0100
0000
1000
0001
2000
3000
0000
0000
0010
0000
,
1000
0000
0010
0000
0100
0000
0010
0000
1000
0001
2000
3000
0000
0000
0100
0000
,
0010
0000
0100
0000
0010
0000
0100
0000
1000
0001
1000
0000
0010
0000
0100
0000
,
0010
0000
1000
0001
0010
0000
0001
0000
0010
0100
0010
0000
0000
0000
0001
0000
,
0010
0000
0100
0000
0010
0000
0001
0000
1000
0010
1000
0000
0000
0000
1000
0000
,
0020
0000
0430
0040
0000
0000
0000
0330
0000
0000
0110
0000
1001
0000
0001
0000
,
0100
0000
0010
0000
0100
0000
0001
0000
1000
0010
1000
0000
1001
0000
0001
0000
,
0010
0100
0010
0100
1000
1001
0000
1000
,
0001
0000
1000
0000
0010
0000
0010
1000
0010
0000
0110
0000
0000
0000
0100
0000
,
0001
0000
1000
0000
0100
0000
0010
0000
0001
1000
0002
0000
0013
0000
0001
0000
,
1000
0000
1000
0000
0100
0000
0010
0000
0001
0000
1000
0000
1000
0001
1000
0010
,
2000
0000
0000
0000
3001
0000
0000
0000
1100
0000
0000
0000
1000
0000
0000
0000
1000
0000
0000
0000
0101
0000
0000
0000
0001
0000
0000
0000
0000
0002
0000
0000
,
0023
0000
0030
0000
1010
0000
1000
0000
1000
0000
0011
0000
0001
0000
0000
0001
,
0020
0000
0130
1000
0010
0010
0110
1000
,
0020
0000
0000
0000
0030
0000
1000
0000
0001
0000
0000
0000
0001
0000
2000
0000
0002
0000
0000
0000
0000
3003
0000
0000
1100
0000
0000
0000
0100
0000
0000
0000
,
1000
0002
2003
0010
0001
3001
0102
0203
,
0320
2030
3100
0100
1000
1000
2010
3020
,
2030
3002
2003
0100
0001
3001
0011
0010
,
0100
1000
0010
0010
1000
1000
0011
0010
,
0001
2000
3002
0100
1000
1003
1010
0020
,
0230
0301
0010
0010
0001
0001
1010
0010
,
1000
0002
2003
0100
0001
3001
0011
0010
,
0100
0000
1000
0000
0010
0000
0010
0000
1000
0000
1000
0000
1010
0000
0000
0010
,
0100
0000
0010
0000
0100
0000
0000
0001
0010
0000
0100
0000
0020
0000
0230
0000
,
1300
0000
0100
0000
1000
0000
0000
0001
0000
0000
0100
0000
0001
0000
0000
0010
,
0100
0000
0010
0000
0100
0000
0000
1000
0010
0000
0100
0000
0020
0000
0230
0000
,
0301
0000
0100
0000
0001
0000
0000
1000
0000
0000
0010
0000
0011
0000
0000
0010
,
0100
0000
0010
0000
0100
0000
0000
1000
0010
0000
0100
0000
0020
0000
0230
0000
,
0301
0000
0100
0000
0001
0000
0000
1000
0000
0000
0100
0000
1000
0000
0000
0010
,
0100
0000
0010
0000
0100
0000
0000
0001
0010
0000
0100
0000
0020
0000
0230
0000
,
1300
0000
0100
0000
1000
0000
0000
0001
0000
0000
0010
0000
0011
0000
0011
0000
;

//--------------- dance-single - Vndt ----------------
#NOTES:
     dance-single:
     Vndt:
     Hard:
     13:
     0,0,0,0,0:
0000
0000
0000
0000
,
0000
0000
0000
0000
,
0000
0000
0000
0000
,
0000
0000
0000
0000
,
0000
0000
0000
0000
,
0000
0000
0000
0000
,
0000
0000
0000
0000
0000
0000
0000
0000
0000
0000
0000
0000
0001
0000
0000
0010
,
0100
0000
0010
0000
0100
0000
0000
1000
0010
0000
0100
0000
0010
0000
0000
0100
,
0001
0000
0100
0000
0001
0000
0100
0000
0010
0000
1000
0000
1000
0000
0000
0010
,
0100
0000
0010
0000
0100
0000
0000
0001
0010
0000
0100
0000
0010
0000
0000
0100
,
1000
0000
0100
0000
1000
0000
0000
0100
0010
0000
0001
0000
1000
0000
0000
0100
,
0010
0000
0100
0000
0010
0000
0000
0001
0100
0000
0010
0000
0100
0000
0000
0010
,
1000
0000
0010
0000
1000
0000
0000
0010
0100
0000
0001
0000
0001
0000
0000
0100
,
0010
0000
0100
0000
0010
0000
0000
1000
0100
0000
0010
0000
0100
0000
0000
0010
,
0001
0000
0010
0000
0011
0000
0010
0001
1000
0000
0000
0000
0001
0000
0100
0000
,
0010
0000
1000
0000
1010
0000
0010
1000
0001
0000
0000
0000
0001
0000
0010
0000
,
001M
0000
1000
0000
1010
0000
0010
1000
0001
0000
0000
0000
1000
0000
0100
0000
,
0010
0000
0001
0000
0011
0000
0010
0001
1000
0000
0000
0000
1000
0000
0010
0000
,
0100
0000
0001
0000
0101
0000
0100
0001
1000
0000
0000
0000
0001
0000
0010
0000
,
0100
0000
1000
0000
1100
0000
0100
1000
0001
0000
0000
0000
0001
0000
0100
0000
,
010M
0000
1000
0000
1100
0000
0100
1000
0001
0000
0000
0000
1000
0000
0010
0000
,
0100
0000
0001
0000
0101
0000
0100
0001
1000
0000
0000
0000
1000
0000
0100
0000
,
0010
0000
0001
0000
0011
0000
0001
1000
0001
0000
0010
0000
0020
0000
0030
0001
,
0200
0000
0302
0000
1003
0000
0000
0100
0020
0000
0032
0000
0203
0000
0301
1000
,
0010
0000
0100
0000
0001
0000
0001
1000
0001
0000
0010
0000
0020
0000
0030
0100
,
1000
0000
0001
0000
0100
0000
0000
0100
0010
0000
1000
0000
0020
0000
0030
0010
,
2000
0000
3010
0000
0020
0000
0030
1000
0200
0000
2300
0000
3002
0000
0000
0103
,
0020
0000
1030
0000
0001
0000
0000
0100
0020
0000
2030
0000
3200
0000
1300
0001
,
0010
0000
0100
0000
1000
0000
1000
0001
1000
0000
0010
0000
0020
0000
0000
0130
,
0002
0000
0000
2003
3200
0000
0310
0000
0000
0000
0002
0000
0020
0000
0000
0000
,
0000
0000
0000
0000
0000
0000
0030
0000
0000
0000
0000
0000
0203
0000
0000
0000
0000
0000
0300
0000
0000
0100
0000
0000
0001
0000
0000
0000
0000
0000
1000
0000
0000
0000
0000
0000
0001
0000
0000
0000
0100
0000
0000
0000
0010
0000
0000
0000
,
1000
0000
0000
0000
0000
0000
0100
0000
0000
0000
0000
0000
0110
0000
0000
0000
0000
0000
0000
0000
0000
0100
0000
0000
1000
0000
0000
0000
0000
0000
0001
0000
0000
0000
0000
0000
1000
0000
0000
0000
0100
0000
0000
0000
0010
0000
0000
0000
,
0001
0000
0010
0000
0110
0000
0100
0000
0010
0000
0001
0000
1000
0010
0000
M010
,
0001
0000
0000
0000
0000
0000
1000
0000
0000
0000
0000
0000
0001
0000
0000
0000
0000
0000
0000
0000
0000
0100
0000
0000
0010
0000
0000
0000
0000
0000
0100
0000
0000
0000
0000
0000
0001
0000
0000
0000
0010
0000
0000
0000
0100
0000
0000
0000
,
1000
0000
0000
0010
0000
0000
0110
0000
0000
0010
0000
0000
0100
0000
0000
0001
0000
0000
1000
0000
0100
0000
M100
0000
,
0001
0000
0000
0000
0000
0000
4000
0000
0000
0004
0000
0000
0000
0000
0000
0000
0000
0000
0000
0000
0000
0000
0000
0000
0000
0000
0000
3000
0000
0000
0003
0000
0000
0000
0000
0000
1000
0000
0000
0000
0100
0000
0000
0000
0010
0000
0000
0000
,
0001
0000
0010
0000
0011
0000
0001
0000
0001
0000
0100
0000
0002
0000
0103
0010
,
1000
0010
1010
0000
MMMM
0000
2000
3002
,
2003
0000
3020
0030
0110
0000
0010
1000
0001
0000
0002
0000
2003
0000
0100
0000
,
0001
0000
3010
0000
0011
0000
0010
0001
1000
0000
0002
0000
2003
0000
3010
0000
,
M010
0000
0001
0000
0011
0000
0010
0001
1000
0000
2000
0000
3002
0000
0100
0000
,
1000
0000
0013
0000
1010
0000
0010
1000
0001
0000
0020
0000
0032
0000
0013
0000
,
0100
0000
1000
0000
1100
0000
0100
1000
0001
0000
0200
0000
0320
0000
1000
0000
,
0100
0000
1030
0000
0110
0000
0200
0001
2300
0000
3000
0000
1001
0000
MMMM
0000
,
1001
0000
MMMM
0000
0110
0000
0001
1000
0001
0000
0020
0000
0230
0000
1000
0000
,
0010
0000
1300
0000
0110
0000
0020
0001
2030
0000
3001
0000
0001
0000
0010
0000
,
001M
0000
1000
0000
1000
0010
1000
0010
1000
0010
1000
0010
0000
0000
0010
0100
,
0010
0100
0001
1000
0001
1000
0100
0010
0001
1000
0010
1000
0000
0000
1000
0010
,
0100
0001
0100
0010
0100
0001
0010
0100
1000
0100
0010
0100
0000
0000
0100
0010
,
0100
0010
0001
1000
0001
1000
0010
0100
0001
1000
0100
1000
0000
0000
1000
0100
,
0010
0001
0010
0100
0010
0001
0100
0010
1000
0100
0020
0130
0000
0000
0100
1000
,
0100
0000
0010
0001
0010
0100
0010
0100
1000
0001
2000
3001
0000
0000
0001
0010
,
0100
1000
0100
0010
0100
1000
0100
1000
0010
0100
0001
0000
0000
0000
0001
0100
,
0010
1000
0010
0100
0010
1000
0100
0010
0001
0100
0010
1000
0010
1000
0001
0010
,
0001
0100
0001
1000
0100
0010
0001
1000
0010
1000
0002
1003
0000
0000
0001
0100
,
0010
1000
0010
0100
0010
1000
0010
1000
0100
0010
0002
0013
0000
0000
0010
0001
,
0010
0000
0000
0000
0400
0000
4000
0000
0000
0000
0000
3000
0300
0000
1000
0000
0010
0000
0000
0000
1010
0000
0000
0000
0011
0000
0000
0000
0001
0000
1000
0000
,
0100
1000
0100
0010
0100
1000
0010
0100
0010
1000
1010
0000
0011
0001
0010
0001
,
1000
0100
1000
0100
0010
0100
1000
0001
1000
0000
1001
0000
0000
1000
0100
1000
,
0001
0100
0001
0010
0100
1000
0010
0010
1000
0000
0001
0000
0000
0001
0100
0001
,
1000
0100
1000
0010
0100
0001
0010
0001
0010
0100
0210
0000
1300
0001
1000
0000
,
0001
0000
1000
0001
0100
0001
1000
0001
0010
0100
1000
0100
0010
0001
0010
0001
,
0012
0000
0000
0000
1003
0000
0000
0000
1100
0000
0000
0000
1000
0000
0100
0000
0001
0000
0000
0000
0100
0000
0000
0000
0001
0000
0100
0000
0000
2000
0000
0000
,
3020
0000
1030
0000
1010
0000
1000
0010
0001
0000
0010
0000
0001
0010
0000
1000
,
0020
0000
0000
0000
0130
0001
0100
0000
0010
0100
0010
0100
0110
0000
1000
0001
,
0020
0000
0000
0000
0030
0000
0001
0000
1000
0000
0000
0000
0001
0000
2000
0000
0002
0000
0000
0000
0000
3003
0000
0000
1100
0000
0000
0000
0100
0000
1000
0000
,
0001
0000
0002
0000
2003
0000
0010
0000
0001
0000
3100
0000
0101
0000
0100
0001
,
1000
0000
0002
0000
2003
0000
3100
0000
M100
0000
0001
0000
0102
0000
0203
0001
,
2300
3000
2000
0000
3002
0000
0010
0000
1000
0000
0103
0000
1100
0000
0100
1000
,
0001
0000
0200
0000
0302
0000
0103
0000
0010
0000
1000
0000
1010
0000
0010
1000
,
0001
0000
0020
0000
0230
0000
1000
0000
0010
0000
1300
0000
0110
0000
0020
0001
,
2030
0000
3000
0000
1001
0000
0001
0000
1001
0000
1000
0000
1001
0000
0001
1000
,
0001
0000
0200
0000
0320
0000
1000
0000
0100
0000
1030
0000
0110
0000
0200
0001
,
2300
0000
3001
0000
0001
0000
0100
0000
010M
0000
1000
0000
1010
0000
1000
0010
,
0100
0000
0001
0000
0100
0000
0000
0001
1000
0000
0010
0000
2010
0000
3020
1030
,
0100
0000
1000
0000
0002
0000
0023
0031
0020
0000
0000
0030
1200
0000
2300
3100
,
0010
0000
0001
0000
0010
0000
0000
0001
1000
0000
0100
0000
2100
0000
3200
1300
,
0020
0000
1030
0000
0002
0000
0203
0301
0200
0000
0000
0300
0201
0000
0302
0103
,
0020
0000
2030
0000
3010
0000
0000
1000
0002
0000
0203
0300
0102
0000
0203
0301
,
0020
0000
0031
0000
2000
0000
3200
1300
0200
0000
0000
0300
0021
0000
0032
0013
,
0200
0000
2300
0000
3100
0000
0000
1000
0002
0000
0023
0030
0012
0000
0023
0031
,
0200
0000
0301
0000
2000
0000
3020
1030
0020
0000
0000
0030
1010
0000
1001
0000
;

//--------------- dance-single - Vndt ----------------
#NOTES:
     dance-single:
     Vndt:
     Challenge:
     15:
     0,0,0,0,0:
0000
0000
0000
0000
,
0000
0000
0000
0000
,
0000
0000
0000
0000
,
0000
0000
0000
0000
,
0000
0000
0000
0000
,
0000
0000
0000
0000
,
0000
0000
0000
0000
0000
0000
0000
0000
0000
0000
0000
0000
1000
0000
0000
0000
0000
0000
0000
0000
0001
0000
0010
0000
0001
0000
0000
0000
0000
0000
1000
0000
0000
0000
0000
0000
1001
0000
0000
0000
0000
0000
0001
0000
0000
0010
0000
0000
,
0100
0000
0010
0000
0100
0000
1000
0010
0100
0000
0010
0000
0100
0000
0001
0100
,
0010
0000
0100
0000
0010
0000
1000
0010
1000
0000
0001
0000
1001
0000
1000
0010
,
0100
0020
0100
0000
0130
0000
0002
0013
0200
0000
0310
0000
0100
0000
1000
0100
,
0020
0000
0100
0030
0020
0000
0031
0010
0002
0000
2003
0000
3002
0000
0013
0001
,
0100
0000
0010
0000
1000
0000
0010
1000
0010
0000
1000
0000
1000
0000
0100
1000
,
0010
0000
0100
0000
0001
0000
0100
0001
0100
0000
0001
0000
2000
0000
3010
1000
,
0200
0000
0320
0000
0031
0000
0010
0001
0010
0000
0001
0000
0002
0000
0103
0010
,
1000
0000
1000
0000
1100
0000
1000
0100
0010
0000
0100
0000
0010
0000
0010
0001
,
1000
0000
1000
0000
1010
0000
0010
1000
0001
0000
0010
0000
0001
0000
0010
0000
,
001M
0000
1000
0000
0101
0000
0001
0100
0010
0000
0100
0000
0010
0000
0010
1000
,
0001
0000
0001
0000
0011
0000
0010
0001
1000
0000
0010
0000
1000
0000
0010
0000
,
M010
0000
0001
0000
1010
0000
1000
0010
0100
0000
0010
0000
0100
0000
0100
0001
,
1000
0000
1000
0000
1100
0000
0100
1000
0001
0000
0100
0000
0001
0000
0100
0000
,
010M
0000
1000
0000
0011
0000
0001
0010
0100
0000
0010
0000
0100
0000
0100
1000
,
0001
0000
0001
0000
0101
0000
0100
0001
1000
0000
0100
0000
1000
0000
0100
0000
,
M100
0000
0001
0000
1100
0000
1000
0100
1000
0000
0010
0000
0020
0000
0130
0001
,
0200
0000
0302
0000
1003
0000
0010
0100
0020
0000
2030
0000
3200
0000
1300
0001
,
0010
0000
0100
0000
1000
0000
1000
0001
1000
0000
0010
0000
0020
0000
0130
0010
,
1000
0000
0001
0000
0100
0000
0001
0100
0010
0000
1000
0000
0020
0000
0130
0010
,
2000
0000
3010
0000
0100
0000
0001
0100
0100
0000
0010
0000
2000
0000
3020
2030
,
3020
0000
0130
0000
0001
0000
1000
0001
0010
0000
0001
0000
0020
0000
0130
0010
,
0002
0000
0013
0000
0100
0000
0100
1000
0100
0000
0010
0000
0002
0000
0013
0001
,
0020
0032
1003
0020
0130
0000
0010
0100
0010
0000
2000
0000
0020
0000
0000
0000
,
0000
0000
0000
0000
0000
0000
0000
0000
0000
3000
0000
0000
0200
0000
0000
0030
0000
0000
0301
0000
0000
0100
0000
0000
0001
0000
0000
0000
0000
0000
1000
0000
0000
0000
0000
0000
0001
0000
0000
0000
0100
0000
0000
0000
0010
0000
0000
0000
,
1000
0000
0000
0000
0000
0000
0010
0000
0000
0000
0000
0000
0101
0000
0000
0000
0000
0000
0100
0000
0000
0001
0000
0000
0100
0000
0000
0000
0000
0000
0001
0000
0000
0000
0000
0000
0010
0000
0000
0000
1000
0000
0000
0000
0001
0000
0000
0000
,
1000
0000
0001
0000
1000
0000
0010
0001
0010
0000
0100
0000
1000
0001
0000
0001
,
0010
0000
0000
0000
0000
0000
1000
0000
0000
0000
0000
0000
0001
0000
0000
0000
0000
0000
0000
0000
0000
0001
0000
0000
1000
0000
0000
0000
0000
0000
0010
0000
0000
0000
0000
0000
0001
0000
0000
0000
0010
0000
0000
0000
0100
0000
0000
0000
,
1000
0000
0000
0000
0000
0000
0100
0000
0000
0000
0000
0000
1100
0000
0000
0000
0000
0000
1000
0000
0000
0001
0000
0000
1000
0000
0000
0000
0000
0000
0001
0000
0000
0000
0000
0000
1000
0000
0000
0000
0010
0000
0000
0000
0100
0000
0000
0000
,
0001
0000
0000
0000
0000
0000
0100
0000
0000
0000
0000
0000
0040
0000
0000
0400
0000
0000
0000
0000
0000
0030
0000
0000
0300
0000
0000
0000
0000
0000
0001
0000
0000
0000
0000
0000
1000
0000
0000
0000
0001
0000
0000
0000
1000
0000
0000
0000
,
0001
0000
1000
0000
0010
0000
0100
0000
0100
0000
0001
0000
1000
0000
0010
1000
,
0010
0000
0100
0000
0001
0000
0100
0000
0M0M
0000
0100
0010
0200
0000
0320
0000
,
2030
0000
3200
0300
0220
0000
0001
0000
0000
0330
0100
1000
1100
0000
1000
0001
,
2001
0000
3100
0000
0210
0000
0310
0100
0010
0000
0100
0000
0100
0000
0100
1000
,
0001
0000
0010
0000
0011
0000
1000
0010
1000
0000
0001
0000
0100
0000
0100
0010
,
1000
0000
1000
0000
1001
0000
1000
0001
1000
0000
0010
0100
0110
0000
0000
0000
,
1001
0000
0000
0000
2001
0000
3001
0100
0010
0000
1000
0000
0010
0000
0010
0100
,
0001
0000
0004
0400
0000
0000
0000
0000
0303
0000
0001
0000
1001
0000
MMMM
0000
,
1001
0000
MMMM
0000
0110
0000
0001
1000
0001
0000
0010
0000
0011
0000
0010
0100
,
0110
0000
0100
0000
1100
0000
1000
0100
0010
0000
0001
0010
0001
0000
0100
0000
,
010M
0000
0000
0000
1000
0000
0000
0000
1000
0000
0010
0000
1000
0000
0010
0000
1000
0000
0010
0000
1000
0000
0010
0000
0000
MMMM
0000
0000
0010
0000
0100
0000
,
0010
0000
0100
0000
0001
0000
1000
0000
0001
0000
1000
0000
0100
0000
0010
0000
0001
0000
1000
0000
0010
0000
1000
0000
0000
MMMM
0000
0000
1000
0000
0010
0000
,
0100
0000
0001
0000
0100
0000
0010
0000
0100
0000
0001
0000
0010
0000
0100
0000
1000
0000
0100
0000
0010
0000
0100
0000
0000
MMMM
0000
0000
0100
0000
0010
0000
,
0100
0000
0010
0000
0001
0000
1000
0000
0001
0000
1000
0000
0010
0000
0100
0000
0001
0000
1000
0000
0100
0000
1000
0000
0000
MMMM
0000
0000
1000
0000
0100
0000
,
0010
0000
0001
0000
0010
0000
0100
0000
0010
0000
0001
0000
0100
0000
0010
0000
1000
0000
0100
0000
0010
0000
0100
0000
0000
MMMM
0000
0000
0100
0000
1000
0000
,
0100
0000
0000
0000
M100
0000
0001
0000
0010
0000
0100
0000
0010
0000
0100
0000
1000
0000
0001
0000
2000
0000
3001
0000
0000
MMMM
0000
0000
0001
0000
0010
0000
,
0100
1000
0100
0010
0100
1000
0100
1000
0010
0100
0001
0000
MMMM
0000
0001
0100
,
0010
1000
0010
0100
0010
1000
0100
0010
0001
0100
0010
1000
0010
1000
0001
0010
,
0001
0100
0001
1000
0100
0010
0001
1000
0010
1000
0001
0000
MMMM
0000
0001
0100
,
0010
0000
1000
0000
0010
0000
0100
0000
0010
0000
1000
0000
0010
0000
1000
0000
0100
0000
0010
0000
0002
0000
0013
0000
0000
MMMM
0000
0000
0010
0000
0001
0000
,
0010
0000
0000
0000
004M
0000
4000
0000
0000
0000
0000
3030
0000
0000
1000
0000
0010
0000
0000
0000
1010
0000
0000
0000
0011
0000
MMMM
0000
0001
0000
1000
0000
,
0100
1000
0100
0010
0100
1000
0010
0100
0010
1000
1010
0000
0011
0001
0010
0010
,
0100
0000
1000
0000
0100
0000
0100
0000
0010
0000
0100
0000
1000
0000
0001
0000
1001
0000
0000
0000
1001
0000
0000
MMMM
0000
0000
1000
0000
0100
0000
1000
0000
,
0001
0000
0100
0000
0001
0000
0010
0000
0100
0000
1000
0000
0010
0000
0010
0000
1010
0000
0000
0000
0011
0000
0000
MMMM
0000
0000
0001
0000
0100
0000
0001
0000
,
1000
0100
1000
0010
0100
0001
0010
0001
0010
0100
0210
0000
1300
0001
1000
0000
,
1001
0000
1001
0001
0100
0001
1000
0001
0010
0100
1000
0100
0010
0001
0010
0001
,
0012
0000
0000
0000
1003
0000
0000
0000
1100
0000
0000
0000
1000
0000
0100
0000
0001
0000
0000
0000
0101
0000
0000
0000
0001
0000
0100
0000
0000
2000
0000
0000
,
3020
0000
1030
0000
1010
0000
1000
0010
0001
0000
0011
0000
0001
0010
0000
1000
,
0020
0000
0000
0000
0130
0001
0100
0000
0010
0100
0010
0100
0110
0000
1000
0001
,
0020
0000
0000
0000
0030
0000
0001
0000
1000
0000
0000
0000
0001
0000
2000
0000
0002
0000
0000
0000
0000
3003
0000
0000
1010
0000
0000
0000
1000
0000
0010
0000
,
0100
0000
0020
0000
0230
0300
0100
0001
1000
0000
1000
0000
1100
0000
0100
1000
,
0002
0000
0203
0000
0301
0000
0100
0000
010M
0000
1000
0000
0011
0000
0001
0010
,
0100
0000
0020
0000
0230
0300
0100
1000
0001
0000
0001
0000
0101
0000
0100
0001
,
1000
0000
0100
0000
1000
0000
0100
0000
M100
0000
0001
0000
1200
0000
1300
0100
,
0010
0000
0200
0000
0320
0030
0010
0001
1000
0000
1000
0000
1010
0000
1000
0001
,
1000
0000
0001
0000
1001
0000
0001
0000
1001
0000
1000
0000
1001
0000
0001
1000
,
0010
0000
0200
0000
0320
0030
0010
1000
0001
0000
0001
0000
0011
0000
0010
0001
,
1000
0000
0010
0000
1000
0000
0010
0000
M010
0000
0001
0000
1010
0000
1000
0010
,
0100
0000
0001
0000
0100
0000
0001
1000
0001
0000
0010
0000
0011
0000
0001
1000
,
0200
0000
1300
0000
0002
0000
0023
0031
0400
0000
0000
0300
0011
0000
0001
0010
,
0100
0000
1000
0000
0100
0000
1000
0001
1000
0000
0010
0000
1010
0000
1000
0001
,
0200
0000
0301
0000
2000
0000
3020
1030
0400
0000
0000
0300
1200
0000
1300
0200
,
0310
0000
0002
0000
0013
0000
0001
1000
0002
0000
0203
0300
0201
0000
0301
1000
,
0020
0000
1030
0000
0001
0000
0100
0001
0040
0000
0000
0000
0130
0000
0100
1000
,
0100
0000
1000
0000
0100
0000
1000
0001
0100
0000
0010
0000
1010
0000
0001
1000
,
0100
0000
1000
0000
0001
0000
0010
0001
0400
0000
0000
0300
1001
0000
1001
0000
;
