#TITLE:Thriller;
#SUBTITLE:;
#ARTIST:Michael Jackson;
#CREDIT:;
#MUSIC:Thriller_audio.ogg;
#SELECTABLE:YES;
#BACKGROUND:thriller_bn.png;
#BANNER:thriller_bn.png;
#CDTITLE:;
#OFFSET:-0.235;
#SAMPLESTART:43.820;
#SAMPLELENGTH:17.314;
#BPMS:0=106.156,1=118.45,3=125.033,4=118.45,12=119.711,13=118.45,16=119.072,17=118.45,18=120.351,19=118.45,30=119.711,31=118.45,32=118.994,33=119.711,34=118.45,36=118.217,37=118.92,38=117.907,39=118.372,40=118.45,41=118.295,42=118.372,43=118.45,44=118.372,45=118.45,47=118.606,48=118.372,49=118.217,50=118.45,52=118.372,53=118.45,54=116.912,55=117.522,56=120.11,57=118.45,58=118.295,59=118.45,60=118.685,61=118.217,62=117.984,63=118.295,64=118.45,65=118.295,66=118.217,67=118.45,68=118.372,69=118.528,70=117.83,71=118.606,72=118.45,73=118.295,74=118.372,75=118.45,77=118.372,78=118.295,79=118.45,81=118.217,82=118.45,83=118.372,84=118.45,85=118.217,86=117.369,87=118.685,88=118.528,89=118.763,90=118.45,91=118.372,92=118.45,93=118.528,94=118.45,95=118.685,96=118.45,97=118.528,98=118.45,99=118.606,100=118.45,102=118.606,103=118.763,104=118.45,106=118.606,107=118.528,108=118.606,109=118.45,110=118.606,111=118.45,112=118.606,114=118.528,115=118.45,116=118.685,117=118.528,119=118.606,122=118.528,123=118.606,124=118.45,125=118.763,126=118.606,133=118.45,134=118.685,135=118.528,136=118.606,138=118.841,139=118.295,140=118.45,141=118.763,142=118.606,151=118.45,152=118.606,155=118.685,156=118.606,160=118.45,161=118.606,162=118.685,163=118.606,165=118.528,166=118.606,171=118.528,172=118.606,173=118.528,174=118.606,181=118.528,182=118.606,186=118.92,187=118.217,188=118.528,189=118.606,197=118.685,201=118.606,202=118.685,205=118.606,206=118.763,207=118.685,208=118.606,210=118.685,212=118.606,214=118.763,216=118.606,217=118.685,219=118.606,220=118.685,221=118.763,222=118.606,224=118.763,225=118.606,226=118.685,227=118.606,231=118.685,232=118.606,233=118.528,234=118.606,247=118.685,248=118.606,263=118.841,264=118.685,268=118.606,269=118.685,270=118.763,271=118.685,272=118.606,273=118.685,274=118.606,275=118.685,276=118.763,277=118.685,281=118.606,282=118.685,284=118.606,286=118.685,287=118.763,288=118.606,290=118.685,296=118.606,297=118.685,300=118.606,301=118.685,305=118.606,306=118.685,308=118.606,310=118.685;
#STOPS:;

//---------------dance-single - ----------------
#NOTES:
     dance-single:
     :
     Beginner:
     3:
     0.000,0.000,0.000,0.000,0.000:
0001
0000
0000
1000
0000
0000
0000
0000
0000
0000
0000
0000
0000
0000
0000
0000
,
0001
1000
0010
0000
,
1000
0000
0010
0000
,
0001
0000
0010
0000
,
1000
0000
0010
0000
,
0001
0000
0010
0000
,
0001
0000
0000
0000
,
1000
0000
0010
0000
,
1000
0000
0010
0000
,
0100
0000
0001
0000
,
0100
0000
0001
0000
,
0010
0000
0001
0000
,
0010
0000
0001
0000
,
1000
0000
0100
0000
,
2002
0000
0000
3003
,
1000
0000
0010
0000
,
0100
0000
0001
0000
,
1000
0000
0010
0000
,
1001
0000
0000
0000
,
0001
0000
0010
0000
,
0100
0000
1000
0000
,
0001
0000
0010
0000
,
0001
0000
0000
1000
0000
0000
0000
0000
0000
0000
0000
0000
0000
0000
0000
0000
,
0001
1000
0001
0000
,
1000
0000
0010
0000
,
1000
0000
0010
0000
,
1000
0000
0000
0001
0000
0000
0000
0000
0000
0000
0000
0000
0000
0000
0000
0000
,
1000
0001
1000
0000
,
0001
0000
0010
0000
,
0001
0000
0001
0000
,
2002
0000
0000
0000
,
0000
0000
0000
0000
0000
3003
0000
0000
,
1000
0000
0010
0000
,
0100
0000
0001
0000
,
1000
0000
0010
0000
,
0100
0000
0001
0000
,
0010
0000
0100
0000
,
0010
0000
0001
0000
,
2000
0000
0000
0000
,
0002
0000
0000
0000
,
0000
3003
0000
0000
0000
0000
0000
0000
,
0001
0000
0100
0000
,
0020
0030
1000
0000
,
0001
0000
0010
0000
,
0100
0000
1000
0000
,
0010
0000
1000
0000
,
0001
0000
0100
0000
,
0010
0000
1000
0000
,
0100
0000
1000
0000
,
1000
0000
0100
0000
,
0010
0000
0001
0000
,
0100
0000
0001
0000
,
1000
0000
0001
0000
,
1000
0000
0010
0000
,
0100
0000
0001
0000
,
0010
0000
0001
0000
,
1000
0000
0001
0000
,
0010
0000
0000
0100
0000
0000
0000
0000
0000
0000
0000
0000
0000
0000
0000
0000
,
0010
0100
0010
0000
,
0001
0000
1000
0000
,
0100
0000
0000
0000
0020
0000
0032
0003
,
1000
0000
0000
0001
0000
0000
0000
0000
0001
0000
0000
0000
1000
0000
0000
0000
,
0001
0001
1000
0001
,
1000
1000
0100
1000
,
0100
0000
0100
0100
,
0000
0000
0100
0000
0000
0000
2000
0002
,
0000
0000
0000
0000
0000
3003
0000
0000
,
0100
0000
0000
0010
0000
0000
0000
0000
0000
0000
0000
0000
0000
0000
0000
0000
,
0200
0320
0130
0000
,
0001
1000
0010
0010
,
1000
0010
1000
1000
,
0010
0000
0000
1000
0000
0000
0000
0000
0000
0000
0000
0000
0000
0000
0000
0000
,
0001
0100
0001
0001
,
0100
0001
0100
0100
,
0100
0000
0000
0000
0000
0000
0000
0000
0100
0000
0000
0000
2002
0000
0000
3003
,
0000
0000
0000
0001
,
0000
0000
0000
1000
,
0000
0000
0000
0010
,
0000
0000
0000
0000
;

//---------------dance-single - ----------------
#NOTES:
     dance-single:
     :
     Easy:
     5:
     0.000,0.000,0.000,0.000,0.000:
0001
0000
0000
1000
0000
0000
0000
0000
0000
0000
0000
0000
0000
0000
0000
0000
,
1001
1001
1001
0000
,
1000
0100
0010
0000
,
0100
0010
0001
0000
,
1000
0010
0100
0000
,
0010
0100
0001
0000
,
1001
0000
0000
0000
0000
1000
0001
0000
,
2000
0000
3010
0000
,
1000
0010
1000
0010
1000
0000
0010
0000
,
0100
0010
1000
0000
,
0010
1000
0100
0000
,
0020
0000
0031
0000
,
0010
0001
0010
0001
0010
0000
0010
0000
,
0100
1000
0010
0000
,
2002
0000
0000
3003
,
1000
0100
0010
0000
,
0100
0010
0001
0000
,
1000
0010
0100
0000
,
2002
0000
3003
0000
,
0001
0100
0001
0000
,
1000
0100
1000
0000
,
0001
0010
0100
0000
,
1000
0000
0000
0001
0000
0000
0000
0000
0000
0000
0000
0000
1001
0000
0000
0000
,
0001
1000
0001
1001
,
1000
0010
1000
0010
,
0100
0001
0200
0300
,
0001
0000
0000
1000
0000
0000
0002
0000
0000
0000
0000
0000
0000
0000
0000
0000
,
0103
0010
0100
0000
,
0010
0100
0001
0000
,
0000
1000
0100
0000
1000
0100
0000
2000
,
0002
0000
0000
0000
,
0000
0000
0000
0000
0000
3003
0000
0000
,
0001
0100
0001
0100
,
0002
0000
0200
0000
,
0000
0000
0303
0000
0000
0000
0000
0001
,
0000
0010
0001
0000
0010
0001
0010
0000
,
0100
1000
0100
0000
1000
0000
0100
0000
,
0010
0000
0001
1000
,
2001
0000
0000
0000
,
0002
0000
0000
0000
,
0000
3003
0000
0000
0000
0000
0000
0000
,
1001
0001
0010
0000
,
0022
0033
1000
0000
,
0001
0010
0001
0000
,
1000
0000
0100
0000
1000
0000
0000
1001
,
0000
0000
1000
0000
,
0001
0100
0001
0000
,
1000
0010
1000
0000
,
0100
0000
1000
0000
,
0220
0000
0300
1030
,
0010
1000
0010
1010
,
0100
0010
0100
0110
,
0001
1000
0001
1001
,
2000
0000
0000
3000
,
0001
0010
0100
0110
,
0010
0100
1000
1100
,
1000
0001
1001
0000
,
0010
0000
0000
0100
0000
0000
0000
0000
0000
0000
0000
0000
0000
0000
0000
0000
,
0010
0100
0010
0110
,
0100
0010
0100
0110
,
1000
0000
0100
0000
0020
0000
0032
0003
,
1000
0000
0000
0001
0000
0000
0000
0000
0001
0000
0000
0000
1000
0000
0000
0000
,
0001
0001
1000
0001
,
1000
1000
0100
1000
,
0000
0100
0001
0000
0100
0001
0000
0100
,
0001
0000
0100
0001
0000
0000
2000
0002
,
0000
0000
0000
0000
0003
0000
0000
3000
,
0100
0000
0000
0010
0000
0000
0000
0000
0000
0000
0000
0000
0000
0000
0000
0000
,
0200
0320
0130
0000
,
1000
0010
1000
1000
,
0010
1000
0010
0010
,
0010
0000
0000
0100
0000
0000
0002
0000
0000
0000
0000
0000
1003
0000
0000
0000
,
0001
0100
0001
0001
,
0100
0001
0100
0100
,
0000
0001
0100
0000
0001
0100
2002
0000
,
0000
0000
0000
0000
0000
0000
0000
0000
3000
0000
0000
0000
0000
0000
0000
2000
,
0000
0000
0000
0000
0000
0000
0000
0000
0000
0000
0003
0000
0000
0000
0000
0002
,
0000
0000
0000
0000
0000
0000
0000
0000
0000
0000
0000
3000
0000
0000
0000
1003
,
0000
0000
0000
0000
;

//---------------dance-single - ----------------
#NOTES:
     dance-single:
     :
     Medium:
     8:
     0.000,0.000,0.000,0.000,0.000:
0011
0000
0000
2002
0000
0000
0000
0000
0000
0000
0000
0000
3003
0000
0000
0000
,
1100
0110
1001
0001
,
1000
0001
0100
0001
0010
0000
0000
0000
,
0100
1000
0010
1000
0001
0000
0000
0000
,
1000
0001
0010
0001
0100
0000
0000
0000
,
0010
1000
0100
1000
0001
0000
0000
0000
,
1001
0000
0000
0000
0000
0000
0000
0000
0000
0000
1000
0000
0001
0000
0000
2000
,
0000
0000
3010
0000
,
0001
0000
0010
0000
0001
0000
0010
0000
0001
0000
0000
0000
0010
0000
0000
0200
,
0000
0000
1300
0000
,
0010
0000
0000
0000
1000
0000
0000
0000
0100
0000
1000
0000
0001
0000
0000
2000
,
0000
0000
3100
0000
,
0001
0000
0100
0000
0001
0000
0100
0000
0001
0000
0000
0000
0100
0000
0000
0020
,
0000
0000
0000
0000
0000
0000
0000
0000
0030
0000
1000
0000
0001
0000
0000
0020
,
0000
0000
0000
0000
0000
0000
0000
0000
0000
0000
0000
0000
0030
0100
0000
0000
,
0010
0100
0000
1000
0000
0100
0000
0010
0000
0100
0000
1000
0000
0100
0000
1000
,
0000
0200
0000
0000
0000
0000
0000
0000
0000
0000
0000
0000
0300
0000
0000
0000
,
1000
0000
0000
0000
0010
0000
0000
0000
0100
0000
0001
0000
1000
0000
0000
0020
,
0000
0000
0000
0000
0000
0000
0000
0000
0000
0000
0000
0000
0030
0100
0000
0000
,
0010
0000
0000
0100
0000
0000
0000
0000
0000
0001
0000
0000
0000
0000
0000
0100
0000
0000
0000
0000
0000
0010
0000
0000
0000
0000
0100
0000
0000
0000
0001
0000
0000
0000
0000
0000
0000
0000
0000
0200
0000
0000
0000
0000
0000
0000
0000
0000
,
0000
0000
0000
0000
0000
0000
0310
0000
0000
0000
0000
0000
1000
0000
0000
0010
0000
0000
0000
0000
0100
0000
0000
0000
,
0001
0000
0010
0000
0001
0001
0100
0001
,
2000
0000
0000
0002
3000
0000
0000
0000
2000
0000
0000
3000
0000
0000
0003
0000
,
1000
0001
2000
0001
,
3020
0000
0000
0000
0130
0000
0000
0010
0000
0000
0100
0000
0010
0000
0000
0200
,
0000
0300
0000
0000
0010
0000
0100
0020
0000
0000
0000
0030
0000
1000
0000
0000
,
0002
0000
0000
2000
0003
0000
0001
0000
0000
0000
0000
0000
3100
0000
0000
0000
,
1000
0000
0000
0000
0001
0000
0000
0000
2001
0000
0000
0000
0000
0010
0000
0000
,
3010
0000
0000
0000
0001
0000
0000
0001
0000
0000
1000
0000
0010
0000
0100
0000
,
0110
0010
0010
0110
0100
0100
0110
2000
,
0002
0000
0000
0003
,
0100
0000
0000
0001
0000
0000
0010
0000
0001
0000
0000
3100
0000
0000
1000
0000
,
0001
0000
0000
0010
0000
0000
0100
0000
1000
0000
0000
0100
0000
0000
1000
0000
,
0002
0000
0000
0000
0000
0000
0103
0002
0000
0000
0000
0000
,
0000
0000
0003
0000
0000
0000
0000
0200
,
0300
0000
1000
0000
0010
0000
0000
0000
1000
0000
0100
0000
0000
0001
0000
0200
,
0000
0000
0000
1300
0000
0001
0000
0000
0100
0000
0010
0000
1000
0000
0000
0000
,
1002
0100
1003
0100
,
2010
0000
0000
0010
0000
0010
0000
0020
0000
0000
0000
0030
0000
3010
0000
0000
,
0002
0000
0000
0000
0000
0000
0000
0000
0100
0000
0000
1000
0000
0000
0010
0000
,
0000
0000
0000
0000
0003
0000
0000
0000
0000
0000
1000
0000
0100
1000
0000
0110
,
0000
0000
0000
0000
0000
0000
0010
0000
0000
0000
1000
0000
0010
0000
0000
2000
,
0000
3000
1001
0000
,
0001
0000
0010
0000
0001
0000
0010
0000
0001
0000
0010
0000
0001
0000
0000
0020
,
0000
0030
MMMM
0000
0000
0000
0000
1001
,
0000
0000
0000
0000
0000
0000
0001
0000
0000
0000
0001
0000
0100
0000
0000
0002
,
0000
0003
1001
0000
,
0100
0000
0001
0000
0100
0000
0001
0000
0100
0000
0001
0000
0100
0000
0000
0002
,
0000
0000
0000
0000
0003
0000
0000
0000
0000
0000
1000
0000
0001
0000
0000
0020
,
0000
0000
0000
0000
0000
0000
0000
0000
0000
0000
0000
0000
0030
0100
0000
0000
,
0010
0100
0000
1000
0000
0100
0000
0010
0000
0100
0000
1000
0000
0100
0000
1000
,
0000
0200
0000
0000
0300
0000
0000
0000
0000
0000
2000
0000
0020
0000
3030
0000
,
0000
0000
0000
0000
0000
0000
0000
0000
0000
0000
0000
0000
0000
0000
0000
0000
0000
0001
0000
0000
0000
0000
0000
0000
0000
0000
0000
0000
0000
0000
0001
0000
0000
0000
0000
0000
1000
0000
0000
0000
0000
0000
0010
0000
0000
0200
0000
0000
,
0000
0000
0000
0000
0000
0000
0000
0000
0000
0000
0000
0000
0300
0010
0000
0000
,
0100
0010
0000
1000
0000
0010
0000
0100
0000
0010
0000
1000
0010
0000
2000
0000
,
0000
0000
3000
0000
1000
0010
0100
0002
,
0000
0000
0013
0000
0001
1000
0100
1000
,
1002
0000
0000
2000
0003
0000
0000
0000
0002
0000
0000
0003
3000
0000
0000
0000
,
0001
1000
0002
1000
,
0023
0000
0000
0000
0130
0000
0000
0010
0000
0000
0100
0000
0010
0000
0000
0200
,
0000
0300
0000
0000
0010
0000
0100
0020
0000
0000
0000
0030
0000
0001
0000
0000
,
2000
0000
0000
0002
3000
0000
1000
0000
0000
0000
0000
0000
0103
0000
0000
0000
,
0001
0000
0000
0000
1000
0000
0000
0000
1002
0000
0000
0000
0000
0010
0000
0000
,
0013
0000
0000
0000
1000
0000
0000
1000
0000
0000
0001
0000
0010
0000
0100
0000
,
0000
1100
1100
0000
1010
1010
0000
0011
,
0011
0000
0101
0101
0000
1000
0001
2000
,
0000
0000
0000
0000
3000
0001
0100
0001
,
1001
0000
0000
0002
0000
0000
0000
0000
2000
0000
0000
3000
0003
0000
0000
0000
,
1000
0001
2000
0001
,
3200
0000
0000
0000
0310
0000
0000
0100
0000
0000
0010
0000
0100
0000
0000
0020
,
0000
0030
0000
0000
0100
0000
0010
0200
0000
0000
0000
0300
0000
1000
0000
0000
,
0001
0000
0000
2000
0000
0000
0001
0000
0000
0000
0000
0000
3010
0000
0000
0000
,
1000
0000
0000
0000
0001
0000
0000
0000
2001
0000
0000
0000
0000
0100
0000
0000
,
3100
0000
0000
0000
0001
0000
0000
0001
0000
0000
1000
0000
0100
0000
0010
0000
,
0110
0000
0100
0000
0100
0000
0110
0000
0010
0000
0010
0000
1001
0000
0000
2000
,
0000
0002
0000
0000
0000
0000
0000
0000
0000
0000
3000
0000
0000
0000
0000
2000
,
0000
0000
0000
0000
0000
0000
0000
0000
0000
0000
0003
0000
0000
0000
0000
0002
,
0000
0000
0000
0000
0000
0000
0000
0000
0000
0000
0000
3000
0000
0000
0000
1003
,
0000
0000
0000
0000
;

//---------------dance-single - ----------------
#NOTES:
     dance-single:
     :
     Hard:
     11:
     0.000,0.000,0.000,0.000,0.000:
0011
0000
0000
2002
0000
0000
0000
0000
0000
0000
0000
0000
3003
0000
0000
0000
,
1100
0000
0000
0000
0110
0000
0000
0000
1001
0000
0000
0001
1000
0000
0000
0001
,
0010
0000
0001
0000
0010
0000
0100
0000
1000
0000
0000
0000
0001
0000
0000
1000
,
0010
0000
1000
0000
0010
0000
0100
0000
0001
0000
0000
0000
1000
0000
0000
0001
,
0010
0000
0001
0000
0010
0000
0100
0000
1000
0000
0000
0000
0001
0000
0000
1000
,
0010
1000
0010
0100
0001
0000
0001
0000
,
1001
0000
0000
0000
0000
0000
0000
0000
0000
0000
0000
0000
0000
0000
0000
0000
0000
0000
0000
0000
0000
0000
0000
1000
0000
0000
0000
0000
M000
0000
0000
0000
0000
0000
0000
0000
0000
0000
0000
0000
1000
0000
0000
0000
0000
0000
0000
0000
0001
0000
0000
0000
0000
0000
0000
0000
0010
0000
0000
0000
0200
0000
0000
0000
,
0000
0000
0000
0000
0000
0000
0000
0000
0310
0000
0000
0000
0000
0000
0000
0001
,
0010
0000
0001
0000
0010
0000
0001
0000
0010
0000
0001
0000
0010
0000
0000
0200
,
0000
0000
0000
0000
0000
0000
0000
0000
0300
0000
1000
0000
0001
0000
0000
0100
,
0001
0000
0010
0000
0100
0000
1000
0000
0100
0000
1000
0000
0001
0000
0100
0020
,
0000
0000
0000
0000
0000
0000
0000
0000
0130
0000
0000
0000
0000
0000
0000
0001
,
0100
0000
0001
0000
0100
0000
0001
0000
0100
0000
0001
0000
0100
0000
0000
0020
,
0000
0000
0000
0000
0000
0000
0100
0000
0M30
0000
1000
0000
0010
0000
0100
0002
,
0000
0000
0000
0000
0000
0000
0000
0000
0000
0000
0000
0000
0003
0100
0000
0000
,
0010
0100
0000
0001
0000
0100
0000
0010
0000
0100
0000
1000
0000
0100
0000
0001
,
0000
0200
0000
0000
0000
0000
0000
0000
0000
0000
0000
0000
0301
0000
0000
0100
,
0001
0000
0100
0000
0010
0000
1000
0000
0010
0000
1000
0000
0100
0000
0010
2000
,
0000
0000
0000
0000
0000
0000
0000
0000
0000
0000
0000
0000
0000
3010
0000
0000
,
0100
0000
0000
0010
0000
0000
0000
0000
0000
1000
0000
0000
0000
0000
0000
0010
0000
0000
0000
0000
0000
0100
0000
0000
0000
0000
0010
0000
0000
0000
0001
0000
0000
0000
0000
0000
0010
0000
0000
0002
0000
0000
0000
0000
0000
0000
0000
0000
,
0000
0000
0000
0000
0000
0000
0013
0000
0000
0000
0000
0000
0001
0000
0000
0010
0000
0000
0000
0000
0100
0000
0000
0000
,
1000
0000
0010
0000
1000
0001
0100
0001
,
200M
0000
0000
3002
0000
0000
M000
0000
0100
0000
0000
0000
1000
0000
0000
0000
,
0023
000M
0032
00M0
0023
000M
0032
0013
,
0001
0000
0100
0000
0001
0000
0100
0001
0000
0000
0100
0000
0010
0000
0100
0020
,
0000
0000
0130
0000
0010
0000
0100
0002
0000
0000
0000
0003
0000
1000
0000
0000
,
M002
0000
0000
2000
0003
0000
0001
0000
0000
0000
0000
0000
3100
0000
0000
0000
,
M200
0000
0000
0000
2300
0000
0M00
0000
3200
0000
M000
0000
0300
1000
0000
0000
,
0010
0000
0100
0000
0010
0000
0100
0010
0000
0000
0100
0000
0010
0000
0100
0000
,
0201
0300
0010
0000
1000
0000
1200
0300
0010
0000
0001
0000
0201
0300
0002
0000
,
2000
0000
0000
3000
,
0100
0000
0000
1000
0000
0000
0010
0000
1000
0000
0000
0103
0000
0000
0001
0000
,
1000
0000
0000
0010
0000
0000
0100
0000
0001
0000
0000
0100
0000
0000
0001
0000
,
2000
0000
0000
0000
0000
0000
3100
2000
0000
0000
0000
0000
,
0000
0000
0000
0000
3000
0000
0000
0000
0011
0000
0000
0110
0000
0000
1200
0000
,
0300
0000
1000
0000
0010
0000
0000
0000
1000
0000
0100
0000
0000
0001
0000
0200
,
0000
0000
0000
1300
0000
0001
0000
0000
0100
0000
0010
0000
1000
0000
0000
0000
,
1002
0100
1003
0100
,
2010
0000
0000
0010
0000
0010
0000
0020
0000
0000
0000
0030
0000
3010
0000
1000
,
0000
0200
0000
0000
0000
0000
0000
0000
0001
0000
0000
M0MM
0000
0000
1000
0000
,
0000
0000
0300
0000
0000
0000
0002
0000
0003
0000
1000
0000
0100
0001
0000
0020
,
0001
0000
0000
0000
0100
0000
0000
0000
1030
0000
1000
0000
0010
0000
0100
0002
,
0000
0000
0000
0000
0003
0000
0000
0000
0010
0000
0000
0000
1001
0000
0000
0001
,
0010
0000
0001
0000
0010
0000
0001
0000
0010
0000
0001
0000
0010
0000
0000
0002
,
0000
0000
0000
0003
00MM
0000
0000
0000
0000
0000
0010
0100
1000
0000
2002
0000
,
0000
3003
0000
0000
0000
0000
0001
000M
0000
0000
0001
0000
0100
0000
0010
2000
,
0000
0000
0000
0000
3000
0000
0000
0000
1001
0000
0000
0000
0000
0000
0000
0001
,
0100
0000
0001
0000
0100
0000
0001
0000
0100
0000
0001
0000
0100
0000
0000
0002
,
0000
0000
0000
0000
0003
0000
0100
0010
1000
0000
0001
0000
0100
0000
0010
2000
,
0000
0000
0000
0000
0000
0000
0000
0000
0000
0000
0000
0000
3000
0100
0000
0000
,
0010
0100
0000
1000
0000
0100
0000
0010
0000
0100
0000
0001
0000
0100
0000
1000
,
0000
0200
0000
0000
0300
0000
0000
0000
0000
0000
2000
0000
0020
0000
3030
0000
,
0000
0000
0000
0000
0000
0000
0010
0000
0000
0000
0000
0000
00M0
0000
0000
0000
0000
0002
0000
0000
0000
0000
0000
0003
0000
0000
0000
000M
0000
0000
0001
0000
0000
0000
0000
0000
0100
0000
0000
0000
0000
0000
0010
0000
0000
0002
0000
0000
,
0000
0000
0000
0000
0000
0000
0000
0000
0000
0000
0000
0000
0003
0010
0000
0000
,
0100
0010
0000
0001
0000
0010
0000
0100
0000
0010
0000
1000
0010
0000
2000
0000
,
0000
0000
3000
0000
1000
0010
0100
0002
,
0000
0000
0013
0000
0001
1000
0100
1000
,
M002
0000
0000
2003
0000
0000
000M
0000
0100
0000
0000
0000
0001
0000
0000
0000
,
3020
M000
2030
00M0
3020
M000
2030
3010
,
1000
0000
0100
0000
1000
0000
0100
1000
0000
0000
0100
0000
0010
0100
0000
0020
,
0000
0000
0130
0000
0010
0000
0100
2000
0000
0000
0000
3000
0000
0001
0000
0000
,
200M
0000
0000
0002
3000
0000
1000
0000
0000
0000
0000
0000
0103
0000
0000
0000
,
020M
0000
0000
0000
0302
0000
0M00
0000
0203
0000
000M
0000
0300
0001
0000
0000
,
0010
0000
0100
0000
0010
0000
0100
0010
0000
0000
0100
0000
0010
0000
0100
0000
,
1000
0100
0001
1000
0010
0001
1000
0100
,
0001
1000
0010
0001
1000
0010
0100
2002
,
0000
0000
0000
0000
3003
0001
0100
0001
,
200M
0000
0000
3002
0000
0000
M000
0000
0100
0000
0000
0000
1000
0000
0000
0000
,
0023
000M
0032
00M0
0023
000M
0032
0013
,
0001
0000
0100
0000
0001
0000
0100
0001
0000
0000
0100
0000
0010
0100
0000
0020
,
0000
0000
0130
0000
0010
0000
0100
0002
0000
0000
0000
0003
0000
1000
0000
0000
,
M001
0000
0000
2000
0000
0000
0001
0000
0000
0000
0000
0000
3010
0000
0000
0000
,
1000
0000
0000
0000
0001
0000
0000
0000
2001
0000
0000
0000
0000
0100
0000
0010
,
3000
0000
0100
0000
0010
0000
0100
0010
0000
0000
1000
0000
0100
0000
0010
0000
,
0021
0030
0100
0000
1000
0000
1020
0030
0100
0000
0001
0000
MMMM
0000
0000
2000
,
0000
0002
0000
0000
0000
0000
0000
0000
0000
0000
3000
0000
M000
0000
0000
2000
,
0000
0000
0000
0000
0000
0000
0000
0000
0000
0000
0003
0000
000M
0000
0000
0002
,
0000
0000
0000
0000
0000
0000
0000
0000
0000
0000
3000
0000
M000
0000
0000
1003
,
0000
0000
0000
0000
;

//---------------dance-single - ----------------
#NOTES:
     dance-single:
     :
     Challenge:
     14:
     0.000,0.000,0.000,0.000,0.000:
0011
0000
0000
2002
0000
0000
0000
0000
0000
0000
0000
0000
3003
0000
0000
0000
,
1100
0000
0000
0000
0110
0000
0000
0000
1001
0000
0000
0001
1000
0000
0000
0001
,
0010
0000
0001
0000
0010
0000
0100
1000
0001
0000
1000
0010
0001
0000
0010
1000
,
0010
0000
1000
0000
0010
0000
0100
0001
1000
0000
0001
0010
1000
0000
0010
0001
,
0100
0000
0001
0000
0100
0000
0010
1000
0001
0000
1000
0100
0001
0000
0100
1000
,
0100
0000
1000
0000
0100
0000
0010
0001
1000
0000
0001
0100
1000
0000
0100
1000
,
0001
0000
0000
0000
0000
0000
0000
0000
0000
0000
0000
0000
0000
0000
0000
0000
0000
0000
0000
0000
0000
0000
0000
1000
0000
0000
0000
0000
M000
0000
0000
0000
0000
0000
0000
0000
0000
0000
0000
0000
1000
0000
0000
0000
0100
0000
0000
0000
0010
0000
0000
0000
0000
0000
0000
0000
0010
0000
0000
0000
0200
0000
0000
0000
,
1000
0000
1000
0000
0010
0000
0010
0000
0310
0000
0100
1000
0010
0000
1000
0010
,
1000
0000
0010
0000
1000
0000
0010
1000
0010
0000
1000
0000
0010
0000
0010
0200
,
0000
0000
0000
0000
0000
0000
0000
0000
0300
0000
0010
1000
0100
0000
0001
0100
,
0001
0000
0100
0000
0010
0000
1000
M000
0001
0000
0001
0100
0010
0000
0010
0200
,
0001
0000
0001
0000
0010
0000
0010
0000
0310
0000
0100
0001
0010
0000
0001
0010
,
0001
0000
0010
0000
0001
0000
0010
0001
0010
0000
0001
0000
0010
0000
0010
0200
,
0000
0000
0000
0000
0000
0000
1000
M000
0300
0000
0010
0001
0100
0000
1000
0200
,
1000
0000
0010
0000
0010
0000
0001
0000
0301
0000
0000
0000
0001
0100
0000
0000
,
0010
0100
0000
0001
0000
0100
0000
0010
0000
0100
0000
1000
0000
0100
0000
0001
,
0000
0200
0001
0000
0001
0000
0010
0000
0010
0000
0001
0000
0301
0000
0001
0100
,
0001
0000
0100
0000
0010
0000
1000
0001
1000
0000
0010
0100
0001
0000
0010
2000
,
0010
0000
0010
0000
0001
0000
0001
0000
0010
0000
0010
0000
0000
3010
0000
0000
,
0100
0000
0000
0010
0000
0000
0000
0000
0000
1000
0000
0000
0000
0000
0000
0010
0000
0000
0000
0000
0000
0100
0000
0000
0000
0000
0010
0000
0000
0000
0001
0000
0000
0000
0000
0000
0010
0000
0000
0002
0000
0000
0000
0000
0000
0000
0000
0000
,
0010
0000
0000
0000
0000
0000
0010
0000
0000
0000
0000
0000
0013
0000
0000
0000
0000
0000
0010
0000
0000
0000
0000
0000
0001
0000
0000
0000
0000
0000
0010
0000
0000
0100
0000
0000
0000
0000
0000
0000
1000
0000
0000
0000
0000
0000
0100
0000
,
0010
0000
0000
0001
0010
0001
000M
0000
1000
0010
0011
0000
0110
0000
1100
0000
,
2M00
0000
0000
3002
0013
0100
1000
0010
0100
0000
0001
1000
0100
0000
0010
0001
,
0020
000M
0032
00M0
0023
000M
0032
0013
,
0001
0000
0100
0000
0001
0000
0100
0001
0000
0000
0100
0000
0010
0000
0100
0020
,
0000
0000
0130
0010
0100
0000
0010
0002
0000
0000
0000
0003
000M
1000
0000
M0M0
,
0002
0000
0000
1000
0003
0000
2001
0000
000M
0000
0000
0000
3100
0000
1000
0000
,
M200
0000
0000
0000
2300
0000
0M00
0000
3200
0000
M000
0000
0300
1000
0000
0000
,
0010
0000
0100
0000
0010
0000
0100
0010
0000
0000
0100
0000
0010
0000
0100
0000
,
0001
0010
1000
0001
0100
1000
0001
0010
,
2000
0000
0010
0000
0010
0010
0010
0000
,
0010
0000
0000
0000
0000
0000
0000
0000
0000
0001
0000
0000
0000
0000
0000
0000
0000
0000
3200
0000
0000
0000
0000
0000
0010
0000
0000
0000
0000
0000
0000
0000
0000
0302
0000
0000
0000
0000
0000
0000
1000
0000
0000
0000
0000
0000
0000
0000
,
0023
0000
0000
0100
0000
0000
2030
0000
0001
0000
0000
3200
0000
0000
0010
0000
,
0302
0000
0000
0100
0000
0000
0103
0002
0000
0100
0000
0000
,
0100
0000
0000
0000
0103
0000
0100
0010
1000
0001
0000
0110
0000
0000
1200
0000
,
0300
0000
1000
0000
0100
1000
0100
1000
0100
1000
0100
0000
0000
0001
0000
0200
,
0000
0000
0000
1300
0000
0001
0000
0000
0100
0000
0010
0000
1000
0000
0000
0000
,
1002
0100
1003
0100
,
2010
0000
0000
0010
0000
0010
0000
0020
0000
0000
0000
0030
0000
3010
0000
1000
,
0000
0200
0000
0000
0000
0300
0021
0000
0001
0000
0000
MM0M
0000
0000
1000
0000
,
0000
0000
0030
0000
0000
0000
0002
0000
0003
0000
1000
0000
0100
0001
0000
0020
,
0001
0000
0001
0000
0100
0000
0100
0000
1030
0000
0001
0100
0010
0000
0010
0200
,
0001
0000
0001
0000
0010
0000
0010
0000
0310
0000
0100
0001
0010
0000
0001
0010
,
0001
0000
0010
0000
0001
0000
0010
0001
0010
0000
0001
0000
0010
0000
0010
0200
,
0000
0000
0000
M0MM
0000
0000
M0MM
0000
0300
0000
0010
0001
0100
0000
1000
0100
,
1000
0000
0100
0000
0010
0000
0001
000M
1000
0000
1000
0100
0010
0000
0010
0200
,
1000
0000
1000
0000
0010
0000
0010
0000
0310
0000
0100
1000
0010
0000
1000
0010
,
1000
0000
0010
0000
1000
0000
0010
1000
0010
0000
1000
0000
0010
0000
0010
0200
,
0000
0000
0000
0000
0000
0000
0301
0010
0000
0000
001M
1000
0100
0000
0001
0200
,
0001
0000
0010
0000
0010
0000
1000
0000
1300
0000
0000
0000
1000
0100
0000
0000
,
0010
0100
0000
1000
0000
0100
0000
0010
0000
0100
0000
0001
0000
0100
0000
1000
,
0000
0200
1000
0000
1000
0000
0010
0000
0010
0000
1000
0000
1300
0000
1000
0100
,
1000
0000
0100
0M00
0010
0000
2000
0000
3001
0000
0010
0100
1000
0000
0010
0002
,
0010
0000
0010
0000
1000
0000
1000
0000
0010
0000
0010
0000
0000
0013
0000
0000
,
0100
0010
0000
0001
0000
0010
0000
0100
0000
0010
0000
1000
0010
0000
2000
0000
,
0010
0010
0010
3010
1000
0010
0100
0001
,
0100
0010
0000
1000
0010
0000
1000
0100
0010
0001
0011
0000
0110
0000
1100
0000
,
M002
0000
0000
2003
3010
0100
0001
0010
0100
0000
1000
0001
0100
0000
0010
1000
,
0020
M000
2030
00M0
3020
M000
2030
3010
,
1000
0000
0100
0000
1000
0000
0100
1000
0000
0000
0100
0000
0010
0100
0000
0020
,
0000
0000
0130
0010
0000
0000
0100
0002
0000
0000
0000
0003
1000
0001
0000
M00M
,
2000
0000
0000
0001
3000
0000
1002
0000
M000
0000
0000
0000
0103
0000
0001
0000
,
020M
0000
0000
0000
0302
0000
0M00
0000
0203
0000
000M
0000
0300
0001
0000
0000
,
0010
0000
0100
0000
0010
0000
0100
0010
0000
0000
0100
0000
0010
0000
0100
0000
,
1020
1000
0031
1200
1000
0301
MMMM
0010
,
0100
0000
1001
0000
MMMM
0000
0001
0010
0100
0000
0100
1000
0010
0000
00M2
0000
,
M0M0
M0M0
MMM0
MMM0
MMM0
MMM0
M0M0
M0M0
M0M0
0000
0000
0000
00M0
00M0
00M0
00M0
00M0
00M0
M0M0
M0M0
0M00
0000
0000
0000
0000
0000
0000
0000
0000
0000
0013
0000
0000
0000
0000
0000
1000
0000
0000
0000
0000
0000
0001
0000
0000
M00M
0000
0000
,
2000
0000
0000
3002
0013
0100
1000
0010
0100
0000
0001
1000
0100
0000
0010
0001
,
0020
0000
000M
0000
0032
0000
00M0
0000
1003
0100
0010
0001
1000
0100
0010
0001
,
0100
0000
0001
0000
0100
0000
0001
0100
0000
0000
0001
0000
0100
0010
0000
0200
,
0000
0000
0310
0100
0000
0000
0010
2000
0000
0000
0000
3000
0001
1000
0000
M00M
,
2000
0000
0000
3001
1000
0010
0200
0001
0000
0000
0000
0000
0301
0000
1000
0000
,
020M
0000
0000
0000
2300
0000
0M00
0000
3001
0010
0100
1000
0001
0010
0100
1000
,
0010
0000
0100
0000
0010
0000
0100
0010
0000
0000
0100
0000
0010
0000
0100
0000
,
0001
0000
0100
0000
1000
0000
0001
0010
1000
0000
0001
0100
MMMM
0000
0000
2000
,
0000
0002
0000
0000
0000
0000
0000
0000
0000
0000
3000
0000
M000
0000
0000
2000
,
0000
0000
0000
0000
0000
0000
0000
0000
0000
0000
0003
0000
000M
0000
0000
0002
,
0000
0000
0000
0000
0000
0000
0000
0000
0000
0000
3000
0000
M000
0000
0000
1003
,
0000
0000
0000
0000
;
