#TITLE:The Feels;
#SUBTITLE:short version;
#ARTIST:Twice;
#CREDIT:Vndt;
#MUSIC:TheFeels_audio.ogg;
#SELECTABLE:YES;
#BACKGROUND:thefeels_bg.png;
#BANNER:thefeels_bn.png;
#JACKET:thefeels_jk.png;
#CDTITLE:Formula of Love;
#OFFSET:-0.44;
#SAMPLESTART:65.190;
#SAMPLELENGTH:16.500;
#BPMS:0=120,99=60,107=120;
#STOPS:;
#GENRE:Kpop;
#BGCHANGES:-0.880=TheFeels_short_video.mov=1.000=1=0=0=StretchNoLoop==CrossFade==,
99999=-nosongbg-=1.000=0=0=0 // don't automatically add -songbackground-
;

//---------------dance-single - ----------------
#NOTES:
     dance-single:
     :
     Beginner:
     2:
     0.000,0.000,0.000,0.000,0.000:
0000
0000
0000
0000
,
0000
0000
0000
0000
,
0000
0000
0000
0000
,
0000
0000
0000
0000
,
0000
0000
0000
0001
,
0001
0001
0000
0000
,
0000
0000
0000
0020
0000
0000
0000
0000
0000
0000
0030
0000
0100
0000
0000
0000
,
0100
0100
0000
0000
,
0000
1000
0020
0030
,
0100
0000
0010
0010
,
1000
0000
0000
0000
0010
0000
2000
3000
,
1000
0000
0000
0000
0002
0003
0200
0300
,
0000
0000
0010
0000
2000
0000
0000
3000
,
0100
0000
0010
0010
,
0001
0000
0000
0000
0010
0000
0002
0003
,
0000
0000
0000
0000
1001
0000
0002
0003
,
0000
0000
0010
0000
0002
0000
0000
0003
,
0100
0100
0100
0000
0010
0000
0000
0000
,
0000
0020
0030
0000
0110
0000
0000
1000
,
0000
0000
0100
0000
0000
0000
2000
3000
,
0000
0000
0001
0001
0001
0000
0000
0000
,
0100
0100
0100
0000
0010
0000
0000
0000
,
0000
0000
0000
1000
0000
0000
0000
0000
,
0000
0000
0001
0000
0000
0000
0010
0010
,
0010
0001
0000
0000
,
1000
0000
0000
0010
,
0000
0100
0000
0010
,
0000
0000
0000
0010
,
0000
0000
0000
0000
,
1000
0000
0001
0000
1000
0010
0000
0010
,
0000
0010
0000
0020
0000
0030
1000
0000
,
0001
0000
0000
0000
0000
0110
0000
0000
,
0000
0000
0000
0000
0000
0000
0000
0000
0010
0000
0000
0000
0010
0000
0000
0010
,
0000
0010
0000
0000
0000
0000
0100
0000
,
0100
0100
0100
1001
,
0000
0000
0000
0000
0000
0110
0000
0000
,
0000
0000
0000
0000
0000
0000
0000
0000
0010
0000
0000
0000
0010
0000
0000
0010
,
0000
0010
0000
0000
0000
0000
0100
0000
,
0100
0100
0100
1001
,
0001
0001
0000
0010
,
0000
0000
0000
0020
0000
0000
0000
0000
0000
0000
0030
0000
0100
0000
0000
0000
,
0100
0100
0000
0010
,
0000
0000
0010
0010
0010
0000
0001
0000
,
0001
0001
0000
0100
,
0000
0000
0000
0200
0000
0000
0000
0000
0000
0000
0300
0000
0010
0000
0000
0000
,
0010
0010
0000
0100
,
0000
0000
0100
0100
0100
0000
0000
0000
,
0000
0000
0000
0000
;

//---------------dance-single - ----------------
#NOTES:
     dance-single:
     :
     Easy:
     5:
     0.000,0.000,0.000,0.000,0.000:
0000
0000
0000
0000
,
0000
0000
0000
0000
,
0000
0000
0000
0000
,
0000
0000
0000
0000
,
0000
0000
0000
0000
0000
0000
0001
0010
,
0001
0000
0010
0000
0001
0000
0000
0010
0000
0000
0000
0000
0100
0000
0000
0000
,
1000
0000
0000
0020
0000
0000
0000
0000
0000
0000
0030
0000
0010
0000
1000
0000
,
0010
0000
1000
0000
0010
0000
0000
1000
0000
0000
0000
0000
0000
0000
0020
0000
,
0030
0000
1000
0001
0020
0230
0310
0000
,
0001
0000
0000
0010
0000
0000
0000
0000
0010
0000
0100
0000
0010
0000
0000
0000
,
0010
0000
0000
0001
0000
0000
0001
0000
0010
0000
0100
0000
2000
0000
3000
0000
,
1000
0000
0000
0100
0000
0000
0010
0000
0002
0000
0003
0000
0200
0000
0300
0000
,
0000
0100
0010
0100
0002
0000
0000
0003
,
0010
0000
0000
0020
0000
0000
0130
0000
0010
0000
0001
0000
1000
0000
0000
0000
,
0010
0000
0000
0200
0000
0000
0310
0000
1000
0000
0010
0000
1000
0000
0000
0000
,
0000
0000
1000
0000
0100
0000
0000
0000
1100
0000
0000
0000
2000
0000
0000
3000
,
0000
0100
0010
0100
1000
0100
0010
0000
,
0100
0000
0100
0000
0100
0000
0000
0000
1000
0000
0000
0020
0000
0000
0000
0000
,
0030
0020
0030
0000
1001
0000
0000
1000
,
0000
0000
0000
0010
0000
0000
0000
0000
0100
0000
0000
0000
0000
0000
0010
0000
0000
0000
0000
0000
2000
0000
0000
0000
3020
0000
0000
0000
0030
0000
0000
0000
,
0000
0100
0001
0001
0001
0000
0020
0000
,
0130
0000
0100
0000
0100
0000
0100
0000
0010
0000
0000
0020
0000
0000
0000
0000
,
0000
0000
0000
0031
1000
0001
1000
0001
,
1000
0000
0001
0000
1000
0000
0000
0001
0000
0000
0000
0000
0010
0000
0010
0000
,
0010
0000
0000
0000
0001
0000
0000
0000
0010
0000
0000
0000
0000
0000
0001
0000
0000
0000
0000
0000
0010
0000
0000
0000
0000
0000
0100
0000
0000
0010
0000
0000
,
0001
0000
0000
0010
0000
0000
0100
0000
1000
0000
0010
0000
1000
0000
0000
0100
0000
0000
0000
0000
0010
0000
0001
0000
0010
0000
0000
0010
0000
0000
0010
0000
,
0000
0000
0000
0000
0000
0000
0000
0000
0100
0000
0000
0000
1000
0000
0000
0000
0100
0000
0000
0000
0000
0000
0100
0000
0000
0000
0000
0000
0100
0000
0000
0000
0000
0000
0000
1000
0000
0000
0000
0000
0000
0000
0000
0000
0010
0000
0000
0000
0010
0000
0000
0000
0000
0000
0000
0000
0000
0000
0000
0000
0000
0000
0000
0000
,
0010
0000
1000
0000
0002
0000
0000
1003
0000
0000
0001
0000
0010
0000
0000
0000
,
0010
0000
0001
0000
2000
0000
0000
3001
0000
0000
1000
0000
0000
0000
0001
0000
,
0100
0001
0100
0001
0100
0010
0000
0010
,
0000
0010
0000
0020
0000
0030
1001
0000
,
1001
0000
0000
0000
0010
0000
0000
0100
0000
0000
0110
0000
0000
0000
0001
0000
,
0200
0000
0300
0000
0000
0000
0000
0000
0010
0000
1000
0000
0010
0000
0000
0010
,
0000
0010
0000
0000
1000
0100
0010
0000
,
0010
0010
0010
1001
,
1001
0000
0000
0000
0010
0000
0000
0100
0000
0000
0110
0000
0000
0000
1000
0000
,
0200
0000
0300
0000
0000
0000
0000
0000
0010
0000
0000
0000
0001
0000
0000
0001
,
0000
0001
0000
0000
0100
0000
0010
0000
,
1000
0000
0010
0000
1000
0000
1000
0100
,
1000
0000
0100
0000
1000
0000
0000
0010
0000
0000
0000
0000
0010
0000
0000
0000
,
0100
0000
0000
0020
0000
0000
0000
0000
0000
0000
0030
0000
0010
0000
1000
0000
,
0010
0000
1000
0000
0010
0000
0000
0100
0000
0000
0000
0000
0010
0000
0000
1000
,
0000
1000
0001
1000
0001
0000
0001
0100
,
0001
0000
0100
0000
0001
0000
0000
0010
0000
0000
0000
0000
0010
0000
0000
0000
,
0100
0000
0000
0020
0000
0000
0000
0000
0000
0000
0030
0000
0010
0000
0001
0000
,
0010
0000
0001
0000
0010
0000
0000
0100
0000
0000
0000
0000
0010
0000
0000
0001
,
0000
0001
1000
0001
1000
0000
0000
0000
,
0000
0000
0000
0000
;

//---------------dance-single - ----------------
#NOTES:
     dance-single:
     :
     Medium:
     7:
     0.000,0.000,0.000,0.000,0.000:
0000
0000
0000
0000
,
0000
0000
0000
0000
,
0000
0000
0000
0000
,
0000
0000
0000
0000
,
0000
0000
0000
0000
0000
0000
0001
0010
,
0001
0000
0010
0000
0001
0000
0010
0002
0003
0000
0000
0001
1000
0000
1000
0000
,
1000
0000
1000
0020
0000
0000
0000
0000
0000
0000
0030
0000
0010
0000
1000
0000
,
0010
0000
1000
0000
0010
0000
1000
0010
0000
0000
0000
0000
0000
0000
0020
0000
,
0030
0000
1000
0001
0020
0230
0310
0000
,
0001
0000
1000
0010
0000
0000
0010
0000
0010
0000
1000
0000
0010
0000
0000
0000
,
0100
0000
0000
0000
0010
0000
0000
1000
0000
0000
0000
0000
0001
0000
0000
0000
0010
0000
0000
0000
0100
0000
0000
0000
2000
0000
0000
0000
3000
0000
0000
0000
,
1000
0000
0000
0000
0010
0000
0100
0000
0000
0000
0000
0000
0010
0000
0000
0000
2000
0000
0000
3000
0000
0000
0000
0000
0002
0000
0000
0000
0003
0000
0000
0000
,
0000
0000
0100
0000
0010
0000
0100
0000
0001
0000
0100
0010
0000
0000
0010
0000
,
0010
0000
0100
0020
0000
0000
0130
0000
0010
0000
1000
0000
0010
0000
0000
0000
,
0010
0000
0000
0000
0000
0000
1000
0000
0000
0200
0000
0000
0000
0000
0000
0000
0000
0000
0310
0000
0000
0000
0000
0000
0001
0000
0000
0000
0000
0000
0010
0000
0000
0000
0000
0000
0012
0000
0000
0000
0000
0000
0000
0000
0003
0000
0000
0000
,
0000
0000
1000
0000
0100
0000
1000
0000
1100
0000
0001
0000
2000
0000
0000
3000
,
0000
0100
0010
0100
1000
0100
0010
0002
,
0103
0000
0100
0000
0100
0000
0010
0000
1000
0000
0100
0020
0000
0000
0000
0000
,
0030
0000
0000
0000
0020
0000
0000
0000
0030
0000
0000
0000
0000
0000
0000
0000
0000
MMMM
0000
0000
0000
0000
0000
0000
0000
0000
0000
0000
1000
0000
0000
0000
,
0000
0000
0000
0010
0000
0000
0000
0000
0100
0000
0000
0000
0000
0000
0010
0000
0000
0000
0000
0000
2000
0000
0000
0000
3020
0000
0000
0000
0030
0000
0000
0000
,
0000
0100
0001
0001
0001
0100
0020
0000
,
0130
0000
0100
0000
0100
0000
0100
0000
0010
0000
1000
0010
0000
0000
0200
0000
,
0000
0302
0013
0001
1000
0001
1000
0001
,
0010
0000
0001
0000
1000
0000
0010
1000
0000
0000
0100
0000
0010
0000
0010
0000
,
0010
0000
0000
0000
0001
0000
0000
0000
0010
0000
0000
0000
0001
0000
0010
0000
0000
0000
0000
0000
0001
0000
0010
0000
0000
0000
0100
0000
0000
0010
0000
0000
,
0001
0000
0000
0010
0000
0000
0100
0000
1000
0000
0010
0000
1000
0000
0010
0100
0000
0000
0001
0000
0010
0000
0001
0000
0010
0000
0000
0010
0000
0000
0010
0000
,
0000
0000
0000
0000
0100
0000
0000
0000
1000
0000
0000
0000
0010
0000
0000
0000
0100
0000
0000
0000
0000
0000
0100
0000
0000
0000
0000
0000
0100
0000
0000
0000
0000
0000
0000
0001
0000
0000
000M
0000
0000
0000
0000
0000
0010
0000
0000
0000
0010
0000
0000
0000
0000
0000
0000
0000
0100
0000
0000
0000
0000
0000
0000
0000
,
0010
0000
1000
0000
0002
0000
0000
1003
0000
0000
0001
0000
0010
0000
0100
0000
,
0010
0000
0001
0000
2000
0000
0000
3001
0000
0000
1000
0000
0000
0000
0001
0000
,
0100
0010
1000
0001
0100
0010
0000
0010
,
0000
0010
1000
0020
0000
0030
1100
0000
,
0201
0000
0000
0000
0310
0000
1000
0100
0000
0000
0110
0000
0000
0000
0001
0000
,
0020
0000
0030
0000
0000
0000
0000
0000
0100
0000
1000
0000
0100
0000
0000
0010
,
0000
0100
0000
1000
0001
0010
0002
0003
,
2000
3000
0002
0003
2000
3000
0101
0000
,
1200
0000
0000
0000
0310
0000
0001
0100
0000
0000
0110
0000
0000
0000
1000
0000
,
0020
0000
0030
0000
0000
0000
0000
0000
0100
0000
0001
0000
0100
0000
0000
0010
,
0000
0100
0000
0001
1000
0010
2000
3000
,
0002
0003
2000
3000
0002
0003
1000
0100
,
1000
0000
0100
0000
1000
0000
0100
0010
0000
0000
0000
0100
0010
0000
0001
0000
,
0001
0000
0001
0020
0000
0000
0000
0000
0000
0000
0030
0000
0010
0000
0001
0000
,
0010
0000
0001
0000
0010
0000
0100
0010
0000
0000
0000
0000
0110
0000
0000
1001
,
0000
1000
0001
0010
0010
0000
0001
0100
,
0001
0000
0100
0000
0001
0000
0100
0010
0000
0000
0000
0100
0010
0000
1000
0000
,
1000
0000
1000
0020
0000
0000
0000
0000
0000
0000
0030
0000
0010
0000
1000
0000
,
0010
0000
1000
0000
0010
0000
0100
0010
0000
0000
0000
0000
0110
0000
0000
1001
,
0000
0001
1000
0010
0010
0000
0000
0000
,
0000
0000
0000
0000
;

//---------------dance-single - ----------------
#NOTES:
     dance-single:
     :
     Hard:
     9:
     0.000,0.000,0.000,0.000,0.000:
0000
0000
0000
0000
,
0000
00M0
0000
00M0
0000
0M00
00M0
0000
0M00
00M0
0000
0000
0000
0MM0
0000
0M00
,
0000
00M0
0000
00M0
0000
0M00
00M0
0000
0M00
00M0
0000
0000
0000
0MM0
0000
0M00
,
0000
00M0
0000
00M0
0000
0M00
00M0
0000
0M00
0MM0
0000
0000
0MM0
0000
0000
0000
,
0000
0000
0000
0000
0MM0
0000
0012
1000
,
0010
0000
1000
0000
0010
0000
1003
0002
0003
0000
0000
0001
1000
0000
1000
0000
,
1000
0000
1000
0020
0000
0000
0000
0000
0000
0000
0030
0000
2010
0000
0001
0000
,
0010
0000
0001
0000
0010
0000
3001
0010
0000
0000
0000
0000
0000
0000
0002
0000
,
0003
0000
1000
0001
0020
0230
0310
0000
,
0001
0000
1000
0010
0000
0000
0010
0100
0010
0000
1000
0000
0010
0000
0000
0000
,
0100
0000
0000
0000
0010
0000
0000
1000
0000
0000
0000
0000
0001
0000
0100
0000
0010
0000
0000
0000
1000
0000
0000
0000
0200
0000
0000
0000
0300
0000
0000
0000
,
1000
0000
0000
0000
0010
0000
0100
0000
0000
0000
0000
0000
0010
0000
0000
0000
2000
0000
0000
3000
0000
0000
0000
0000
0002
0000
0000
0000
0003
0000
0000
0000
,
0000
0000
0100
0000
0010
0000
0100
0000
0001
0000
0100
0010
0000
0000
0010
0000
,
0010
0000
0100
0020
0000
0000
0130
0000
0010
0000
1000
0000
0010
0000
0000
0000
,
0010
0000
0000
0000
0000
0000
1000
0000
0000
0200
0000
0000
0000
0000
0000
0000
0000
0000
0310
0000
0000
0000
0000
0000
0001
0000
0000
0000
0000
0000
0010
0000
0000
0000
0000
0000
0012
0000
0000
0000
0000
0000
0000
0000
0003
0000
0000
0000
,
0000
0000
1000
0010
0100
0000
0010
0000
0110
0000
0001
0000
2000
0000
0000
3000
,
0000
0100
0010
0100
1000
0100
0010
0002
,
0103
0000
0100
0000
0100
0000
0010
0000
1000
0000
0100
0020
0000
0000
0000
0000
,
0030
0000
0000
0000
0020
0000
0000
0000
0030
0000
0000
0000
0000
0000
0000
0000
0000
MMMM
0000
0000
0000
0000
0000
0000
0000
0000
0000
0000
1100
0000
0000
0000
,
0000
0000
0000
0011
0000
0000
0000
0000
0101
0000
0000
0000
0000
0000
1010
0000
0000
0000
0000
0000
2001
0000
0000
0000
3020
0000
0000
0000
0230
0000
0000
0300
,
0000
0001
1000
1000
1000
0100
2000
3020
,
0230
0000
0000
0300
0100
0000
0000
0000
0100
0000
0000
0000
0100
0000
0000
0000
0010
0000
0000
0000
1000
0000
0010
0000
0000
0000
0000
0000
0200
0000
0000
0000
,
0000
0302
0013
0001
1000
0001
1000
0001
,
0010
0000
0001
0000
1000
0000
0010
1000
0000
0000
0001
0010
0001
0000
0001
0000
,
0001
0000
0000
0000
1000
0000
0000
0000
0010
0000
0000
0000
1000
0000
0010
0000
0000
0000
0000
0000
1000
0000
0010
0000
0000
0000
0100
0000
0000
0010
0000
0000
,
1000
0000
0000
0010
0000
0000
0100
0000
0001
0000
0010
0000
0001
0000
0010
0001
0000
0000
1000
0000
0010
0000
1000
0000
0010
0000
0000
0010
0000
0000
0010
0000
,
0000
0000
0000
0000
1000
0000
0001
0000
1000
0000
0000
0000
0010
0000
0000
0000
0100
0000
0000
0000
0000
0000
0100
0000
0000
0000
0000
0000
0100
0000
0000
0000
0000
0000
0000
0001
0000
0000
000M
0000
0000
0000
0000
0000
0010
0000
0000
0000
0010
0000
0000
0000
0100
0000
0000
0000
0010
0000
0000
0000
0100
0000
0000
0000
,
0010
0000
1000
0000
0002
0000
0000
1003
0000
0000
0001
0000
0010
0100
0010
0100
,
0010
0000
0001
0000
2000
0000
0000
3001
0000
0000
1000
0000
0000
0000
0001
0000
,
0100
0010
1000
0001
0100
0010
00M0
0010
,
00M0
0010
00M1
0020
0000
0030
1100
0000
,
0201
0000
0000
0000
0310
0000
1000
0100
0000
0000
0110
0000
0000
0000
0001
0000
,
0020
0000
0230
0000
2300
0000
3010
0000
1000
0010
1000
0010
1000
0000
0000
0010
,
0000
0000
0100
0000
0000
0000
0001
0000
0001
0010
0001
0010
0002
0000
0103
0000
,
0020
0130
0020
1030
0001
0000
0101
0000
,
1200
0000
0000
0000
0310
0000
0001
0100
0000
0000
0110
0000
0000
0000
1000
0000
,
0020
0000
0230
0000
0302
0000
0013
0000
0001
0010
0001
0010
0001
0000
0000
0010
,
0000
0000
0100
0000
0000
0000
1000
0000
1000
0010
1000
0010
2000
0000
3100
0000
,
0020
0130
0020
0031
1000
0000
1020
0100
,
1000
0000
0100
0000
1030
0000
0100
0010
0000
0000
0000
0100
0010
0000
0001
0000
,
0001
0000
0001
0020
0000
0000
0000
0000
0000
0000
0030
0000
0210
0000
1000
0000
,
0010
0000
1000
0000
0310
0000
0100
0010
0000
0000
0000
0000
0110
0000
0000
1001
,
0000
1000
0001
0010
0010
0000
0021
0100
,
0001
0000
0100
0000
0031
0000
0100
0010
0000
0000
0000
0100
0010
0000
1000
0000
,
1000
0000
1000
0020
0000
0000
0000
0000
0000
0000
0030
0000
0210
0000
0001
0000
,
0010
0000
0001
0000
0310
0000
0100
0010
0000
0000
0000
0000
0110
0000
0000
1001
,
0000
0001
1000
0010
0010
0000
0000
0000
,
0000
0000
0000
0000
;

//---------------dance-single - ----------------
#NOTES:
     dance-single:
     :
     Challenge:
     13:
     0.000,0.000,0.000,0.000,0.000:
0000
0000
0000
0000
,
0000
00M0
0000
00M0
0000
0M00
00M0
0000
0M00
00M0
0000
0000
0000
0MM0
0000
0M00
,
0000
00M0
0000
00M0
0000
0M00
00M0
0000
0M00
00M0
0000
0000
0000
0MM0
0000
0M00
,
0000
00M0
0000
00M0
0000
0M00
00M0
0000
0M00
0MM0
0000
0000
0MM0
0000
0000
0000
,
0000
0000
0000
0000
0MM0
0000
0012
1000
,
0010
0000
1000
0000
0010
0000
1003
0002
0023
0030
0000
0100
1000
0000
1000
0000
,
1000
0000
1000
0010
0400
0000
0000
0000
0310
0000
1000
0000
2010
0000
0001
0000
,
0010
0000
0001
0000
0010
0000
3001
2000
3020
0030
0100
0000
0001
0000
0001
0000
,
001M
1000
0000
0010
0100
0000
0001
0000
0020
0000
0230
0000
0310
0000
0000
0000
,
0001
0000
1000
0010
0000
0000
0010
0100
0010
0000
1000
0000
0110
0000
0000
0000
,
0001
0000
0000
0000
0010
0000
0000
0001
0000
0000
0000
0000
0001
0000
0100
0000
0010
0000
0000
0000
1000
0000
0000
0000
0200
0000
0000
0000
0300
0000
0000
0000
,
1000
0000
0000
0000
0010
0000
0100
0000
0000
0000
0000
0000
0010
0000
0000
0000
2020
0000
0000
3030
0000
0000
0000
0000
0202
0000
0000
0000
0303
0000
0000
0000
,
0000
0000
0100
0000
0010
0000
0100
0000
0001
0010
0100
1000
0001
0000
0010
00M0
,
0010
0000
0001
0020
0000
0000
0130
0000
0010
0000
0001
0000
0010
0000
0000
0000
,
0010
0000
0000
0000
0000
0000
0001
0000
0000
0200
0000
0000
0000
0000
0000
0000
0000
0000
0310
0000
0000
0000
0000
0000
1000
0000
0000
0000
0000
0000
0010
0000
0000
0000
0000
0000
2000
0000
0000
0000
3010
0000
0000
0000
0000
0000
0000
0000
,
1000
0000
1000
0010
0100
0000
0010
0000
0110
0000
0100
0M00
2000
0000
0000
3000
,
0010
0000
0100
0000
0010
0000
0100
0000
0001
0010
0100
1000
0002
0000
0023
0000
,
0130
0000
0100
0000
0100
0000
0010
0000
0002
0000
0103
0020
0000
0000
0130
0000
,
0001
0000
0000
0000
0020
0000
0000
0000
0130
0000
0000
0000
1000
0000
0000
0000
0000
MMMM
0000
0000
0000
0000
0000
0000
0000
0000
0000
0000
1100
0000
0000
0000
,
0000
0000
0000
0011
0000
0000
0000
0000
0101
0000
0000
0000
0000
0000
1010
0000
0000
0000
0000
0000
2001
0000
0000
0000
3020
0000
0000
0000
0230
0000
0000
0300
,
0000
0000
0001
0000
1000
0000
1000
0000
1000
0010
0100
0001
2000
0000
3020
0000
,
0230
0000
0000
0300
0100
0000
0000
0000
0100
0000
0000
0000
0100
0000
0000
0000
0010
0000
0000
0000
1000
0000
0010
0000
0000
0000
0000
0000
0200
0000
0000
0000
,
0000
0302
0013
0001
1000
0001
1000
0001
,
0010
0000
0001
0000
1000
0000
0010
1000
0000
0000
0001
0010
0110
0000
0110
0000
,
0110
0000
0000
0000
1000
0000
0000
0000
0010
0000
0000
0000
1000
0000
0010
0000
1000
0000
0010
0000
0100
0000
0001
0000
1000
0000
0010
0000
0000
0010
0000
0000
,
1000
0000
0000
0010
0000
0000
0100
0000
0001
0000
0010
0000
0001
0000
0010
0001
0000
0000
1000
0000
0010
0000
1000
0000
0010
0000
0000
0010
0000
0000
0010
0000
,
0000
0000
0000
0000
1000
0000
0001
0000
1000
0000
0000
0000
0010
0000
0000
0000
0100
0000
0000
0000
0000
0000
0100
0000
0000
0000
0000
0000
0100
0000
0000
0000
0000
0000
0000
0001
0000
0000
000M
0000
0000
0000
0000
0000
0010
0000
0000
0000
0010
0000
0000
0000
1000
0000
0000
0000
0010
0000
0000
0000
0100
0000
0000
0000
,
0010
0000
1000
0000
0002
0000
0000
1003
0000
0000
0001
0000
0010
0001
0010
0100
,
0010
0000
0001
0000
2000
0000
0000
3001
0000
0000
1000
0000
0001
0100
0010
0100
,
0010
1000
0100
0010
0100
0010
0001
0100
0010
0100
0010
0000
00M0
0000
0010
0000
,
00M0
0010
00M1
0040
0000
0130
1100
0001
,
0101
0000
1000
0000
0010
0000
1000
0100
0000
0000
0110
0000
0000
0000
0001
0000
,
0200
0320
0200
0030
0302
0000
0013
0000
0001
0010
0001
0100
0001
0000
1000
0001
,
0000
1000
0200
0310
0000
0000
0001
0000
1000
0010
1000
0100
1000
0010
0100
0000
,
0001
0010
0100
0000
1000
0010
0100
0000
0001
0010
0001
0100
0101
0000
1000
0000
,
1100
0000
0001
0000
0010
0000
0001
0100
0000
0000
0110
0000
0000
0000
1000
0000
,
0200
0320
0200
0030
2300
0000
3010
0000
1000
0010
1000
0100
1000
0000
0001
1000
,
0000
0001
0200
0310
0000
0000
1000
0000
0001
0010
0001
0100
0001
0010
0100
0000
,
1000
0010
0100
0000
0001
0010
0100
0000
1000
0010
0100
0000
1020
0000
0100
0000
,
1000
0000
0100
0000
1030
0000
0100
0010
0000
0000
0000
0100
0010
0000
0001
0000
,
1000
0000
0001
0020
0000
0230
0000
4300
0000
0000
0000
3000
0210
0000
1000
0000
,
0010
0000
1300
0000
0110
0000
0100
0020
0000
0130
0000
0000
0110
0000
0000
1001
,
0000
0000
1000
0000
0001
0000
0010
0000
0010
0100
1000
0000
0201
0000
1000
0000
,
0001
0000
1000
0000
0301
0000
0100
0020
1030
0000
0000
0001
0010
0000
0100
0000
,
1000
0000
1000
0020
0000
0230
0000
0304
0000
0000
0000
0003
1200
0000
0001
0000
,
1000
0000
0001
0000
1300
0000
0100
0010
0000
0000
0001
1000
1001
0000
0000
0110
,
0000
0000
1000
0000
0010
0000
1000
0000
0100
1000
0100
0000
0000
0000
0000
0000
,
0000
0000
0000
0000
;

//---------------dance-single - ----------------
#NOTES:
     dance-single:
     JUMPS:
     Edit:
     14:
     0.000,0.000,0.000,0.000,0.000:
0000
0000
0000
0000
,
0000
00M0
0000
00M0
0000
0M00
00M0
0000
0M00
00M0
0000
0000
0000
0MM0
0000
0M00
,
0000
00M0
0000
00M0
0000
0M00
00M0
0000
0M00
00M0
0000
0000
0000
0MM0
0000
0M00
,
0000
00M0
0000
00M0
0000
0M00
00M0
0000
0M00
0MM0
0000
0000
0MM0
0000
0000
0000
,
0000
0000
0000
0000
0MM0
0000
0012
1000
,
0010
0000
1000
0000
0010
0000
1003
0002
0023
0030
0000
0100
1000
0000
1000
0000
,
1000
0000
1000
0010
0400
0000
0000
0000
0310
0000
1000
0000
2010
0000
0001
0000
,
0010
0000
0001
0000
0010
0000
3001
2000
3020
0030
0100
0000
0001
0000
0001
0000
,
001M
1000
0010
0100
0001
0000
0010
0000
0002
0000
0023
0030
0110
0000
1000
0000
,
0010
0000
1000
0010
0000
0000
0010
0100
0110
0000
1001
0000
0110
0000
0001
0000
,
0010
0000
0000
0000
0001
0000
0000
0010
0000
0000
0000
0000
0001
0000
0100
0000
0010
0000
0000
0000
1010
0000
0000
0000
0021
0000
0000
0000
0130
0000
0000
0000
,
1000
0000
0010
0100
0000
0000
0010
0000
1002
0000
0013
0000
0021
0000
0130
0000
,
0000
0000
0100
0000
0010
0000
0100
0000
1000
0010
0100
0001
1000
0000
0010
00M0
,
0010
0000
1000
0020
0000
0000
0130
0000
0001
0000
0010
0000
0011
0000
0000
0000
,
0010
0000
0001
0020
0000
0000
0130
0000
1000
0000
0010
0000
1010
0000
0010
0000
,
1000
0000
1000
0010
0100
0000
0110
0000
0110
0000
0100
0M00
2000
0000
0000
3000
,
0010
0000
0100
0000
0010
0000
0100
0000
0001
0010
0100
1000
1002
0000
0023
0000
,
0031
0000
0001
0000
0001
0000
0001
0000
2000
0000
3010
0200
0000
0000
0310
0000
,
1000
0000
0120
0000
0130
0000
0001
0010
0001
0000
010M
0000
0100
0000
1100
0000
,
0000
0000
0000
0011
0000
0000
0000
0000
0101
0000
0000
0000
0000
0000
1010
0000
0000
0000
0000
0000
1001
0000
0000
0000
0020
0000
0000
0000
0230
0000
0000
0300
,
0000
0000
0101
0000
1000
0000
1000
0000
1000
0010
0100
0001
2000
0000
3020
0000
,
0230
0000
0310
0000
0010
0000
0010
0000
0100
0000
0001
0010
0000
0000
0002
0000
,
0000
0203
0310
1000
0010
0110
0100
0001
,
0010
0000
0001
0000
1000
0000
0010
1000
0000
0000
0001
0010
0110
0000
0110
0000
,
0110
0000
0000
0000
1000
0000
0000
0000
0010
0000
0000
0000
1000
0000
0010
0000
1000
0000
0010
0000
0100
0000
0001
0000
1000
0000
0010
0000
0000
0010
0000
0000
,
1000
0000
0000
0010
0000
0000
0100
0000
0001
0000
0010
0000
0001
0000
0010
0001
0000
0000
1000
0000
0010
0000
1000
0000
0010
0000
0000
0010
0000
0000
0010
0000
,
0000
0000
0000
0000
1000
0000
0001
0000
1000
0000
0000
0000
0010
0000
0000
0000
0100
0000
0000
0000
0000
0000
0100
0000
0000
0000
0000
0000
0100
0000
0000
0000
0000
0000
0000
0001
0000
0000
000M
0000
0000
0000
0000
0000
0010
0000
0000
0000
0010
0000
0000
0000
1000
0000
0000
0000
0010
0000
0000
0000
0100
0000
0000
0000
,
0010
0000
1000
0000
0001
0000
0000
1001
0000
0000
0001
0000
0010
0001
0010
0100
,
0010
0000
0001
0000
1000
0000
0000
1001
0000
0000
1000
0000
0001
0100
0010
0100
,
0010
1000
0100
0010
0100
0010
0001
0100
0010
0100
0010
0000
00M0
0000
0010
0000
,
00M0
0010
00M1
0040
0000
0130
1100
0001
,
0101
0000
1000
0000
0010
0000
1000
0100
0000
0000
0110
0000
0000
0000
0001
0000
,
0200
0320
0200
0030
0302
0000
0013
0000
0001
0010
0001
0100
0001
0000
1000
0001
,
0000
1000
0200
0310
0000
0000
0001
0000
1000
0010
1000
0100
1000
0010
0100
0000
,
0001
0010
0100
0000
1000
0010
0100
0000
0001
0010
0001
0100
0101
0000
1000
0000
,
1100
0000
0001
0000
0010
0000
0001
0100
0000
0000
0110
0000
0000
0000
1000
0000
,
0200
0320
0200
0030
2300
0000
3010
0000
1000
0010
1000
0100
1000
0000
0001
1000
,
0000
0001
0200
0310
0000
0000
1000
0000
0001
0010
0001
0100
0001
0010
0100
0000
,
1000
0010
0100
0000
0001
0010
0100
0000
1000
0010
0100
0010
0110
0000
1001
0000
,
0110
0000
1001
0000
0110
0000
0100
0010
0000
0000
0010
0100
0010
0000
0110
0000
,
1001
0000
0001
0020
0000
0230
0000
2300
0000
3200
0000
0310
0110
0000
1001
0000
,
0110
0000
1001
0000
0110
0000
0100
0010
0000
0100
0000
0000
0110
0000
0000
1001
,
0000
0000
0011
0000
0001
0000
0010
0000
0010
0100
1000
0000
0101
0000
1100
0000
,
0101
0000
1100
0000
0101
0000
0100
0010
1000
0010
0100
0001
0010
0000
0110
0000
,
1001
0000
1000
0020
0000
0230
0000
0302
0000
0023
0000
0130
1100
0000
0101
0000
,
1100
0000
0101
0000
1100
0000
0100
0010
0000
0000
0000
0000
1001
0000
0000
0001
,
0000
0000
0100
0000
0010
0000
1000
0000
0100
1000
0100
0000
0000
0000
0000
0000
,
0000
0000
0000
0000
;
