#TITLE:Sweet Home Alabama;
#SUBTITLE:;
#ARTIST:Lynyrd Skynyrd;
#CREDIT:;
#MUSIC:SweetHomeAlabama_audio.ogg;
#SELECTABLE:YES;
#BACKGROUND:SweetHomeAlabama_bg_old.jpg;
#BANNER:SweetHomeAlabama_bg_old.jpg;
#CDTITLE:;
#OFFSET:-0.32712;
#SAMPLESTART:69.636;
#SAMPLELENGTH:20.950;
#BPMS:0=98,1=83.713,2=98,3=96.1762,4=98,5=102.877,6=97.0795,7=95.2895,8=100.869,9=98.9381,10=97.0795,11=94.4191,12=98,13=98.9381,14=96.1762,15=98.9381,16=96.1762,17=101.863,18=93.5644,19=92.725,20=98,21=99.8943,22=98,23=99.8943,24=94.4191,25=98.9381,26=95.2895,27=99.8943,28=98.9381,29=99.8943,30=96.1762,31=99.8943,32=97.0795,33=100.869,34=95.2895,35=99.8943,37=97.0795,38=98.9381,39=98,40=98.9381,41=98.4668,42=96.1762,43=97.0795,44=100.869,45=98,48=97.0795,49=100.869,50=96.1762,51=97.0795,52=100.869,53=98,54=96.1762,55=98,57=99.8943,58=98,59=96.1762,60=98.9381,62=97.0795,63=98.9381,64=99.8943,65=98.9381,66=95.2895,67=94.4191,68=98.9381,69=98,70=96.1762,71=94.4191,72=95.2895,73=100.869,74=98,75=97.0795,76=98.9381,77=99.8943,78=94.4191,79=98,81=99.8943,82=94.4191,83=100.869,84=98.9381,86=97.0795,87=100.869,88=97.0795,91=98,92=98.9381,94=98,95=98.9381,96=100.869,97=95.2895,98=98,99=97.0795,101=98.9381,102=99.8943,103=98.9381,105=99.8943,106=98.9381,107=95.2895,108=98.9381,109=101.863,110=96.1762,111=98.9381,112=95.2895,113=98,115=91.0906,116=96.1762,117=99.8943,118=96.1762,119=98.9381,120=97.0795,122=98,123=95.2895,124=98,125=100.869,126=98,127=96.1762,128=94.4191,129=98,133=99.8943,134=97.0795,135=101.863,136=97.0795,138=96.1762,139=99.8943,140=96.1762,141=100.869,142=95.2895,143=103.911,144=94.4191,145=92.725,146=95.2895,147=93.5644,148=97.0795,149=99.8943,150=98,151=95.2895,152=102.877,153=94.4191,155=99.8943,156=96.1762,157=99.8943,158=95.2895,159=98.9381,160=98,161=98.9381,162=95.2895,163=99.8943,164=98,165=98.9381,166=98,167=98.9381,169=85.7977,169.5=95.2895,170=94.4191,171=99.8943,172=100.869,173=98.9381,174=97.0795,175=100.869,176=97.0795,177=93.5644,178=98,179=100.869,180=98,181=97.0795,182=98,183=93.5644,184=100.869,185=93.5644,186=96.1762,187=98.9381,188=100.869,189=95.2895,190=98,191=94.4191,192=98,194=95.2895,195=91.9005,196=99.8943,197=96.1762,198=100.869,199=96.1762,200=98,201=95.2895,202=98,204=99.8943,205=97.0795,206=98.9381,207=98,209=94.4191,210=99.8943,211=97.0795,212=99.8943,213=97.0795,214=101.863,215=94.4191,216=100.869,217=91.0906,218=100.869,219=101.863,220=98.9381,221=98,222=99.8943,223=97.0795,224=91.9005,225=93.5644,226=91.9005,227=98,228=97.0795,229=98.9381,230=99.8943,231=96.1762,232=97.0795,233=95.2895,234=99.8943,235=96.1762,236=102.877,237=96.1762,238=98.9381,239=96.1762,240=99.8943,241=95.2895,242=98.9381,243=97.0795,244=99.8943,245=98,246=99.8943,247=98,248=99.8943,249=94.4191,250=98.9381,251=98,252=99.8943,253=98,254=99.8943,255=98.9381,256=101.863,257=102.877,258=96.1762,259=101.863,260=97.0795,262=100.869,263=97.0795,264=103.911,265=97.0795,266=99.8943;
#STOPS:169.25=0.34966,169.75=0.31483;

//---------------dance-single - ----------------
#NOTES:
     dance-single:
     :
     Beginner:
     4:
     0.000,0.000,0.000,0.000,0.000:
0000
0000
0000
0000
,
0000
0000
0000
0000
,
0000
0000
0000
2000
,
0000
3020
0000
0000
,
0000
0030
0000
1000
,
0001
0010
0001
0100
,
0001
0000
0000
0001
,
1000
0010
1000
0100
,
1000
0000
0000
0000
,
1000
0000
0000
0000
0000
0000
0000
0000
1000
0000
0000
0020
0000
0000
0030
0000
,
0000
0000
0000
0000
,
0100
0000
0000
0000
0000
0000
0000
0000
0100
0000
0000
0010
0000
0000
0000
0000
,
0000
0000
0000
0000
,
1000
0000
0010
0000
0000
2000
0000
3020
,
0030
0000
0000
0000
,
0100
0001
0010
0000
,
0004
0003
0000
0001
,
0001
1000
0001
1000
,
0001
1000
1000
0100
,
0100
0010
0100
0010
,
0100
0010
0010
0000
,
0001
0000
0000
0000
0000
0000
0000
0000
0001
0000
0000
0010
0000
0000
0000
0000
,
0000
0000
0000
0000
,
0100
0000
0000
0000
0000
0000
0000
0000
0100
0000
0000
0010
0000
0000
0000
0000
,
0000
0000
0000
0000
,
0010
0000
0000
0000
0000
0000
0000
0000
0010
0000
0000
0100
0000
0000
0000
0000
,
0000
0000
0000
0000
,
1000
0000
0000
0000
0000
0000
0000
0000
1000
0000
0000
0100
0000
0000
0000
0000
,
0000
0000
4000
0000
0000
3000
0000
0000
,
1100
0000
0101
0000
,
0000
0001
0010
0000
,
0011
0000
1010
0000
,
0000
1000
0100
0000
,
1100
0000
0110
0000
,
0000
0001
1000
0000
,
1001
0110
0000
0000
,
0000
0002
0023
0030
,
0100
0000
1000
0100
,
0100
0100
0000
0000
1000
0000
0100
0000
,
0010
0001
0010
0100
,
1000
0001
1000
0000
,
0010
0000
0000
0000
0000
0000
0000
0000
0010
0000
0000
0010
0000
0000
0010
0000
,
0000
0000
0110
0110
0110
0000
0100
0000
,
0100
0100
0000
0000
,
0000
0000
0000
0002
,
0000
0000
0003
0000
0100
0000
0000
0000
0000
0000
0020
0000
0000
0000
0030
1000
,
0000
0000
0000
1000
,
0010
0000
0000
0000
0100
0000
0000
0001
0000
0000
0000
0000
0000
0000
0000
0000
,
0004
0000
0000
0003
0000
0000
0101
0000
,
0000
1100
0000
0000
,
1000
0010
0000
1010
,
0000
0011
0000
0000
,
0001
0100
0000
0101
,
0000
0110
0000
0000
,
1000
0001
0000
1001
,
0110
0000
0000
0000
,
1001
1001
0000
2000
,
3200
0000
0000
0000
0320
0000
0000
0030
0100
0000
0100
0000
0000
0000
0000
0000
,
0000
0000
0000
0010
,
0100
1000
0000
0000
,
0000
0000
0000
0002
,
0203
0000
0000
0000
0320
0000
0000
0030
0100
0000
0100
0000
0000
0000
0000
0000
,
0000
0000
0000
0010
,
0100
0001
0001
0000
,
0000
0000
4000
0000
0000
3000
0000
0000
0100
0000
0000
0000
1000
0000
0000
0000
,
0010
0100
0001
0010
,
0100
1000
0000
0000
,
0000
0000
0000
0000
;

//---------------dance-single - ----------------
#NOTES:
     dance-single:
     :
     Easy:
     6:
     0.000,0.000,0.000,0.000,0.000:
0000
0000
0000
0000
,
0000
0000
0000
0000
,
0000
0000
0000
2000
,
0000
3020
0000
0000
,
0000
0000
0030
0000
0000
0000
1000
1000
,
0001
0000
0010
0010
0001
0000
0100
0100
,
0001
0000
0000
0000
0000
0000
0001
0001
,
1000
0000
0010
0010
1000
0000
0100
0100
,
1000
0000
0000
0000
,
1000
0000
0000
0020
0000
0000
0000
0030
1000
0000
0000
0020
0000
0000
0030
0000
,
0000
0000
0000
0000
,
0100
0000
0010
0000
0020
0000
0000
0030
0100
0000
0000
0010
0000
0000
0000
0000
,
0000
0000
0000
0000
,
1000
0000
0000
0000
0010
0000
0000
0100
0000
0000
0002
0000
0000
0000
0023
0000
,
0030
0000
0000
0000
,
0100
0000
0000
1000
0000
0000
0010
0000
0010
0000
0000
1000
0000
0000
0100
0000
,
0010
0100
0000
0000
0000
0000
1000
0010
,
1000
0000
0001
0001
0001
0000
1000
0100
,
1000
0000
1000
0000
1000
0000
0100
0010
,
0100
0000
0010
0010
0010
0000
0100
0010
,
0001
0000
0010
0000
0010
0001
0000
0000
,
0001
0000
0000
0000
0020
0000
0000
0000
0031
0000
0000
0010
0000
0000
0100
0000
,
0000
0000
1000
1000
1000
0000
0000
0000
,
1000
0000
0000
0200
0000
0000
0000
0300
1000
0000
0000
0020
0000
0000
0000
0030
,
0000
0000
0100
0100
0100
0000
0000
0010
,
0100
0010
0100
0000
0020
0000
0000
0130
,
0000
0000
0001
0001
0001
0000
0000
0000
,
1000
0000
0000
0100
0000
0000
0000
0000
0010
0000
0000
0100
0000
0000
0000
0000
,
1000
0001
4000
0000
0000
3000
0000
0000
,
1010
0000
0110
0000
0101
0000
0001
0001
,
0000
0000
0001
0010
0001
0000
0000
0000
,
0011
0000
0110
0000
1010
0000
1000
0100
,
1000
0100
1000
0100
1000
0100
1000
0000
,
1100
0000
0101
0000
0110
0000
1000
1000
,
0000
0000
0001
0100
0001
0000
0000
0000
,
1001
0110
1001
1000
,
0000
0002
0023
0130
,
0100
0000
1000
0100
,
0100
0100
0000
0000
1000
0100
0020
0030
,
0010
0001
0010
0002
0103
0000
0010
0000
,
1000
0000
0000
0000
0100
0000
0000
2200
0000
0000
0000
0000
3300
0000
0000
0000
,
0100
0000
0000
0010
0000
0000
0100
0000
0010
0000
0000
0100
0000
0000
0010
0000
,
0000
0000
0110
0110
0110
0000
0100
0000
,
0100
0000
0010
0000
0100
0000
0000
0010
0000
0000
0000
0000
0000
0000
0000
0000
,
0001
0100
0010
0000
0000
1000
2000
0000
,
0000
0000
3000
0000
0100
0000
0010
0000
0000
0000
0020
0000
0000
0000
0030
0001
,
0000
0000
0000
0000
0000
0000
1000
0010
,
1000
0000
0100
0000
1000
0000
0000
0001
0000
0000
0000
0000
0001
0000
0100
0000
,
0004
0000
0000
0003
0000
0000
0101
0000
,
1001
0000
1100
0000
1000
0010
0000
0000
,
1000
0100
0010
0000
0001
0000
1010
0000
,
1001
0000
0011
0000
0001
0100
0001
0100
,
0001
0100
0001
0100
0001
0000
0101
0000
,
1001
0000
0110
0000
1000
0001
0000
0000
,
1000
0010
1000
0000
0000
0000
1001
0000
,
0110
1001
0100
0000
,
1001
1001
0000
2000
,
3200
0000
0000
0000
0000
0000
0000
0000
0320
0000
0000
0000
0000
0000
0030
0000
0100
0000
0000
0000
0100
0000
0000
0000
0100
0000
0000
1000
0000
0000
0100
0000
,
0000
0000
0000
0000
0000
0000
0010
0001
,
0200
0000
0000
0000
0301
0000
0000
0010
0000
0000
0001
0000
0010
0000
0001
0000
,
0010
0000
0000
0002
,
0203
0000
0000
0000
0320
0000
0000
0030
0100
0000
0100
0000
0000
0000
0220
0000
,
0000
0000
0000
0330
0000
0000
0000
0000
0000
0000
0000
0000
0010
0000
0000
0000
,
0100
0000
0001
0000
0001
0100
0001
0100
,
0001
0000
4000
0000
0000
3000
0000
0000
0100
0000
0000
0000
1000
0000
0000
0000
,
0010
0100
0001
0010
,
0100
1000
0000
0000
,
0000
0000
0000
0000
;

//---------------dance-single - ----------------
#NOTES:
     dance-single:
     :
     Medium:
     8:
     0.000,0.000,0.000,0.000,0.000:
0000
0000
0000
0000
,
0000
0000
0000
0000
,
0000
0000
0000
0000
0000
0000
1000
1000
,
2000
0000
0000
3000
0010
0000
0010
0000
0020
0000
0000
0030
0100
0000
0100
0000
,
0200
0000
0300
0000
0001
0000
0000
0001
0000
0000
0001
0000
1000
0000
1000
0000
,
0001
0000
0010
0010
0001
0000
0100
0100
,
0001
0000
0001
0010
0100
1000
0001
0001
,
1000
0000
0010
0010
1000
0000
0100
0100
,
1000
0000
0000
0000
0001
0000
0000
0100
0000
0000
0000
0000
0100
0000
0100
0000
,
0001
0000
0000
0020
0000
0000
0000
0030
0001
0000
0000
0020
0000
0000
0031
0000
,
0000
1000
0100
1000
0010
0100
0001
0001
,
0100
0000
0010
0000
0020
0000
0000
0030
0100
0000
0000
0010
0000
0000
0000
0000
,
1000
0010
1000
1000
1000
0000
0010
0010
,
1000
0000
0000
0000
0010
0000
0000
0100
0000
0000
0002
0000
0000
0000
0023
0000
,
0030
0000
0010
0100
1000
0001
0010
0010
,
0100
0000
0000
1000
0000
0000
0010
0000
0010
0000
0000
1000
0000
0000
0100
0000
,
0010
0000
0100
0000
1000
0000
1000
0000
0001
0000
0000
0000
1000
0000
0000
0010
,
0000
0000
0000
0000
0001
0000
0001
0000
0001
0000
0000
0000
0010
0000
0000
0200
,
0000
0000
0000
0000
0001
0000
0000
0000
0310
0000
0110
0000
0100
0000
0000
0010
,
0000
0100
0010
0010
0010
0100
0001
0010
,
0100
0000
0010
0000
0010
0001
0000
1000
,
0001
0000
0000
0000
0020
0000
0000
0000
0031
0000
0000
0010
0000
0000
0100
0000
,
0000
0000
1000
0100
1000
0001
0010
0010
,
0100
0000
0000
0200
0000
0000
0000
0300
0001
0000
0000
0200
0000
0000
0000
0300
,
0000
0000
0010
0100
1000
1000
0010
0010
,
0100
0010
0100
0000
0010
0100
0000
0010
,
0000
0000
1000
0100
0010
0001
1000
1000
,
0001
0000
0000
0100
0000
0000
0000
0000
0010
0000
0000
0100
0000
0000
0000
0000
,
0001
0000
1000
0000
1000
0100
1000
0100
1000
0100
1000
0100
1000
0000
1000
0000
,
1010
0000
0000
0000
0110
0000
0000
0000
0101
0000
0000
0100
0001
0000
0001
0000
,
0000
0010
0001
0010
0001
0000
0001
0001
,
0011
0000
0110
0000
1010
0000
1000
0100
,
0010
1000
0010
0100
1000
0100
0010
0010
,
0011
0000
0000
0000
1010
0000
0000
0000
0110
0000
0000
0010
0100
0000
0010
0000
,
0000
0000
0010
0100
0010
0000
1000
1000
,
1001
0000
0000
0000
0110
0000
0000
0000
1001
0000
0000
0001
1000
0000
0000
0000
,
0000
0002
0023
0130
,
0100
0000
0000
1000
0010
0100
0001
0000
,
0100
0200
0300
0100
0001
0100
0020
0030
,
0010
1000
0100
0020
0130
1000
0010
1000
,
0010
0000
0100
0000
0001
0000
0000
2200
0000
0000
0000
0000
3300
0000
0000
0000
,
0010
0000
0000
0100
0000
0000
0010
0000
0010
0000
0000
0100
0000
0000
0010
0000
,
0000
0000
1100
0101
1100
0000
0100
0000
,
0100
0000
0010
0000
0100
0000
0000
0010
0000
0000
0000
0000
0000
0000
0010
0000
,
0001
0000
0100
0000
0010
0000
0000
0000
1000
0000
1000
0000
0020
0000
0000
0230
,
0000
0000
0000
0300
0010
0000
0100
0000
0000
0000
0002
0000
0000
0000
0003
0010
,
0000
0100
1000
0010
0100
0100
0001
0010
,
0001
0000
0100
0000
0002
0000
0000
0023
0000
0000
0000
0030
0001
0000
0010
0000
,
0001
0100
0001
0100
0001
0100
0001
0100
0001
0000
0001
0000
0011
0000
0000
0000
,
0110
0000
0000
0000
1100
0000
0000
0100
1000
0000
1000
0000
0000
0000
0000
0000
,
1000
0000
0010
0000
1000
0020
0000
0000
1030
0000
1000
0000
1010
0000
0000
0000
,
0110
0000
0011
0000
0001
0100
0010
0001
,
0010
0100
0001
0100
0010
0010
1010
0000
,
0011
0000
0000
0000
0110
0000
0000
0010
0100
0000
0010
0000
0000
0000
0000
0000
,
0010
0000
0100
0000
0010
0200
0000
0000
1300
0000
1000
0000
1001
0000
0000
0000
,
0110
0000
0000
0000
1001
0000
0000
1000
0001
0000
0001
0000
0010
0000
0100
0000
,
1001
0000
1001
0000
1000
0100
2000
0000
,
3200
0000
0000
0000
0000
0000
0000
0000
0320
0000
0000
0000
0000
0000
0130
0000
0010
0000
0000
0000
0100
0000
0000
0000
0100
0000
0000
1000
0000
0000
0100
0000
,
0000
0000
0010
0000
0001
0020
0000
0000
0130
0000
0100
0000
0010
0000
0001
0000
,
0200
0000
0000
0000
0301
0000
0100
0001
0010
0001
0010
0001
0010
0100
1000
0100
,
1000
0100
1000
0010
0100
0010
0100
0010
0100
0000
0010
0000
1000
0002
0000
0000
,
1003
0002
0000
0000
2003
0001
0000
3001
2000
0000
3010
0000
0000
0000
0220
0000
,
0000
0000
0000
0330
0000
0200
0000
0000
0310
0000
0010
0000
0010
0000
1000
0000
,
0001
1000
0000
0000
0001
1000
0000
1000
0001
0000
0100
0000
0001
0000
0100
0000
,
0001
0000
0100
0001
0100
0001
0000
0000
0100
0000
0001
0000
0010
0000
0100
0000
,
1000
0010
0100
0002
0000
0003
0000
0001
,
0010
0100
1000
0000
0000
0000
0000
0000
,
0000
0000
0000
0000
;

//---------------dance-single - ----------------
#NOTES:
     dance-single:
     :
     Hard:
     12:
     0.000,0.000,0.000,0.000,0.000:
0000
0000
0000
0000
,
0000
0000
0000
0000
,
0000
0000
0000
00M0
0000
0M00
0000
00M0
0000
0000
0000
0000
0000
0000
0000
0000
0000
0000
0000
0000
0000
0000
0000
0000
1000
0000
0000
0000
1000
0000
0000
0000
,
0001
2000
0000
3100
0010
0000
0010
0000
0100
0020
0000
0130
0010
0000
0010
0000
,
0200
0000
0300
1000
0100
1000
0001
0100
0001
1000
0100
1000
0001
0000
0001
0000
,
0100
0001
0000
0100
0001
0000
0001
0000
0010
0001
0000
1000
0100
0000
0100
0000
,
1000
0000
0000
0001
0100
0010
0100
0001
0100
0010
0100
0001
1000
0000
1000
0000
,
0100
1000
0000
0010
1000
0000
1000
0000
0010
1000
0000
0001
0100
0000
0100
0000
,
0001
0000
0000
0000
0010
0001
0010
0200
0000
0000
1300
0000
0100
0000
0100
0000
,
0001
0100
0000
0020
0000
0000
0100
0030
1000
0010
0000
0001
0000
0000
0100
0000
,
1000
0000
0000
0000
0001
0010
0100
2000
0000
3010
0100
0001
1000
0000
1000
0000
,
0001
0100
0010
0000
0020
0000
0000
1030
0100
0010
0000
0200
0000
0000
1300
0000
,
1000
0000
0100
1000
0001
0100
0010
1000
0010
0000
1000
0000
0001
0000
0001
0000
,
1000
0010
0000
0000
0010
0000
0000
0100
0001
0000
0100
0002
0000
0000
0023
0000
,
0031
0000
0001
0010
0100
0010
0001
2000
0000
3010
1000
0001
0010
0000
0010
0100
,
1000
0100
0000
2000
0000
0000
3010
0000
0010
0000
1000
0010
0000
1000
0100
0000
,
0010
0100
1000
0001
0000
0000
1000
0000
0001
0000
0000
0000
1000
0100
0010
0002
,
0000
1003
0010
0100
0001
0100
0101
0000
0101
0000
1000
0010
1000
0010
0100
0002
,
0000
0000
0000
0000
0010
0000
0000
0000
0010
0000
0013
0000
0001
0100
0010
2000
,
0000
3001
0010
0100
1000
0100
1100
0000
1100
0000
0001
0010
0001
0010
0100
2000
,
0000
0000
0010
0000
0010
0000
0010
0000
3010
1000
0010
0000
0000
0000
1000
0100
,
0001
0000
0100
1000
0020
0000
0000
0000
1030
0000
0010
2000
0000
0000
3100
0000
,
0010
0000
0001
0010
0001
0010
0100
2000
0000
3010
0100
0001
0010
0000
0010
1000
,
0010
0001
0000
0200
0000
0300
0002
0000
0103
0000
1000
0200
0000
0000
0010
0300
,
1000
0000
1000
0100
0010
0100
1000
0100
0000
0000
0100
0000
1000
0000
1000
0010
,
0001
0000
0020
0000
0230
0000
0000
0000
0301
0000
0100
0020
0000
0000
1030
0000
,
0010
0000
1000
0010
1000
0010
0100
0002
0000
0013
0100
1000
0010
0000
0010
0001
,
0010
0100
0000
0200
0000
0000
0310
0000
0010
0000
1000
0100
1000
0000
0000
0000
,
1000
0002
0000
0000
1003
0100
0010
0001
1000
0100
0010
0001
1001
0000
1001
0000
,
1000
0020
0000
0030
0010
0200
0000
0300
0100
0001
0000
0001
0010
0000
0001
0000
,
0000
0001
0010
0000
0001
0100
0001
0100
0001
0200
0000
0300
1001
0000
1001
0000
,
0001
0000
0100
0000
0100
0020
0000
0030
1010
0000
1000
0100
1000
0100
0001
1000
,
0010
0001
1000
0100
0001
1000
0010
0001
1000
0100
0001
1000
0010
0000
0010
0000
,
1000
0020
0000
0030
0010
0002
0000
0003
0001
0100
0000
0100
0010
0000
0100
0000
,
0000
0010
0100
0000
0010
0100
0010
0100
0010
0220
0000
0330
1001
0000
1001
0000
,
0001
0000
1000
0000
0100
0010
0000
0000
0001
1000
0000
0001
1000
0000
0001
0000
,
0000
0010
0001
0000
1100
0000
0000
0000
0011
0000
0000
0000
0001
0100
0000
0000
,
0110
0000
0000
0000
0000
1000
0010
0100
0010
0100
0001
0100
0002
0000
0000
0013
,
0100
1000
0200
0310
0000
0000
0100
0010
0001
0010
0100
0010
0200
0310
0000
0001
,
0010
0100
1000
0010
0100
0001
0020
0000
0130
1000
0100
0010
0100
1000
0010
0100
,
0010
1000
0001
0010
0001
0010
0100
2000
0000
0000
0100
3000
1000
0000
1000
0000
,
0010
1000
0000
0100
0000
0000
0010
0000
0010
0000
0100
0002
0000
0000
0103
0000
,
0000
0000
0000
0000
0110
0000
1100
0000
0101
0000
0001
0000
0100
0001
0000
0010
,
0000
0000
0001
0000
0100
0000
0010
1000
0000
0000
1000
0000
0010
0000
1000
0001
,
1000
0001
0100
0010
0000
0000
0010
0000
1000
0000
1000
0000
0010
1000
0000
0200
,
0000
0000
0000
0300
0010
0000
0200
0000
0300
0000
0M02
0000
0000
0000
0013
0001
,
1000
0010
0100
0001
0000
1000
0100
1000
0001
0000
0001
0000
0001
0000
0010
0000
,
0001
0000
0100
0000
0002
0000
1000
0023
0000
0000
0000
0000
0001
0030
0010
0100
,
0001
0010
0100
1000
0001
0100
0010
1000
1001
0000
1001
0000
0001
0020
0000
0030
,
0010
0200
0000
0300
0100
1000
0000
1000
0010
0000
1000
0000
0000
1000
0010
0000
,
1000
0100
1000
0100
1000
0200
0000
0300
1001
0000
1001
0000
1000
0000
0100
0000
,
0100
0020
0000
0030
0011
0000
0001
0100
0001
0100
1000
0001
0010
1000
0001
0100
,
1000
0001
0010
1000
0001
0100
1000
0001
0010
0000
0010
0000
0001
0020
0000
0030
,
0010
2000
0000
3000
1000
0100
0000
0100
0010
0000
0100
0000
0000
0010
0100
0000
,
0010
0100
0010
0100
0010
0220
0000
0330
1001
0000
1001
0000
1000
0000
0001
0000
,
0100
0010
0000
0000
1000
0001
0000
1000
0001
0000
1000
0010
1000
0010
0100
0000
,
1001
0000
M00M
0000
1001
0000
0000
0000
1000
0000
1000
0000
1000
0200
0000
0300
,
M100
0000
0002
0000
0000
0000
0003
0000
0001
0000
0010
0000
0000
0000
0010
0000
0100
0000
0000
0000
0100
0000
0000
0000
0100
0000
0000
1000
0000
0000
0100
0000
,
1000
0010
0100
1000
0100
0001
0000
0000
0100
0000
0100
0000
0110
0000
0001
0000
,
2100
0000
0000
3000
0001
0000
0100
0001
0010
0100
0001
0100
1000
0001
0100
0010
,
0001
0000
0010
0000
1000
0000
0001
0000
0010
0000
0100
0000
0001
0000
0100
0000
1000
0000
0000
0000
1000
0000
0000
0000
0001
0000
0010
0000
0000
00MM
0000
0000
,
0010
0000
0100
0000
0000
0MM0
0000
0000
0100
0000
1000
0000
0000
0000
1000
0000
0001
0000
0000
0000
0100
0000
0000
0000
0000
0000
0000
0000
0240
0000
0000
0000
,
0000
0000
0000
0330
0000
0200
0000
0000
0310
0000
0010
0000
0010
0000
1000
0000
,
1000
0000
0001
0000
0000
M00M
0000
0000
1000
0000
0001
0000
0000
0000
1000
0000
0001
0000
0000
0000
0100
0000
0000
0000
0001
0000
0000
0000
0100
0000
0000
0000
,
0001
1000
0010
1000
0010
1000
0000
0000
0100
1000
0010
0100
0001
0010
0100
1000
,
0001
0010
0100
1000
0010
0100
0001
1000
0100
0010
0001
0010
0100
1000
0001
0010
,
0100
1000
0100
0010
0001
2000
0000
0000
3000
0000
0000
0000
0000
0000
0000
0000
,
0000
0000
0000
0000
;
