#TITLE:Sweet Dreans (Are Made of This);
#SUBTITLE:;
#ARTIST:Eurythmics;
#CREDIT:;
#MUSIC:SweetDreams_audio.ogg;
#SELECTABLE:YES;
#BACKGROUND:SweetDreams_bg.png;
#BANNER:SweetDreams_bg.png;
#CDTITLE:;
#OFFSET:-0.163;
#SAMPLESTART:7.814;
#SAMPLELENGTH:15.100;
#BPMS:0=125.054,1=125.049,4=125.054,5=125.049,9=125.054,10=131.633,11=125.168,84=125.869,85=125.168,101=125.212,167=125.125,182=125.825,183=125.125,189=125.256;
#BGCHANGES:-1.50=SweetDreams_video.mp4=1.000=1=0=0=StretchNoLoop==CrossFade==,
310.5=SweetDreams_bg.png=1.000=1=0=1===CrossFade==,
99999=-nosongbg-=1.000=0=0=0 // don't automatically add -songbackground-
#STOPS:188.75=0.958667;
;

//---------------dance-single - ----------------
#NOTES:
     dance-single:
     :
     Beginner:
     2:
     0.000,0.000,0.000,0.000,0.000:
0000
0000
0000
0000
,
0000
0000
0000
0000
,
0000
0000
0000
0000
,
0000
0000
0000
0000
,
0000
1000
1000
0000
,
0000
0000
0000
0000
,
0001
0000
0000
0001
0000
0000
0000
0000
,
0000
0000
0000
0000
,
1000
0000
0000
1000
0000
0000
0000
0000
,
0000
0000
0000
0000
,
0001
0000
0000
0001
0000
0000
0000
0000
,
0000
0000
0000
0000
,
1001
0000
0000
0000
0000
0000
0000
2000
,
0000
3002
0000
0003
0000
0000
0000
0000
,
1001
0000
0000
0000
0000
0000
0000
0002
,
0000
2003
0000
3000
0000
0000
0000
0000
,
1001
0000
0000
0000
0000
0000
0000
0020
,
0000
0230
0000
0300
0000
0000
0000
0000
,
1001
0000
0000
0000
0000
0000
0000
0200
,
0000
0320
0000
0000
0030
0000
0000
0000
,
1000
0000
0100
0000
,
1000
0000
0100
0000
,
0001
0000
0100
0000
,
0001
0000
0100
0000
,
1000
0000
0010
0000
,
1000
0000
0010
0000
,
0000
1000
0010
0000
,
0000
0000
0000
0000
,
0100
0000
0000
0001
0000
0000
0000
0000
,
0000
0000
0000
0000
,
1000
0000
0000
0010
0000
0000
0000
0000
,
0000
0000
0000
0000
,
0100
0000
0000
0001
0000
0000
0000
0000
,
0000
0000
0000
0000
,
0000
0010
0000
0010
,
0000
0010
0000
0010
,
0000
0100
0000
0100
,
0000
0100
0000
0100
,
0000
0001
0000
1000
,
0000
0001
0000
1000
,
1000
0000
0000
0000
,
0110
0000
0000
0000
,
0001
0000
0000
0000
,
0110
0000
0000
0000
,
1001
0000
0000
0000
,
0010
0000
0000
0000
,
1001
0000
0000
0000
,
0100
0000
0000
0001
,
0000
0010
0000
0001
,
0000
0100
0000
0001
,
0000
0010
0000
0001
,
0000
0100
0001
1000
,
0000
0010
0000
1000
,
0000
0100
0000
1000
,
0000
0010
0000
1000
,
0000
0100
1000
1000
,
0000
0000
0000
2000
0000
3020
0000
0030
,
0000
0000
0100
0100
,
0000
0000
0000
0020
0000
2030
0000
3000
,
0000
0000
0001
0001
,
0000
0000
0000
0002
0000
0023
0000
0030
,
0000
0000
0100
0100
,
0000
0000
0000
0020
0000
0032
0000
0000
,
0000
0000
0000
0003
0000
0000
1000
0000
,
0000
0100
0000
1000
,
0000
0010
0000
1000
,
0000
0001
0000
0010
,
0000
0001
0000
0100
,
0000
0001
0000
0010
,
0000
0000
1001
0000
,
0000
0000
1000
0000
0010
0000
0000
1000
,
0000
0000
0000
0000
,
0000
0001
0020
0000
,
0032
0003
0000
0000
,
0000
0000
1000
0000
0200
0000
0000
2300
,
0000
3000
0000
0000
0000
0000
0000
0000
,
0000
0000
0001
0000
0200
0000
0000
0302
,
0000
0003
0000
0000
;

//---------------dance-single - ----------------
#NOTES:
     dance-single:
     :
     Easy:
     5:
     0.000,0.000,0.000,0.000,0.000:
0000
0000
0000
0000
,
0000
0000
0000
0000
,
0000
0000
0000
0000
,
0000
0000
0000
0000
,
0000
0000
1000
0000
0010
0000
1000
0010
,
0000
2000
0000
3200
0000
0000
0000
0300
,
1000
0100
0000
2000
0000
0000
3100
0000
,
1000
0020
0000
0000
2030
0000
3000
0000
,
0001
0000
0010
0002
0000
0003
0010
0000
,
0002
0000
0000
0203
0000
0000
0300
0000
,
0001
0000
0000
0100
0000
0001
0000
0000
,
0100
0000
0001
0020
0000
0032
0000
0003
,
1001
0000
1000
0000
0100
0000
0010
0200
,
0000
2300
0000
3000
0000
0000
0000
0000
,
1001
0000
0001
0000
0100
0000
0010
0200
,
0000
0302
0000
0003
2000
0000
3000
0000
,
1001
0000
1000
0000
0010
0000
0100
0020
,
0000
0230
0000
0300
0000
0000
0000
0000
,
1001
0000
0001
0000
0010
0000
0100
0020
,
0000
0230
0000
0300
0020
0000
0000
0000
,
0001
0030
0010
0000
0001
0000
0010
0000
,
1000
0010
1000
0010
,
0001
0100
0001
0100
,
1000
0100
1000
0100
,
0001
0010
0001
0010
,
1000
0010
1000
0010
,
0110
0001
0010
0001
,
0010
0002
0000
0203
0000
0000
0000
0300
,
0001
0100
0000
0002
0000
0000
0103
0000
,
0001
0020
0000
0000
0032
0000
0003
0000
,
1000
0000
0010
2000
0000
3000
0010
0000
,
2000
0000
0000
3200
0000
0000
0300
0000
,
1000
0000
0000
0100
0000
1000
0000
0000
,
0100
0000
1000
0020
0000
2030
0000
3000
,
1000
0010
1000
0010
,
0001
0010
0001
0010
,
1000
0100
1000
0100
,
0001
0100
0001
0100
,
1000
0010
1000
0010
,
0001
0010
0001
0010
,
0110
0000
0000
0000
,
0110
0000
0001
0000
,
0110
0000
1000
0000
,
0110
0000
0001
0000
,
1001
0000
0000
0000
0010
0100
0000
0000
,
1001
0000
0000
0000
0100
0010
0000
0000
,
1001
0000
0000
0000
0010
0100
0000
0000
,
1000
0001
0000
0000
1000
0000
0010
0000
,
0100
0001
1000
0010
,
0100
0001
1000
0010
,
0100
0001
1000
0010
,
0100
0001
0001
0010
,
0100
1000
0001
0010
,
0100
1000
0001
0100
,
0010
1000
0001
0100
,
0010
1000
1001
0001
,
0100
0000
0010
0200
0000
0302
0000
0003
,
0000
0000
1001
1000
,
0100
0000
0010
0200
0000
2300
0000
3000
,
0002
0003
1001
0001
,
0010
0000
0100
0020
0000
0230
0000
0300
,
0000
0000
1001
1000
,
0010
0000
0100
0020
0000
0230
0000
0300
,
0020
0000
1030
0100
,
1000
0010
0100
0001
,
0010
0100
1000
0010
,
1000
0100
0010
0001
,
0100
0010
1000
0010
,
0100
0000
0001
0000
0010
0000
0000
0002
,
2003
3002
0000
0000
1003
0000
0001
0000
,
0100
0000
0001
0000
0100
0002
0000
0023
,
0000
0000
0000
0030
0001
0010
0000
0002
,
0000
0000
0013
0000
0001
0200
0000
0000
,
0302
0000
0003
0000
1000
0000
0100
2000
,
0000
3000
0100
0000
2000
0000
0000
3020
,
0000
0000
0030
0000
1000
0000
0000
0010
,
0000
1000
0000
0000
0010
0000
1000
0200
,
0000
2300
0000
3000
0000
0000
0000
0000
;

//---------------dance-single - ----------------
#NOTES:
     dance-single:
     :
     Medium:
     8:
     0.000,0.000,0.000,0.000,0.000:
0000
0000
0000
0000
,
0000
0000
0000
0000
,
0000
0000
0000
0000
,
0000
0000
0000
0000
,
0000
0000
1000
0000
0010
0000
0001
0010
,
0000
2000
0000
3200
0000
0000
0000
0300
,
1000
0100
0001
0200
0000
0000
1300
0000
,
1000
0020
0000
0000
2030
0000
3000
1000
,
0001
0100
0010
0002
0000
0003
0010
1000
,
0001
0200
0000
0302
0000
0003
0000
0000
,
0001
0000
1000
0100
0000
0001
0000
0000
,
0100
1000
0001
0020
0000
0032
0000
0003
,
1001
0001
1000
0000
0100
0000
0010
0200
,
0000
2300
0000
3000
0000
0000
0000
0000
,
1001
1000
0001
0000
0100
0010
0100
0002
,
0000
0203
0000
0300
2000
0000
3000
0000
,
0110
0010
1000
0000
0010
1000
0100
0020
,
0000
0230
0000
0300
0000
0000
0000
0000
,
0110
0010
0001
0000
0010
0000
0100
0020
,
0000
0230
0000
0300
0020
0000
0000
0000
,
0001
0030
0011
0000
0010
0000
0110
0000
,
0100
1100
1000
1010
,
0010
0110
0100
0101
,
0001
0011
0010
0110
,
0100
1100
1000
1010
,
0010
0110
0100
0101
,
1001
0001
0010
1000
,
0010
0002
0000
0203
0000
0000
0000
0300
,
0001
0100
1000
0200
0000
0000
0301
0000
,
0001
0020
0000
0000
0032
0000
0003
0001
,
1000
0100
0010
2000
0000
3000
0010
0001
,
1000
0200
0000
2300
0000
3000
0000
0000
,
1000
0000
0001
0100
0000
1000
0000
0000
,
0100
0001
1000
0020
0000
1030
0000
0000
,
2000
0010
0000
0010
,
0000
0000
0000
0000
0010
0000
0000
0000
3002
0000
0000
0000
0020
0000
0000
0003
,
2000
0000
0000
0000
0030
0000
0000
3000
0020
0000
0000
0000
0100
0000
0000
0000
,
0000
0000
0001
0000
0030
0001
0100
1000
,
0200
0000
0000
0000
0000
0320
2030
3200
,
0302
0000
0000
0000
0203
0000
0000
0300
,
0110
0010
0100
0000
0000
0000
0000
0000
,
0110
0100
0010
0000
0001
0010
0000
0000
,
1001
1000
0001
0000
1000
0100
0000
0000
,
1001
0001
1000
0000
0001
0100
0000
0000
,
1010
1000
0010
0000
0100
0001
0000
0000
,
0101
0001
0100
0000
0010
1000
0000
0000
,
1100
1000
0100
0000
0010
0001
0000
0000
,
1001
1001
0000
0000
2000
0000
0010
0000
,
0100
0000
0010
0000
3002
0000
0100
0203
,
0001
0302
0203
0000
0320
0000
1000
0000
,
1000
0100
0100
1000
,
1000
2030
3002
0023
0001
0000
0001
0000
,
0100
0100
0001
0001
,
0230
2300
3020
0230
0001
0000
0010
0000
,
1000
0010
0001
0010
,
1000
0000
0310
0000
1001
1000
0001
0000
,
0100
0000
0010
0200
0000
0302
0000
0003
,
0000
0000
0000
0000
1001
0001
1000
0000
,
0100
0010
0100
2000
0000
3200
0000
0300
,
0002
0000
0003
0000
0110
0010
0001
0000
,
0010
0001
0100
0020
0000
0230
0000
0300
,
0000
0000
0000
0000
0110
0010
1000
0000
,
0010
0000
0100
0020
0000
0230
0000
0300
,
0020
0000
0000
0000
1000
0030
1010
0000
,
0010
0110
0100
0101
,
0001
0000
0011
0020
0000
0000
0032
0000
,
0203
0000
0000
0320
0000
2030
3200
0302
,
0203
2300
3200
2300
0000
0000
3020
0000
,
0000
0230
0302
0000
0000
0000
0003
2000
,
3002
2003
3002
2003
3001
0000
1000
0000
,
0100
0000
0001
0000
0100
2000
0000
3020
,
0000
0000
0000
0030
1000
0010
0001
0020
,
0000
0000
1030
0000
1000
0200
0000
0000
,
2300
0000
3000
1000
0001
0010
0100
0002
,
0000
0003
0100
1000
0001
0020
0000
0032
,
0000
1003
0010
0100
0001
0000
1000
0010
,
0000
0001
0000
0000
0010
1000
0001
0200
,
0000
0301
0000
0000
0000
0000
0000
0000
;

//---------------dance-single - ----------------
#NOTES:
     dance-single:
     :
     Hard:
     11:
     0.000,0.000,0.000,0.000,0.000:
0000
0000
0000
0000
,
0000
0000
0000
0000
,
0000
0000
0000
0000
,
0000
0000
0000
0000
,
1001
0000
1000
0000
0010
0000
0001
0010
,
0000
0000
2000
0000
0000
0000
3200
0000
0000
2300
0000
0000
0000
0000
3001
0000
,
1000
0100
0001
0200
0000
0000
1300
0000
,
1000
0000
0010
0002
0000
0000
0000
0000
2003
0000
0100
0000
3000
0000
0001
0000
,
1000
0100
0010
0002
0000
0003
0010
1000
,
0001
0000
0200
0001
0300
0000
0200
0000
0302
0000
0000
0000
0000
0103
0000
0000
,
0010
0000
1000
0010
0000
0001
0000
0000
,
0100
0000
1000
0000
0001
0000
0020
0000
0000
0000
0032
0000
0000
0003
0000
0000
,
0011
0000
0001
0000
0010
0000
0000
1000
0020
0000
0000
0030
1000
0000
0002
0000
,
0203
2300
0000
3000
0010
0100
0001
0010
,
1001
0000
1000
0000
0001
0000
0000
1000
0100
0000
0010
0000
0100
0000
0002
0000
,
0000
0000
0103
2000
0000
0000
0000
3000
0002
0000
0023
0000
0030
0000
0000
0000
,
0110
0000
0010
0000
0001
0000
0000
0100
0010
0000
1000
0000
0010
0000
0002
0000
,
2003
3200
0000
0300
0001
0100
0010
1000
,
0110
0000
0010
0000
0001
0000
0000
0010
1000
0000
0000
0000
0010
0000
0200
0000
,
0000
0000
0310
0200
0000
0000
0000
0000
0320
0000
0200
0000
0000
0000
0330
0000
,
0110
1010
0010
0110
,
0100
0101
0001
0011
,
0010
0110
0100
1100
,
1000
1010
0010
0110
,
0100
0101
0001
0011
,
0010
0110
0100
1100
,
1001
0000
1000
0100
0001
0100
1000
0010
,
0001
0001
0010
1000
0001
0100
1000
0100
,
0101
0000
0001
0100
1000
0100
0001
0010
,
1000
1000
0010
0001
1000
0100
0001
0100
,
1100
0000
1000
0010
0001
0010
1000
0100
,
0001
0001
0100
1000
0001
0010
1000
0010
,
0011
0000
0001
0010
1000
0010
0001
0100
,
1000
1000
0100
0001
1000
0010
0001
0010
,
1010
1100
0100
0101
,
0001
0000
0000
0000
0011
0000
0000
0000
0002
0000
0000
0000
0020
0000
0000
0003
,
2000
0000
0000
0000
0030
0000
0000
3000
0020
0000
0000
0000
0100
0000
0000
0000
,
0001
0000
0100
0000
0031
0001
0100
1000
,
0200
0000
0000
0000
0000
0320
2030
3200
,
0302
0000
0000
0000
0203
0000
0000
0300
,
0110
0010
0100
0000
0000
0000
0000
0000
,
0110
0000
0100
0000
0010
0000
0000
0000
0001
0000
0010
0100
0000
0000
0000
0000
,
1001
0000
1000
0000
0001
0000
0000
0000
1000
0100
0010
0001
0000
0000
0100
0000
,
1001
0000
0001
0000
1000
0000
0000
0000
0001
0100
0010
1000
0000
0100
1000
0000
,
1001
0000
0001
0000
1000
0000
0000
0000
0001
0100
0010
1000
0000
0000
0100
0000
,
1001
0000
1000
0000
0001
0000
0000
0000
1000
0100
0010
0001
0000
0100
0001
0000
,
1001
0000
1000
0000
0100
0000
0000
0000
0001
0100
1000
0100
0000
0000
0010
0000
,
0110
1001
0000
0000
2000
0000
0010
0000
,
0001
0000
0100
0000
3002
0000
0100
0203
,
0001
0302
0203
0000
0320
0000
1000
0000
,
0001
0100
0001
0100
,
1000
2030
3002
0023
0001
0000
1000
0000
,
0100
1000
0100
0001
,
0230
2300
3020
0230
0001
0000
0010
0000
,
1000
0010
0001
0010
,
1000
0000
0000
0000
0310
0000
0000
0000
1001
0000
1000
0000
0001
0000
0000
0010
,
0200
0000
0000
0000
1300
0000
0010
0200
0000
0300
0100
0020
0000
0000
0000
0030
,
0000
0000
0000
0000
0000
0000
0000
0000
1001
0000
0001
0000
1000
0000
0000
0001
,
0100
0000
0010
0000
0100
0000
0001
0200
0000
0300
100M
0200
0000
0000
0000
M300
,
0002
0000
0203
0000
0300
0000
0000
0000
1001
0000
1000
0000
0001
0000
0000
0010
,
0200
0000
1000
0000
0310
0000
0010
0200
0000
0300
0100
0020
0000
0000
0030
0000
,
0000
0000
0000
0000
0000
0000
0000
0000
1001
0000
1000
0000
0001
0000
0000
1000
,
0100
0000
0000
0000
1000
0000
0200
0000
0000
0300
M001
0200
0000
0000
0000
030M
,
2000
3200
0000
0300
1000
0000
1010
0000
,
0010
0110
0100
0101
,
0001
0000
0000
0000
0011
0000
0002
0000
0000
0000
0000
0023
0230
0000
0000
2300
,
0000
0000
0000
0000
0000
0000
3020
0000
0000
2030
0000
3200
0000
0000
0302
0000
,
0203
2300
3200
2300
0000
0000
3020
0000
,
0000
0230
0302
0000
0003
0000
0000
2000
,
3002
2003
3002
2003
3001
0000
1000
0010
,
0100
0001
0010
0100
1000
1000
0010
0001
,
0010
0100
1000
0100
1100
0000
M001
0010
,
0100
1000
0010
0100
0001
0001
0010
1000
,
0010
0100
0001
0100
0101
0000
100M
0100
,
0010
0001
0100
0010
1000
1000
0100
0001
,
0100
0010
1000
0010
1010
0000
M001
0100
,
0010
1000
0100
0010
0001
0001
0100
1000
,
0100
0010
0001
0010
0000
0000
0000
0000
;
