#TITLE:Step by Step;
#SUBTITLE:;
#ARTIST:NKOTB;
#TITLETRANSLIT:;
#SUBTITLETRANSLIT:;
#ARTISTTRANSLIT:;
#GENRE:Pop;
#CREDIT:Vndt;
#MUSIC:StepbyStep_audio.ogg;
#BANNER:StepbyStep_bg.jpg;
#BACKGROUND:StepbyStep_bg.jpg;
#JACKET:StepbyStep_jk.jpg;
#CDTITLE:Step by Step;
#SAMPLESTART:23.341;
#SAMPLELENGTH:15.443;
#SELECTABLE:YES;
#OFFSET:0.000;
#BPMS:0.000=125.314
,3.000=125.308
,4.000=125.314
,6.000=125.308
,7.000=125.314
,10.000=125.308
,11.000=125.314
,13.000=125.308
,14.000=125.314
,16.000=125.308
,17.000=125.314
,19.000=125.308
,20.000=125.314
,22.000=125.308
,23.000=125.314
,26.000=125.308
,27.000=125.314
,29.000=125.308
,30.000=125.314
,32.000=125.308
,33.000=125.314
,35.000=125.308
,36.000=125.314
,38.000=125.308
,39.000=125.314
,42.000=125.308
,43.000=125.314
,45.000=125.308
,46.000=125.314
,48.000=125.308
,49.000=125.314
,52.000=125.308
,53.000=125.314
,56.000=125.308
,57.000=125.314
,60.000=125.308
,61.000=125.314
,64.000=125.308
,65.000=125.314
,68.000=125.308
,69.000=125.314
,72.000=125.308
,73.000=125.314
,76.000=125.308
,77.000=125.314
,80.000=125.308
,81.000=125.314
,84.000=125.308
,85.000=125.314
,88.000=125.308
,89.000=125.314
,92.000=125.308
,93.000=125.314
,96.000=125.308
,97.000=125.314
,99.000=125.308
,100.000=125.314
,103.000=125.308
,104.000=125.314
,107.000=125.308
,108.000=125.314
,111.000=125.308
,112.000=125.314
,115.000=125.308
,116.000=125.314
,119.000=125.308
,120.000=125.314
,123.000=125.308
,124.000=125.314
,127.000=125.308
,128.000=125.314
,131.000=125.308
,132.000=125.314
,135.000=125.308
,136.000=125.314
,139.000=125.308
,140.000=125.314
,143.000=125.308
,144.000=125.314
,147.000=125.308
,148.000=125.314
,151.000=125.308
,152.000=125.314
,155.000=125.308
,156.000=125.314
,159.000=125.308
,160.000=125.314
,163.000=125.308
,164.000=125.314
,167.000=125.308
,168.000=125.314
,171.000=125.308
,172.000=125.314
,175.000=125.308
,176.000=125.314
,179.000=125.308
,180.000=125.314
,183.000=125.308
,184.000=125.314
,187.000=125.308
,188.000=125.314
,191.000=125.308
,192.000=125.314
,195.000=125.308
,196.000=125.314
,198.000=125.308
,199.000=125.314
,200.000=125.308
,201.000=125.314
,202.000=125.308
,203.000=125.314
,204.000=125.308
,205.000=125.314
,206.000=125.308
,207.000=125.314
,208.000=125.308
,209.000=125.314
,210.000=125.308
,211.000=125.314
,212.000=125.308
,213.000=125.314
,214.000=125.308
,215.000=125.314
,216.000=125.308
,217.000=125.314
,218.000=125.308
,219.000=125.314
,220.000=125.308
,221.000=125.314
,222.000=125.308
,223.000=125.314
,224.000=125.308
,225.000=125.314
,226.000=125.308
,227.000=125.314
,228.000=125.308
,229.000=125.314
,230.000=125.308
,231.000=125.314
,232.000=125.308
,233.000=125.314
,234.000=125.308
,235.000=125.314
,236.000=125.308
,237.000=125.314
,238.000=125.308
,239.000=125.314
,240.000=125.308
,241.000=125.314
,242.000=125.308
,243.000=125.314
,244.000=125.308
,245.000=125.314
,246.000=125.308
,247.000=125.314
,248.000=125.308
,250.000=125.314
,251.000=125.308
,252.000=125.314
,253.000=125.308
,255.000=125.314
,256.000=125.308
,257.000=125.314
,258.000=125.308
,259.000=125.314
,260.000=125.308
,261.000=125.314
,262.000=125.308
,263.000=125.314
,264.000=125.308
,265.000=125.314
,266.000=125.308
,267.000=125.314
,268.000=125.308
,269.000=125.314
,270.000=125.308
,271.000=125.314
,272.000=125.308
,273.000=125.314
,274.000=125.308
,275.000=125.314
,276.000=125.308
,277.000=125.314
,278.000=125.308
,279.000=125.314
,280.000=125.308
,281.000=125.314
,282.000=125.308
,283.000=125.314
,284.000=125.308
,285.000=125.314
,286.000=125.308
,287.000=125.314
,288.000=125.308
,289.000=125.314
,290.000=125.308
,291.000=125.314
,292.000=125.308
,293.000=125.314
,294.000=125.308
,295.000=125.314
,296.000=125.308
,297.000=125.314
,298.000=125.308
,299.000=125.314
,300.000=125.308
,301.000=125.314
,302.000=125.308
,303.000=125.314
,304.000=125.308
,305.000=125.314
,306.000=125.308
,307.000=125.314
,308.000=125.308
,309.000=125.314
,310.000=125.308
,311.000=125.314
,312.000=125.308
,313.000=125.314
,314.000=125.308
,315.000=125.314
,316.000=125.308
,317.000=125.314
,318.000=125.308
,319.000=125.314
,320.000=125.308
,321.000=125.314
,322.000=125.308
,323.000=125.314
,324.000=125.308
,325.000=125.314
,326.000=125.308
,327.000=125.314
,328.000=125.308
,329.000=125.314
,330.000=125.308
,331.000=125.314
,332.000=125.308
,333.000=125.314
,334.000=125.308
,335.000=125.314
,336.000=125.308
,337.000=125.314
,338.000=125.308
,339.000=125.314
,340.000=125.308
,341.000=125.314
,342.000=125.308
,343.000=125.314
,344.000=125.308
,345.000=125.314
,346.000=125.308
,347.000=125.314
,348.000=125.308
;
#STOPS:248.500=1.436
,253.500=0.479
;
#BGCHANGES:0.846=StepbyStep_video.mp4=1.000=1=0=0=StretchNoLoop==CrossFade==;
#FGCHANGES:;

//--------------- dance-single - ----------------
#NOTES:
     dance-single:
     :
     Beginner:
     3:
     0,0,0,0,0:
0000
0000
0000
0000
,
0000
0000
0000
0000
,
0000
0000
0000
0000
,
0000
0000
0000
0000
,
0000
0001
0000
0001
,
0000
0001
0000
0001
,
0000
1000
1000
1000
,
0000
0000
0000
1000
,
0000
0100
0000
0010
,
0000
0100
0000
0010
,
0000
0001
0000
0001
,
0000
0010
0000
0010
,
0000
0001
0001
0001
,
0000
0000
0000
2000
0000
0000
0000
0000
,
0000
3000
0000
0000
0010
0000
0000
0000
,
0010
0020
0000
0000
,
0030
1000
1000
1000
,
0000
0000
0000
0002
0000
0000
0000
0000
,
0000
0003
0000
0000
0010
0000
0000
0000
,
0010
0020
0000
0000
,
0030
0000
0001
0000
,
0000
0000
0100
0000
,
0000
0000
0010
0000
,
0010
0000
0010
0000
,
0000
0000
1000
0000
,
0000
0000
0100
0000
,
0000
0000
0010
0000
,
0010
0000
0010
0000
,
0000
0001
0001
0001
,
0000
0000
0002
0000
,
0000
0003
0000
0000
2000
0000
0000
0000
,
0000
3000
0000
0000
0001
0000
0000
0000
,
0000
1000
1000
1000
,
0000
0000
0001
0000
,
0000
0000
1000
0000
,
1000
0000
0010
0000
0000
0010
0000
0000
,
0000
0000
0010
0000
0000
0010
0000
0000
,
0000
0100
0000
0100
,
0000
0010
0010
0010
,
0000
0000
0000
2000
0000
0000
0000
0000
,
0000
3000
0000
0000
0010
0000
0000
0000
,
0010
0020
0000
0000
,
0030
0100
0100
0100
,
0000
0000
0000
0002
0000
0000
0000
0000
,
0000
0003
0000
0000
0010
0000
0000
0000
,
0010
0020
0000
0000
,
0030
0001
0000
0000
,
0000
0100
0000
0000
,
0000
0001
0001
0001
,
0000
0000
0100
0000
0000
0100
0000
0000
,
0000
0000
0100
0000
0000
0100
0000
0000
,
0000
0010
0000
0000
,
0000
0000
0000
0000
0000
0010
0000
0000
,
0000
1000
0000
0000
,
0000
0000
0000
0000
0000
1000
0000
0000
,
0000
0001
0000
0000
,
0000
0000
0000
0000
0000
0002
0000
0003
,
0000
0100
0000
0000
,
0000
0000
0000
0000
0000
0100
0000
0000
,
0000
1001
0000
0000
,
0000
0000
0000
0000
0000
1000
0000
0000
,
0000
1001
0000
0000
,
0000
0000
1000
0000
,
0000
1000
0000
0000
,
0000
0010
1000
0010
,
0000
0000
0000
2000
0000
0000
0000
3000
,
0000
0000
0100
0000
,
0100
0200
0000
0000
,
0300
0010
0001
0010
,
0000
0000
0000
2000
0000
0000
0000
3000
,
0000
0100
0000
0100
,
0000
0100
0100
0100
,
0100
0010
0100
0020
,
0000
0000
0000
0000
,
0000
0000
0000
0000
0000
0000
0000
0030
,
0000
0001
0001
0001
,
0001
1000
0001
1000
,
0000
0000
0000
0002
0000
0000
0000
0000
,
0003
0000
1000
0000
,
1000
2000
0000
0000
,
3000
0001
0000
0000
;

//--------------- dance-single - ----------------
#NOTES:
     dance-single:
     :
     Easy:
     6:
     0,0,0,0,0:
0000
0000
0000
0000
,
0000
0000
0000
0000
,
0000
0000
0000
0000
,
0000
0000
0000
0000
,
0000
0000
0001
1000
0000
0000
1000
0000
,
0000
0000
0001
1000
0000
0000
1000
0000
,
0000
0001
2000
0002
,
0000
0000
0000
3003
MMMM
0000
1000
0000
,
0010
0100
0100
0010
,
0010
1000
1000
0100
,
0100
1000
1000
0002
,
0000
1003
0001
0010
,
0020
0100
0001
0130
,
0000
0000
0000
2000
0000
3020
0000
0230
,
0000
0301
0000
0000
0100
0000
0001
0000
,
0100
0001
1000
0010
,
0020
0100
1000
0130
,
0000
0000
0000
0002
0000
0023
0000
0230
,
0000
1300
0000
0000
0100
0000
1000
0000
,
0100
1000
0001
0010
,
0010
MM0M
0100
0000
1000
2000
0000
3000
,
0000
0000
0000
1000
0010
0020
0000
0030
,
0000
0000
0100
0010
,
0100
0100
0000
0000
0001
0002
0000
0003
,
1000
0MMM
0010
0000
1000
2000
0000
3000
,
0000
0000
0000
1000
0100
0200
0000
0300
,
0000
0000
0010
0200
,
0310
0010
0000
0001
0000
0002
0000
0003
,
0000
0002
0010
0000
1000
0000
0013
0000
,
0000
0000
0000
0000
0001
2000
0000
3001
,
0000
0000
0100
0000
0001
2000
0000
3001
,
0000
0000
0000
0010
0000
0020
0000
0030
,
0002
0100
1000
0103
,
0000
0000
0000
0000
0001
2000
0000
3000
,
0000
0010
0100
0100
,
0100
0000
0110
0000
0000
0110
0000
0000
,
0000
0000
0110
0000
0000
0110
0000
0000
,
0100
0001
0010
0100
,
2000
0001
0100
3001
,
0000
0000
0000
0002
0000
0023
0000
0230
,
0000
1300
0000
0000
0100
0000
1000
0000
,
0100
1000
0001
0010
,
0002
1000
0100
1003
,
0000
0000
0000
2000
0000
3020
0000
0230
,
0000
0301
0000
0000
0100
0000
0001
0000
,
0100
0001
1000
0010
,
0010
MM0M
0100
0000
0000
0100
0000
0000
,
0001
0000
0100
0000
0000
0200
0000
0300
,
0002
0000
0010
MMM0
1000
MMM0
0013
0000
,
0000
0000
1001
0000
0000
1001
0000
0000
,
0000
0000
1001
0000
0000
1001
0000
0000
,
0001
0000
0001
0000
0000
0000
0000
0010
,
0000
0010
0000
0001
0000
0001
0000
0000
,
0000
0000
0010
0000
0000
0000
0000
0100
,
0000
1000
0000
0010
0000
0010
0000
0000
,
0000
0000
0011
0000
0000
0000
0000
0001
,
0000
0010
0000
0001
0000
0020
0000
0030
,
0000
0000
0100
0000
0000
0000
0000
0010
,
0000
0100
0000
1000
0000
0100
0000
0000
,
0000
0101
0100
0001
,
0100
0001
0000
0000
0200
0002
0000
0000
,
0000
0303
MMMM
MMMM
0000
0000
0000
0000
,
0001
0001
1000
0010
,
1000
0000
0001
0000
0001
2000
0000
0000
,
3020
1000
0001
1030
,
0000
0000
0000
0001
0000
0001
0000
0001
,
0000
0000
0000
0000
0010
0001
0010
0000
,
0010
0001
0010
0000
0100
0000
1000
0000
,
0200
1000
0001
1300
,
0000
0000
0000
1000
0000
0100
0000
1000
,
0000
1010
0000
0011
,
0000
0101
0000
1100
,
0011
0001
2000
0002
,
0000
0000
0000
0000
,
0000
0000
0000
0000
0000
0000
0000
3003
,
0000
0001
1000
0010
,
0200
0001
1000
0301
,
0000
0000
0000
0200
0000
0320
0000
0000
,
0030
1000
0100
1000
,
0100
1000
0001
0010
,
0100
0110
0000
0000
;

//--------------- dance-single - ----------------
#NOTES:
     dance-single:
     :
     Medium:
     10:
     0,0,0,0,0:
0000
0MM0
M00M
0MM0
,
0000
0000
0000
000M
0000
0M00
0000
000M
,
0000
0M00
00M0
0000
0000
0000
0000
0000
00M0
0000
M000
0000
M000
0000
0000
0000
,
00M0
M000
M000
0000
000M
00M0
0M00
M000
,
0000
0000
0000
0000
0001
0000
1000
0000
0000
1000
0000
0000
1000
0000
0001
1000
,
0000
0001
0100
0000
0000
0001
0100
0000
0000
0001
0000
0000
0001
0000
1000
0010
,
0000
1000
0010
0000
0110
0000
0000
0000
1001
0000
0000
0000
0220
0000
0000
0000
,
0000
0000
0000
0000
0000
0000
0000
0000
0000
0000
0000
0000
0000
0000
0000
0330
0MM0
0000
0000
0000
0000
0000
0000
0000
1000
0000
0000
0000
0000
0000
0000
0000
,
0010
0000
0100
0001
0100
0001
0010
0100
,
0010
0100
1000
0010
1000
0010
0100
0001
,
0100
0000
0001
0000
1000
0000
0001
0000
1000
0010
0000
1000
0020
0000
0000
0000
,
0000
0000
1000
0030
0001
0010
0100
1000
,
0020
1000
0001
1030
,
1000
0000
0001
0000
2000
0000
0010
0000
0002
3000
0010
0000
2000
0003
0010
0000
,
3001
0100
0000
0000
0100
0001
0001
0000
,
0100
0001
0001
0000
1000
0010
0100
0001
,
0020
0001
1000
0031
,
0001
0000
1000
0000
0002
0000
0010
0000
2000
0003
0010
0000
0002
3000
0010
0000
,
1003
0100
0000
0000
0100
1000
0100
1000
,
0100
1000
1000
0000
0001
0010
0100
1000
,
0001
MMM0
0010
MMM0
1000
0200
0000
0310
,
0001
0100
0010
1000
0010
0200
0000
0301
,
1000
0010
1000
0001
0100
0010
0100
0010
,
0100
0010
0000
1000
0010
2000
0000
3001
,
1000
0MMM
0010
0MMM
0001
0200
0000
0310
,
1000
0100
0010
0001
0010
0200
0000
1300
,
0001
0000
0010
0000
0001
0000
1000
0000
0010
0000
0100
0000
0020
0000
0000
0030
,
0100
0010
0000
1000
0001
2000
0000
3010
,
0100
0002
0010
00M0
1000
M000
0013
00M0
,
0010
0001
0010
0001
0100
0020
0000
0130
,
0001
1000
0100
0000
1000
0020
0000
0130
,
0001
0100
0010
1000
0001
0200
0000
0310
,
2000
0000
0010
00M0
0001
000M
3010
00M0
,
0010
1000
0010
1000
0100
0020
0000
0130
,
1000
0001
0100
0000
0001
0010
0001
0010
,
0001
0010
0110
0000
1000
1001
0000
0000
,
0000
0000
0101
0000
1000
1010
0000
0000
,
0010
0000
0000
0010
1000
0000
0000
1000
0100
0000
0000
0100
0010
0000
0000
0010
,
0002
0000
0010
0000
1000
0000
0010
0003
,
0001
0000
1000
0000
0002
0000
0010
0000
2000
0003
0010
0000
0002
3000
0010
0000
,
1003
0100
0000
0000
0100
1000
1000
0000
,
0100
1000
1000
0000
0001
0010
0100
1000
,
0002
0000
1000
0000
0010
0000
1000
0003
,
1000
0000
0001
0000
2000
0000
0010
0000
0002
3000
0010
0000
2000
0003
0010
0000
,
3001
0100
0000
0000
0100
0001
0100
0001
,
0100
0001
0001
0000
1000
0010
0100
0001
,
1000
0000
0000
0000
1000
0010
0000
0000
1000
0000
0010
1000
0000
0000
0000
0000
,
0001
0000
0000
0000
0010
0100
0000
0000
0001
0000
0020
0000
0000
0000
0031
0000
,
2000
0010
0100
3010
,
0000
0000
1001
1000
0001
1001
0000
0010
,
0100
0000
1001
0001
1000
1001
0000
0000
,
MMMM
0000
0001
0000
0000
0000
0000
001M
,
0100
0010
0000
1000
0001
0001
0000
0000
,
MMMM
0000
001M
0000
0000
0000
0000
00M1
,
0010
0100
0000
0010
0010
0010
0001
1000
,
MMMM
0000
0011
0000
0000
0000
0000
1000
,
1000
1001
0000
0001
0010
0022
0000
0033
,
MMMM
0000
0100
0000
0000
0000
0000
0011
,
0001
0010
0000
1001
0000
0100
0010
0000
,
MMMM
0000
0101
0000
0001
0100
0001
0100
,
0001
1000
0000
0010
0100
0202
0000
0000
,
0000
0303
MMMM
MMMM
1001
0000
0000
1000
,
1001
0000
1001
0000
1000
0100
0010
0001
,
1000
0010
0110
0000
0110
2000
0000
0000
,
3010
0000
2001
0000
0100
0000
0001
0010
,
0001
0000
0010
0000
3002
0000
0100
0000
2000
0003
0100
0000
0002
3000
0100
0000
,
1003
0010
0000
0000
0010
1000
1000
0000
,
0010
1000
0010
0100
0001
0100
0010
1000
,
0200
1000
0001
1300
,
1000
0000
0001
0000
2000
0000
0100
0000
0002
3000
0100
0000
2000
0003
0100
0000
,
3001
0010
0011
0001
0000
0010
1010
1000
,
0000
0010
0011
0001
0010
0001
0011
0000
,
1020
0100
1000
0400
,
0000
0000
0000
0000
0000
0000
0000
0000
0000
0000
0000
0000
0000
0300
4000
3000
,
0400
0300
4000
3000
0400
0300
4000
0000
0000
0000
0000
0000
0000
0000
3030
0000
,
0000
0001
0100
1000
,
0020
1000
0001
1030
,
0000
0000
0000
0000
0000
0000
0200
0000
0000
0000
0310
0000
0002
0000
0000
0003
,
0002
0000
0000
0003
1000
0000
0000
0000
0010
0000
1000
0000
0010
0000
1000
0000
,
0010
1000
1000
0000
0001
0010
0100
1000
,
0000
1001
0000
0000
;

//--------------- dance-single - ----------------
#NOTES:
     dance-single:
     :
     Hard:
     13:
     0,0,0,0,0:
0000
0000
0000
0000
,
0000
0000
0000
0000
,
0000
0000
0000
0000
,
0000
0000
0000
0000
,
0000
0000
0000
0000
0001
0000
1000
0000
0000
1000
0000
0000
1000
0000
0001
1000
,
0000
0001
0100
0010
0100
0010
1000
0000
0000
1000
0000
0000
1000
0000
0100
0010
,
0000
0100
0010
0000
0110
0000
0000
0000
1001
0000
0000
0000
0220
0000
0000
0000
,
0000
0000
0000
0330
0110
0000
1000
0000
,
0010
0000
1000
0100
0010
0100
0010
0001
,
0010
0001
0100
0001
0100
0000
0010
0000
0100
0000
0010
0000
0100
0000
0010
0000
,
1000
0010
1000
0000
0110
0000
1001
0000
0110
0000
1001
0000
0110
0000
2002
0000
,
0000
0000
0000
3003
0110
0000
0010
0000
,
0010
0000
1001
0100
0010
0100
1001
1000
,
0001
0100
0010
1000
0001
0000
0010
0000
0100
0000
0010
0000
0001
0000
0010
0000
,
0100
0010
0001
0000
0100
0000
0010
0000
0100
0000
0001
0000
0001
0000
0000
0000
,
0100
0001
0001
0000
0001
0100
0010
1000
,
0001
0000
1001
0100
0010
0100
1001
0001
,
1000
0100
0010
0001
1000
0000
0010
0000
0100
0000
0010
0000
1000
0000
0010
0000
,
0100
0010
1000
0000
0100
0000
0010
0000
0100
0000
1000
0000
1000
0000
1000
0000
,
0100
1000
1000
0000
1000
0100
0010
0001
,
1000
0000
0010
0000
1000
0100
0010
0001
,
1000
0100
1000
0000
0001
0010
0001
0000
0100
0000
0010
0000
1000
0000
0010
1000
,
0010
0100
0010
0000
1000
0000
0001
0000
0100
0000
0010
0000
0100
0000
0010
0000
,
0100
0000
0010
0000
1000
0001
1000
0000
0100
0000
0010
0000
0100
0000
0010
0000
,
0100
1000
0010
0000
1000
0010
0100
0001
,
1000
0000
1000
0000
0001
0100
0001
0000
0010
0000
0100
0000
1000
0000
0100
0000
,
0010
0100
0010
0000
0001
0000
1000
0000
0010
0000
0100
0000
0010
0000
0100
0000
,
0010
0000
0100
0000
0001
1000
0001
0000
0010
0000
0100
0000
0010
0000
0100
0000
,
0010
0001
0011
0000
1000
0000
1010
0000
,
1000
0000
0001
0000
1000
0010
1000
0000
0100
0000
0010
0000
0001
0000
0010
0000
,
0100
1000
0001
0100
0010
0100
0001
0010
,
0100
0000
0010
0000
0100
1000
0100
0000
0010
0000
0001
0000
0010
0000
0001
0000
,
1000
0110
0001
0110
,
0010
0000
0000
0000
1000
0100
1000
0000
0010
0000
0100
0000
0001
0000
0100
0000
,
0010
1000
0001
0000
1000
0000
0010
0000
1000
0000
0010
0000
0100
0000
0010
0000
,
1000
0100
0010
0001
1001
0000
0000
0000
0010
0000
1010
0000
0000
0000
1000
0000
,
0010
1000
1001
0000
0010
0011
0000
0001
,
0010
0000
0000
0010
0001
0000
0000
0001
1000
0000
0000
1000
0001
0000
0000
0001
,
1000
0010
0100
0001
1001
0000
0010
0000
0100
0000
0010
0000
1001
0000
1000
0000
,
0001
0010
0100
1000
0001
0000
0100
0000
0010
0000
0100
0000
0001
0000
0100
0000
,
0010
0100
0001
0000
0010
0000
0100
0000
0010
0000
0001
0000
0001
0000
0000
0000
,
0010
0001
0001
0000
0001
0010
0100
1000
,
0001
0000
1001
0010
0100
0010
1001
0001
,
1000
0010
0100
0001
1000
0000
0100
0000
0010
0000
0100
0000
1000
0000
0100
0000
,
0010
0100
1000
0000
0010
0000
0100
0000
0010
0000
1000
0000
1000
0000
1000
0000
,
0010
1000
1000
0000
1000
0010
0100
0001
,
1000
0000
0000
0000
1000
0010
0000
0000
0010
0000
1000
0010
0000
0000
0100
0000
,
0001
0000
0100
0000
0010
0100
0000
0000
0001
0000
0020
0000
0000
0000
0031
0000
,
1000
0000
0000
0000
0010
0100
0000
0000
0001
0000
0010
0100
0010
0000
0001
0000
,
0100
0001
1001
1000
0010
0011
0000
0001
,
0010
0001
1000
0000
1001
0000
0001
0000
0010
0000
1010
0000
0000
0000
0000
0000
,
MMMM
0000
0001
0000
0000
0000
0000
0010
,
0100
0010
0000
0001
1000
0001
0000
0000
,
MMMM
0000
M010
0000
0000
0000
0000
0001
,
0010
0100
0000
0010
0010
0010
0001
1000
,
MMMM
0000
0011
0000
0000
0000
0000
1000
,
1000
0000
1001
0000
0000
0000
0001
0000
0010
0000
0011
0000
0000
0010
0100
0000
,
MMMM
0000
0100
0000
0000
0000
0000
0011
,
0001
0010
0000
1001
0000
0100
0010
0000
,
MMMM
0000
0101
0000
0001
0001
0001
0001
,
0001
0000
1000
0000
0000
0000
0010
0000
0100
0000
0101
0000
0000
0200
0002
0000
,
0000
0000
0000
0303
MMMM
0000
0000
0000
1001
0000
1000
0000
0100
0000
1000
0000
,
1001
0000
1001
0000
1000
0100
0010
0001
,
1000
0010
0110
0000
0110
1000
0010
0100
,
0001
0010
0011
0010
0100
1000
1010
1000
,
0001
0010
0100
1000
0001
0000
0100
0000
0010
0000
0100
0000
0001
0000
0100
0000
,
0010
0100
0001
0000
0010
0000
0100
0000
0010
0000
0001
0000
0001
0000
0000
0000
,
0001
1000
0010
0100
0001
0000
0000
0000
0001
0000
0010
0000
0100
0000
1000
0000
,
0001
0000
1010
0010
0100
0001
0011
0001
,
1000
0010
0100
0001
1000
0000
0100
0000
0010
0000
0100
0000
1000
0000
0100
0000
,
0010
0100
1000
0000
1100
0000
0100
0000
0000
0000
0100
0000
0101
0000
0001
0000
,
0000
0001
0011
0010
0110
0100
1100
0000
,
0011
0000
0011
0001
1001
1000
2040
0000
,
0000
0000
0000
0000
0000
0000
0030
0001
,
0100
0001
0010
0004
0000
0000
0000
3003
,
1000
0000
0000
0000
0000
0000
0002
0000
0000
0000
0000
0000
0020
0000
0000
0003
0000
0000
0002
0000
0000
0000
0030
0000
,
0200
0000
0000
0000
0303
0000
0101
0000
0000
0100
0000
0000
0010
0000
0000
1000
0000
0000
1100
0000
0000
1000
0000
0000
,
0001
0100
0010
1000
0001
0000
0010
0000
0100
0000
0010
0000
0001
0000
0010
0000
,
0100
0010
0001
0000
0100
0000
0010
0000
0100
0000
0001
0000
0001
0000
0001
0000
,
0001
1000
0100
0010
0001
0000
0000
0000
0001
0000
0100
0000
0010
0000
1000
0000
,
0001
1001
0000
0000
;

//--------------- dance-single - ----------------
#NOTES:
     dance-single:
     :
     Challenge:
     14:
     0,0,0,0,0:
0000
0MM0
M00M
0MM0
,
0000
0000
0000
000M
0000
0M00
0000
000M
,
0000
0M00
00M0
0000
0000
0000
0000
0000
00M0
0000
M000
0000
M000
0000
0000
0000
,
00M0
M000
M000
0000
000M
00M0
0M00
M000
,
0000
0000
0000
0000
0001
0000
1000
0000
0000
1000
0000
0000
1000
0000
0001
1000
,
0000
0001
0100
0010
0100
0010
1000
0000
0000
1000
0000
0000
1000
0000
0100
0010
,
0000
0100
0010
0000
0110
0000
0000
0000
1001
0000
0000
0000
0220
0000
0000
0000
,
0000
0000
0000
0000
0000
0000
0000
0000
0000
0000
0000
0000
0000
0000
0000
0330
0MM0
0000
0000
0000
0000
0000
0000
0000
1000
0000
0000
0000
0000
0000
0000
0000
,
0010
0000
2010
0001
0010
3002
0010
1000
,
0010
2003
0010
0001
0010
3002
0010
1000
,
0013
1001
011M
1001
M110
1001
011M
2MM2
,
0000
0000
0000
3003
0110
00M0
0010
00M0
,
0010
0000
1001
0100
0010
0100
1001
0001
,
1000
0100
0010
0001
2000
0000
0010
0000
0002
3000
0010
0000
2000
0003
0010
0000
,
3001
0010
0100
0000
0010
0000
0001
0000
0100
0000
0001
0000
0001
0000
0000
0000
,
0100
0001
0002
0000
0010
1000
0100
0013
,
0001
0000
1001
0100
0010
0100
1001
1000
,
0001
0100
0010
1000
0002
0000
0010
0000
2000
0003
0010
0000
0002
3000
0010
0000
,
1003
0010
0100
0000
0010
0000
1000
0000
0100
0000
1000
0000
1000
0000
1000
0000
,
0100
1000
2000
0000
0010
0001
0100
3010
,
1000
00M0
0010
0000
1000
0100
0010
0001
,
1000
0000
0100
0000
0010
0001
0010
0000
0001
0000
0100
0000
0010
0000
1000
0000
,
0010
1000
0010
0000
1000
0000
0001
0000
0100
0000
0010
0000
0100
0000
0010
0000
,
0100
0000
0010
0000
1000
0001
1000
0000
0100
0000
0010
0000
0100
0000
0010
0000
,
0100
1000
0010
00M0
0001
0100
0010
1000
,
0001
0000
0100
0000
0010
1000
0010
0000
1000
0000
0100
0000
0010
0000
0001
0000
,
0010
0001
0010
0000
0001
0000
1000
0000
0100
0000
0010
0000
0100
0000
0010
0000
,
0100
0000
0010
0000
0001
1000
0001
0000
0100
0000
0010
0000
0100
0000
0010
0000
,
0100
0002
0010
00M0
1000
M000
0013
00M0
,
0010
0000
0001
0000
1000
0010
1000
0000
0100
0000
0010
0000
0001
0000
0010
0000
,
0100
1000
0001
0100
1000
0100
0001
0010
,
0100
0001
0100
1000
0001
0100
0010
1000
,
0001
MMMM
M110
0000
011M
0000
M110
0000
,
0010
0000
0000
0000
1000
0100
1000
0000
0010
0000
0100
0000
0001
0000
0100
0000
,
0010
1000
0001
0010
1000
0010
0001
1000
,
0001
0100
0010
1000
1001
0000
0000
0000
0010
0000
1010
0000
0000
0000
1000
0000
,
0010
1000
1001
0000
0010
0011
0000
0001
,
0010
0000
0000
0010
0001
0000
0000
001M
1000
0000
0000
M010
0001
0000
0000
001M
,
1000
0010
0100
0001
1001
0000
0010
0000
0100
0000
0010
0000
1001
0000
0001
0000
,
1000
0010
0100
0001
2000
0000
0100
0000
0002
3000
0100
0000
2000
0003
0100
0000
,
3001
0100
0010
0000
0100
0000
0001
0000
0010
0000
0001
0000
0001
0000
0000
0000
,
0010
0001
0002
0000
0100
1000
0010
0103
,
0001
0000
1001
0010
0100
0010
1001
1000
,
0001
0010
0100
1000
0002
0000
0100
0000
2000
0003
0100
0000
0002
3000
0100
0000
,
1003
0100
0010
0000
0100
0000
1000
0000
0010
0000
1000
0000
1000
0000
1000
0000
,
0010
1000
2000
0000
0100
0001
0010
3100
,
1000
0000
0000
0000
1000
0010
0000
0000
0010
0000
1000
0010
0000
0000
0100
0000
,
0001
0000
0100
0000
0010
0100
0000
0000
0001
0000
0020
0000
0000
0000
0031
0000
,
1000
0000
0000
0000
0010
0100
0000
0000
0001
0000
0010
0100
0010
0000
0001
0000
,
0100
0001
1001
1000
0010
0011
0000
0001
,
0010
0001
1000
0000
1001
0000
0001
0000
0010
0000
1010
0000
0000
0000
0000
0000
,
MMMM
0000
0001
0000
0000
0000
0000
001M
,
0100
0010
0000
1000
0001
0001
0000
0000
,
MMMM
0000
001M
0000
0000
0000
0000
00M1
,
0010
0100
0000
0010
0010
0010
0001
1000
,
MMMM
0000
0011
0000
0000
0000
0000
1000
,
1000
0000
1001
0000
0000
0000
0001
0000
0010
0000
0011
0000
0000
0010
0100
0000
,
MMMM
0000
0100
0000
0000
0000
0000
0011
,
0001
0010
0000
1001
0000
0100
0010
0000
,
MMMM
0000
0101
0000
0001
0001
0001
0001
,
0001
0000
1000
0000
0000
0000
0010
0000
0100
0000
0101
0000
0000
0200
0002
0000
,
0000
0000
0000
0303
MMMM
0000
MMMM
0000
1001
0000
1000
0000
0100
0000
1000
0000
,
1001
0000
1001
0000
1000
0100
0010
0001
,
1000
0010
0110
0000
0110
1000
0010
0100
,
0001
0010
0011
0001
0010
0100
1200
0001
,
1000
0000
0001
0000
0020
0300
0001
0000
1000
0000
0001
0000
0100
0030
0010
0000
,
0001
0010
0100
0000
0010
0000
0001
0000
1000
0000
0100
0000
0100
0000
0000
0000
,
M100
0001
0002
1000
0010
1000
0100
0013
,
0001
0000
1010
1000
0010
0100
0201
1000
,
0001
0000
1000
0000
0020
0300
1000
0000
0001
0000
1000
0000
0100
0030
0010
0000
,
1000
0010
0100
0000
0101
0000
0001
0000
0000
0000
010M
0000
1100
0000
1000
0000
,
0000
0100
M101
0001
0100
0001
0101
0000
,
1010
0000
0011
0001
0010
0100
2400
0000
,
0000
0000
0000
0000
0000
0000
0000
0000
0000
0000
0000
0000
0000
0300
0040
0030
,
0004
0003
0040
0030
0004
0003
0400
0000
0000
0000
0000
0000
0000
0000
3300
0000
,
1000
0000
0000
2000
0000
0000
0020
0000
3000
0002
0000
0030
,
0200
0000
0000
0000
0303
0000
0110
0000
0000
1000
0000
0000
0001
0000
0000
1000
0000
0000
0110
0000
0000
0000
0000
0000
,
0001
0100
0010
1000
0001
0000
0010
0000
0100
0000
0010
0000
0001
0000
0010
0000
,
0001
0010
0100
0000
1000
0000
0000
0000
0010
0000
1000
0000
1000
0000
1000
0000
,
0010
1000
2000
0000
0010
0001
0100
3010
,
1000
1001
0000
0000
;
