#TITLE:STAY;
#SUBTITLE:;
#ARTIST:The Kid LAROI, Justin Bieber;
#TITLETRANSLIT:;
#SUBTITLETRANSLIT:;
#ARTISTTRANSLIT:;
#GENRE:;
#CREDIT:CowEye;
#MUSIC:STAY.ogg;
#BANNER:STAY.png;
#BACKGROUND:STAY-bg.png;
#CDTITLE:;
#SAMPLESTART:33.952;
#SAMPLELENGTH:12.000;
#SELECTABLE:YES;
#OFFSET:-0.061746;
#BPMS:0.000=170.000;
#STOPS:;
#ORIGIN:;
#PREVIEWVID:;
#JACKET:STAY-jacket.png;
#CDIMAGE:;
#DISCIMAGE:;
#BGCHANGES:3.833=STAY.avi=1.000=0=0=0=StretchNoLoop====,
99999.000=-nosongbg-=1.000=0=0=0=StretchNoLoop====
;
#FGCHANGES:;

//---------------dance-single - ----------------
#NOTES:
     dance-single:
     :
     Beginner:
     6:
     0.000,0.000,0.000,0.000,0.000:
0000
0000
0000
0000
,
0000
0000
0000
0000
,
0000
0000
0000
0000
,
0000
0000
0000
0000
,
0000
0000
0000
0000
,
0000
0000
0000
0000
,
0000
0000
0000
0000
,
0000
0000
0000
0000
,
1000
0000
0000
0001
0000
0000
0001
0000
,
0010
0100
1000
1000
,
0001
0000
0000
1000
0000
0000
1000
0000
,
0010
0100
0001
0010
,
0001
0000
0000
1000
0000
0000
0001
0000
,
0100
0010
1000
1000
,
0010
0000
0000
0100
0000
0000
0010
0000
,
0000
0100
0000
0000
0010
0000
0000
1001
,
0000
0000
1000
0000
0110
0000
0000
0100
,
0000
0001
0000
0000
0010
0000
0001
0000
,
1001
0000
1000
0000
0010
0000
0000
0100
,
0000
0001
0000
0000
0010
0000
0001
0000
,
1001
0000
1000
0000
0100
0000
0000
0010
,
0000
0001
0000
0000
0100
0000
0001
0000
,
1001
1001
1001
1001
,
0001
0010
0110
0110
,
2000
0000
0000
0000
3000
0100
2000
0000
,
0000
0000
0000
3000
,
0002
0000
0000
0000
0003
0100
0002
0000
,
0000
0000
0000
0003
,
2000
0000
0000
0000
3000
0100
2000
0000
,
0000
0000
0000
3000
,
0110
0110
0110
0110
,
0001
0010
0100
1000
,
0100
0000
0000
0010
0000
0000
0001
0000
,
0010
0001
0010
0100
,
0010
0000
0000
0100
0000
0000
1000
0000
,
0010
1000
0010
0100
,
0010
0000
0000
0100
0000
0000
0001
0000
,
0010
0001
0010
0100
,
0010
0000
0000
0100
0000
0000
0010
0000
,
0000
0100
0000
0000
0110
0000
0000
0001
,
1000
0000
0000
0001
0000
0000
0001
0000
,
0100
0100
0001
1000
,
0001
0000
0000
1000
0000
0000
1000
0000
,
0100
0100
1000
1000
,
0001
0000
0000
1000
0000
0000
0001
0000
,
0100
0100
0001
1000
,
0100
0000
0000
0010
0000
0000
0100
0000
,
0000
0010
0000
0000
0001
0000
0000
1001
,
0000
1000
0100
0000
0100
0000
0100
0000
,
0100
0010
0001
0001
,
0000
0001
0001
0001
,
0001
0000
0200
0000
0000
0000
0000
0300
,
0000
0010
0010
0010
,
0010
0010
1000
1000
,
0000
0001
0001
0001
,
0001
0000
0020
0000
0000
0000
0000
0030
,
0000
0001
1000
0001
0000
0000
0100
0000
,
0001
0010
0001
1001
,
0000
1000
0100
0010
,
0001
0110
1001
0110
,
0000
0000
0000
0000
0000
0000
0200
0000
0000
0300
0000
0000
0000
0000
0020
0000
,
0000
0030
0000
0000
0000
0000
0200
0000
0000
0300
0000
0000
0000
0000
0020
0000
,
0000
0030
0000
0000
0110
0000
0000
0000
0000
0000
0000
0000
0001
0000
0000
0000
,
0020
0000
0000
0030
,
0002
0000
0000
0000
0003
0100
0002
0000
,
0000
0000
0000
0003
,
2000
0000
0000
0000
3000
0100
2000
0000
,
0000
0000
0000
3000
,
0002
0000
0000
0000
0003
0100
0002
0000
,
0000
0000
0000
0003
,
0110
0110
0110
0110
,
1000
0010
0100
0001
,
0220
0000
0330
0000
,
2020
0000
0000
3030
0220
0000
0000
0330
,
0202
0000
0303
0000
,
0000
0000
0000
0000
0220
0000
0000
0330
,
2002
0000
3003
0000
,
0022
0000
0000
0033
0220
0000
0000
0330
,
2200
0000
0000
0000
,
3300
0000
0000
0000
4400
0000
0000
3300
,
1000
0000
0000
0001
0000
0000
1000
0000
,
0010
0100
0001
1000
,
0001
0000
0000
1000
0000
0000
0001
0000
,
0010
0100
1000
1000
,
0001
0000
0000
0100
0000
0000
0010
0000
,
1000
0010
0100
0001
,
0100
0000
0000
0000
0000
0000
0010
0000
0000
0MM0
0000
0000
0100
0000
0000
0000
,
0000
0000
0010
0000
0000
MMMM
0000
0000
0110
0000
0000
MMMM
0000
0000
1001
0000
,
0000
0000
0000
0000
,
0000
0000
0000
0000
,
0000
0000
0000
0000
,
0000
0000
0000
0000
,
0000
0000
0000
0000
,
0000
0000
0000
0000
,
0100
0000
0000
0000
0000
0000
0010
0000
0000
0MM0
0000
0000
0100
0000
0000
0000
,
0000
0000
0010
0000
0000
MMMM
0000
0000
0110
0000
0000
MMMM
0000
0000
1001
0000
,
0000
0000
0000
0000
,
0000
0000
0000
0000
;

//---------------dance-single - ----------------
#NOTES:
     dance-single:
     :
     Easy:
     8:
     0.000,0.000,0.000,0.000,0.000:
0000
0000
0000
0000
,
0000
0000
0000
0000
,
0000
0000
0000
0000
,
0000
0000
0000
0000
,
0000
0000
0000
0000
,
0000
0000
0000
0000
,
0000
0000
0000
0000
,
0000
0000
0000
0000
,
1000
0001
1000
0001
0000
0000
0001
0000
,
0010
0000
0100
1000
0000
0000
1000
0000
,
0001
1000
0001
1000
0000
0000
1000
0000
,
0010
0000
0100
0001
0000
0000
0010
0001
,
1000
0001
1000
0001
0000
0000
0001
0000
,
0100
0000
0010
1000
0000
0000
1000
0000
,
0001
1000
0001
1000
0000
0000
0010
0000
,
0000
0100
0000
0000
0110
0000
0000
1001
,
0000
0000
1000
0000
0110
0000
0000
0100
,
0000
0001
0000
0010
0100
0000
1000
0000
,
1001
0000
0001
0000
0010
0000
0000
0100
,
0000
1000
0000
0010
0100
0000
0001
0000
,
1001
0000
1000
0000
0100
0000
0000
0010
,
0000
0001
0000
0100
0010
0000
1000
0000
,
1001
0110
1001
0110
,
0001
0010
0110
0110
,
2000
0000
0000
0000
3000
0100
2000
0000
,
3001
0000
0010
0001
0000
0000
0000
0000
,
2000
0000
0000
0000
3000
0010
2000
0000
,
3001
0000
0100
0001
0000
0000
0000
0000
,
0002
0000
0000
0000
0003
0010
0001
2000
,
0000
0000
3010
1000
0000
0000
0010
0000
,
1010
0101
1010
0101
,
0001
0100
0001
0011
,
0100
0010
0100
0010
0000
0000
0001
0000
,
0010
0000
1000
0010
0000
0000
1000
0000
,
0010
0100
0010
0100
0000
0000
1000
0000
,
0010
0000
0001
0010
0000
0000
0100
0010
,
0100
0010
0100
0010
0000
0000
0001
0000
,
0010
0000
1000
0010
0000
0000
0100
0000
,
0010
0100
0010
0100
0000
0000
0110
0000
,
0000
1001
0000
0000
0110
0000
0000
0001
,
1000
0010
1000
0001
0000
0000
0001
0000
,
0100
0000
0100
0001
0000
0000
1000
0000
,
0001
0010
0001
1000
0000
0000
1000
0000
,
0100
0000
0100
1000
0000
0000
1000
0100
,
1000
0010
1000
0001
0000
0000
0001
0000
,
0100
0000
0100
0001
0000
0000
1000
0000
,
0001
0010
0001
1000
0000
0000
0110
0000
,
0000
1001
0000
0000
0110
0000
0000
0001
,
0000
1000
0100
1000
0100
1000
0100
1000
,
0100
1000
0010
0000
1000
0000
1000
0000
,
0000
0000
0001
0010
0001
0010
0001
0010
,
0001
0010
0200
0000
0300
0010
0001
0100
,
0000
0000
0010
1000
0010
1000
0010
1000
,
0010
1000
0010
0000
1000
0000
1000
0000
,
0000
0000
0001
0100
0001
0100
0001
0100
,
0001
0100
0020
0000
0000
0000
0000
0030
,
0000
1000
0100
0010
0000
0000
0100
0000
,
1000
0001
0100
1001
,
0000
1000
0100
0010
,
0001
0110
1001
0110
,
0000
0000
0000
0000
1000
0000
0200
0000
0000
0300
0000
0000
1000
0000
0020
0000
,
0000
0030
0000
0000
0100
0000
0002
0000
0000
0003
0000
0000
0010
0000
0002
0000
,
0000
0003
0000
0000
0110
0000
0000
0000
0000
0000
1000
0000
0100
0000
0010
0000
,
0002
0000
0000
0003
,
0002
0000
0000
0000
0003
0100
0002
0000
,
1003
0000
0010
1000
0000
0000
0000
0000
,
0002
0000
0000
0000
0003
0010
0002
0000
,
1003
0000
0100
1000
0000
0000
0000
0000
,
2000
0000
0000
0000
3000
0010
1000
0002
,
0000
0000
0013
0001
0000
0000
0010
0000
,
0011
1100
0011
1100
,
1000
0100
1000
1010
,
2002
0000
3003
0000
,
2020
0000
0000
3030
0220
0000
0000
0330
,
0202
0000
0303
0000
,
0000
0000
0000
0000
0220
0000
0000
0330
,
2002
0000
3003
0000
,
0022
0000
0000
0033
0220
0000
0000
0330
,
2200
0000
0000
0000
,
3300
0000
0000
0000
1000
0100
1000
0100
,
1000
0100
0010
0001
0000
0000
1000
0000
,
0010
0000
0100
0001
0000
0000
1000
0000
,
0001
0100
0010
1000
0000
0000
0001
0000
,
0010
0000
0100
1000
0000
0000
1000
0010
,
1000
0001
1000
0100
0000
0000
0010
0000
,
0001
0000
1000
0100
0000
0000
1000
0000
,
0100
1000
0001
1000
0000
0000
0001
0010
,
0100
0000
1000
0000
0000
MMMM
0000
0000
0110
0000
0000
MMMM
0000
0000
1001
0000
,
0000
0000
0000
0000
,
0000
0000
0000
0000
,
0000
0000
0000
0000
,
0000
0000
0000
0000
,
0000
0000
0000
0000
,
0000
0000
0000
0000
0000
0000
0000
1000
,
0100
0000
1000
0000
0001
0000
1000
0000
0000
MMMM
0000
0000
1000
0000
0010
0000
,
0100
0000
0001
0000
0000
MMMM
0000
0000
0110
0000
0000
MMMM
0000
0000
2002
0000
,
0000
0000
3003
0000
,
0000
0000
0000
0000
;

//---------------dance-single - ----------------
#NOTES:
     dance-single:
     :
     Medium:
     10:
     0.000,0.000,0.000,0.000,0.000:
0000
0000
0000
0000
,
0000
0000
0000
0000
,
0000
0000
0000
0000
,
0000
0000
0000
0000
,
0000
0000
0000
0000
,
0000
0000
0000
0000
,
0000
0000
0000
0000
,
0000
0000
0000
0000
,
1000
0000
0100
0000
0010
0000
0001
0000
0000
MMMM
0000
0000
0001
0000
0000
0000
,
0010
0000
0100
1000
0000
0000
1000
0000
,
0001
0000
0100
0000
0010
0000
1000
0000
0000
MMMM
0000
0000
1000
0000
0000
0000
,
0010
0000
0100
0001
0000
0000
0010
0100
,
1000
0000
0010
0000
0100
0000
0001
0000
0000
MMMM
0000
0000
0001
0000
0000
0000
,
0100
0000
0010
1000
0000
0000
1000
0000
,
0100
0000
1000
0000
0100
0000
0010
0000
0000
MMMM
0000
0000
0010
0000
0000
0000
,
0000
0000
0001
0000
0000
MMMM
0000
0000
0110
0000
0000
0000
0000
0000
1001
0000
,
0000
0000
1000
0000
0110
0000
0000
0100
,
0000
0001
0000
0010
0100
0000
1100
0000
,
1001
0000
0001
0000
0010
0000
0000
0100
,
0000
1000
0000
0010
0100
0000
0101
0000
,
1001
0000
1000
0000
0100
0000
0000
0010
,
0000
0001
0000
0100
0010
0000
1000
0000
,
0101
1100
0110
1001
,
0001
0010
0110
0110
,
2000
0000
0000
0000
3000
0100
0002
0000
,
1003
0000
0010
0001
0000
0000
0100
0010
,
2000
0000
0000
0000
3000
0100
0020
0000
,
1030
0000
0010
0001
0000
0000
0100
0010
,
0002
0000
0000
0000
0003
1000
0100
0002
,
0000
0000
0013
1000
0000
0000
0010
0000
,
0011
1100
1001
0110
,
0001
0100
0001
0011
,
1000
0000
0100
0000
0010
0000
0001
0000
0000
MMMM
0000
0000
0001
0000
0000
0000
,
0010
0000
0100
1000
0000
0000
1000
0000
,
0001
0000
0100
0000
0010
0000
1000
0000
0000
MMMM
0000
0000
1000
0000
0000
0000
,
0010
0000
0100
0001
0000
0000
0010
0100
,
1000
0000
0010
0000
0100
0000
0001
0000
0000
MMMM
0000
0000
0001
0000
0000
0000
,
0100
0000
0010
1000
0000
0000
1000
0000
,
0100
0000
1000
0000
0100
0000
0010
0000
0000
MMMM
0000
0000
0010
0000
0000
0000
,
0000
0000
0001
0000
0000
MMMM
0000
0000
0110
0000
0000
0000
0000
0000
0001
0000
,
1000
0000
0010
0000
0100
0000
0001
0000
0000
MMMM
0000
0000
0001
0000
0000
0000
,
0100
0000
0100
0001
0000
0000
1000
0000
,
0001
0000
0010
0000
0100
0000
1000
0000
0000
MMMM
0000
0000
1000
0000
0000
0000
,
0100
0000
0100
1000
0000
0000
1000
0100
,
1000
0000
0010
0000
0100
0000
0001
0000
0000
MMMM
0000
0000
0001
0000
0000
0000
,
0100
0000
0100
0001
0000
0000
1000
0000
,
0100
0000
1000
0000
0001
0000
0010
0000
0000
MMMM
0000
0000
0010
0000
0000
0000
,
0000
0000
0001
0000
0000
MMMM
0000
0000
0110
0000
0000
0000
0000
0000
1001
0000
,
0000
1000
0100
0010
0100
1000
0100
0010
,
0100
1000
0010
0000
1000
0000
1000
0000
,
0000
0000
0001
0010
0100
0010
0001
0010
,
0100
0010
2000
0000
3000
0010
0001
0100
,
0000
0000
0001
0100
0010
1000
0100
1000
,
0100
0010
0001
0000
1000
0000
1000
0000
,
0000
0000
1000
0100
0010
0100
1000
0100
,
0010
0001
0200
0000
0300
0010
1000
0001
,
0000
1000
0100
0010
0000
0001
0100
0010
,
1000
0001
0100
1001
,
0000
1000
0100
0010
0001
0010
0100
1000
,
0001
1010
0101
1001
,
0000
1000
0100
0020
0030
0001
0100
0020
,
0030
1000
0100
0002
0003
1000
0010
0001
,
0000
0000
0110
0000
0000
1000
0100
0010
,
0001
0100
1000
0100
0010
0100
0001
0000
,
2000
0000
0000
0000
3000
0010
0002
0000
,
1003
0000
0100
0001
0000
0000
0010
0100
,
2000
0000
0000
0000
3000
0010
0200
0000
,
1300
0000
0100
0001
0000
0000
0010
0100
,
0002
0000
0000
0000
0003
1000
0010
0002
,
0000
0000
0103
1000
0000
0000
0100
0000
,
0110
1001
0110
1001
,
1000
0100
0011
1100
,
1000
0000
0000
0000
0000
0000
0001
0000
0000
MMMM
0000
0000
0001
0000
0000
0000
,
0020
0000
0000
1030
0020
0000
0000
0000
,
0230
0000
0000
0000
0000
0000
1300
0000
0000
MMMM
0000
0000
1000
0000
0000
0000
,
0100
0000
0010
0001
0200
0000
0010
0300
,
2000
0000
0000
0000
0000
0000
3001
0000
0000
MMMM
0000
0000
0001
0000
0000
0000
,
0020
0000
0000
1030
0020
0000
0000
0000
,
0130
0000
0000
0000
0000
0000
1000
0000
0000
MMMM
0000
0000
1000
0000
0000
0000
,
0000
0000
0010
0000
0000
MMMM
0000
0000
0110
0000
0000
0000
0000
0000
0001
0000
,
1000
0000
0100
0000
0001
0000
0100
0000
0000
MMMM
0000
0000
1000
0000
0000
0000
,
0010
0000
0001
0010
0000
0000
1000
0000
,
0100
0000
0001
0000
0100
0000
1000
0000
0000
MMMM
0000
0000
1000
0000
0000
0000
,
0100
0000
0001
0100
0000
0000
1000
0010
,
0001
0000
0010
0000
1000
0000
0100
0000
0000
MMMM
0000
0000
1000
0000
0000
0000
,
0010
0000
0001
0010
0000
0000
1000
0000
,
0100
0000
0001
0000
0100
0000
1000
0000
0000
MMMM
0000
0000
1000
0000
0100
0000
,
0010
0000
0001
0000
0000
MMMM
0000
0000
0011
0000
0000
MMMM
0000
0000
1001
0000
,
0000
0000
0000
0000
,
0000
0000
0000
0000
,
0000
0000
0000
0000
,
0000
0000
0000
0000
,
0000
0000
0000
0000
,
0000
0000
0000
0000
0000
0000
0000
0001
,
0100
0000
1000
0000
0100
0000
0001
0000
0000
MMMM
0000
0000
0001
0000
0100
0000
,
0010
0000
1000
0000
0000
MMMM
0000
0000
1010
0000
0000
MMMM
0000
0000
2002
0000
,
0000
0000
3003
0000
,
0000
0000
0000
0000
;

//---------------dance-single - CowEye----------------
#NOTES:
     dance-single:
     COWEYE:
     Edit:
     14:
     0.000,0.000,0.000,0.000,0.000:
0000
0000
0000
0000
,
0000
0000
0000
0000
,
0000
0000
0000
0000
,
0000
0000
0000
0000
,
0000
0000
0000
0000
,
0000
0000
0000
0000
,
0000
0000
0000
0000
,
0000
0000
0000
0000
,
1000
0000
0100
0000
0010
0000
0001
0000
0000
MMMM
0000
0000
0001
0000
0010
0000
,
0100
1000
0010
0100
0010
1000
1000
0000
,
0001
0000
0100
0000
0010
0000
1000
0000
0000
MMMM
0000
0000
1000
0000
0010
0000
,
0100
0001
0010
0100
0010
0001
0001
0000
,
1000
0000
0010
0000
0100
0000
0001
0000
0000
MMMM
0000
0000
0001
0000
0100
0000
,
0010
1000
0100
0001
0100
1000
0010
0100
,
0010
0000
1000
0000
0100
0000
0010
0000
0000
MMMM
0000
0000
0010
0000
0001
0000
,
0100
0000
0010
0000
0000
MMMM
0000
0000
0110
0000
0000
0000
0000
0000
1001
0000
,
0000
1000
0010
0000
0110
0000
0000
0100
,
0000
0001
0000
0010
0100
0000
1100
0000
,
1001
0000
0001
0000
0010
0000
0000
0100
,
0000
1000
0000
0010
0100
0000
0101
0000
,
1001
0000
1000
0000
0100
0000
0000
0010
,
0000
0001
0000
0100
0010
0000
1000
0000
,
0101
1100
0110
1001
,
0001
0100
0010
0001
0011
0000
0110
0000
,
2000
0000
0000
0000
3000
0100
0002
0000
,
1003
0000
0010
0001
0000
0000
0100
0010
,
2000
0000
0000
0000
3000
0100
0020
0000
,
1030
0000
0010
0001
0000
0000
0100
0010
,
0002
0000
0000
0000
0003
1000
0100
0002
,
0000
0000
0013
1000
0000
0000
0001
0100
,
1100
0011
1001
0110
,
0001
0010
0100
1000
0100
0000
0011
0000
,
1000
0000
0100
0000
0010
0000
0001
0000
0000
MMMM
0000
0000
0001
0000
0010
0000
,
0100
1000
0010
0100
0010
1000
1000
0000
,
0001
0000
0100
0000
0010
0000
1000
0000
0000
MMMM
0000
0000
1000
0000
0010
0000
,
0100
0001
0010
0100
0010
0001
0001
0000
,
1000
0000
0010
0000
0100
0000
0001
0000
0000
MMMM
0000
0000
0001
0000
0100
0000
,
0010
1000
0100
0001
0100
1000
0010
0100
,
0010
0000
1000
0000
0100
0000
0010
0000
0000
MMMM
0000
0000
0010
0000
0001
0000
,
0100
0000
0010
0000
0000
MMMM
0000
0000
0110
0000
0000
0000
0000
0000
1001
0000
,
1000
0000
0010
0000
0100
0000
0001
0000
0000
MMMM
0000
0000
0001
0000
0100
0000
,
0010
1000
0100
0001
0100
1000
1000
0000
,
0001
0000
0010
0000
0100
0000
1000
0000
0000
MMMM
0000
0000
1000
0000
0100
0000
,
0010
0001
0100
1000
0100
0001
0001
0000
,
1000
0000
0010
0000
0100
0000
0001
0000
0000
MMMM
0000
0000
0001
0000
0100
0000
,
0010
1000
0100
0001
0100
1000
1000
0010
,
0100
0000
1000
0000
0001
0000
0010
0000
0000
MMMM
0000
0000
0010
0000
1000
0000
,
0100
0000
0010
0000
0000
MMMM
0000
0000
0110
0000
0000
0000
0000
0000
1001
0000
,
0000
1000
0100
0010
1000
0001
0100
0001
,
0100
1000
0010
0000
1000
0000
1000
0000
,
0000
0000
0010
0100
1000
0001
0010
1000
,
0100
0010
2000
0000
3000
0010
0001
0100
,
0000
0000
1000
0100
0010
0001
0100
1000
,
0100
0010
1000
0000
0001
0000
0001
0000
,
0000
0000
1000
0100
0010
0100
1000
0100
,
0010
0001
0200
0000
0300
0010
1000
0001
,
0000
1000
0100
0010
0000
0001
0100
0010
,
1000
0000
0001
0100
0001
0000
1001
0000
,
0000
1000
0100
0010
0001
0001
0100
0100
,
0110
1010
0101
1001
,
0000
1000
0100
0010
00M0
0001
0100
0010
,
00M0
1000
0100
0001
000M
0001
0100
1000
,
0000
0000
0110
0000
0000
1000
0100
0010
,
0001
0100
1000
0100
0010
0100
0001
0000
,
2000
0000
0000
0000
3000
0010
0002
0000
,
1003
0000
0100
0001
0000
0000
0010
0100
,
2000
0000
0000
0000
3000
0010
0200
0000
,
1300
0000
0100
0001
0000
0000
0010
0100
,
0002
0000
0000
0000
0003
1000
0010
0002
,
0000
0000
0103
1000
0000
0000
0001
0010
,
1010
0101
1001
0110
,
1000
0010
0100
0001
0011
0000
1100
0000
,
1000
0000
0100
0000
0010
0000
0001
0000
0000
MMMM
0000
0000
0001
0000
0010
0000
,
0100
1000
0010
0001
0010
1000
1000
0000
,
0001
0000
0100
0000
0010
0000
1000
0000
0000
MMMM
0000
0000
1000
0000
0010
0000
,
0100
0001
0010
1000
0010
0001
0001
0000
,
1000
0000
0010
0000
0100
0000
0001
0000
0000
MMMM
0000
0000
0001
0000
0100
0000
,
0010
1000
0100
0001
0100
1000
0010
0100
,
0010
0000
1000
0000
0100
0000
0010
0000
0000
MMMM
0000
0000
0010
0000
0001
0000
,
0100
0000
0010
0000
0000
MMMM
0000
0000
0110
0000
0000
0000
0000
0000
1001
0000
,
1000
0000
0100
0000
0001
0000
1000
0000
0000
MMMM
0000
0000
1000
0000
0001
0000
,
0100
1000
0010
0001
0010
1000
1000
0000
,
0001
0000
0100
0000
1000
0000
0001
0000
0000
MMMM
0000
0000
0001
0000
1000
0000
,
0100
0001
0010
1000
0010
0001
0001
0000
,
1000
0000
0100
0000
0001
0000
1000
0000
0000
MMMM
0000
0000
1000
0000
0001
0000
,
0100
1000
0010
0001
0010
1000
1000
0010
,
0001
0000
1000
0000
0100
0000
0001
0000
0000
MMMM
0000
0000
0010
0000
1000
0000
,
0001
0000
0100
0000
0000
MMMM
0000
0000
1100
0000
0000
0000
0000
0000
1001
0000
,
0000
0000
0000
0000
,
0000
0000
0000
0000
,
0000
0000
0000
0000
,
0000
0000
0000
0000
,
0000
0000
0000
0000
,
0000
0000
0000
0000
0000
0000
0001
0100
,
1000
0000
0001
0000
0010
0000
1000
0000
0000
MMMM
0000
0000
0100
0000
0001
0000
,
1000
0000
0010
0000
0000
MMMM
0000
0000
0011
0000
0000
0000
0000
0000
1001
0000
,
0000
0000
0000
0000
,
0000
0000
0000
0000
;
