#TITLE:Stardust Speedway;
#SUBTITLE:Future Bass Remix;
#ARTIST:The Musical Ghost;
#TITLETRANSLIT:;
#SUBTITLETRANSLIT:;
#ARTISTTRANSLIT:;
#GENRE:Future Bass;
#CREDIT:Vndt;
#MUSIC:StardustSpeedwayRemix_audiocut1.ogg;
#BANNER:StardustSpeedwayRemix_bn.png;
#BACKGROUND:StardustSpeedwayRemix_bg.jpg;
#CDTITLE:;
#SAMPLESTART:85.972;
#SAMPLELENGTH:24.774;
#SELECTABLE:YES;
#OFFSET:-0.036;
#BPMS:0.000=155.000
,19.000=155.009
,20.000=155.000
,41.000=155.009
,42.000=155.000
,57.000=155.009
,58.000=155.000
;
#STOPS:220.000=0.774;
#JACKET:StardustSpeedwayRemix_jk.jpg;
#BGCHANGES:;
#FGCHANGES:;

//--------------- dance-single - Vndt ----------------
#NOTES:
     dance-single:
     Vndt:
     Hard:
     14:
     0,0,0,0,0:
0000
0000
0000
0000
,
0000
0000
0000
0000
,
0000
0000
0000
0000
,
0000
0000
0000
0000
,
0001
0010
0100
1000
,
0100
0000
0000
0000
1000
0000
0000
0000
0000
0000
0000
0100
1000
0000
0000
0000
0001
0000
0000
0000
0010
0000
0000
0000
0010
0000
0001
0000
1000
0000
0001
0000
,
0020
0000
0230
0000
1300
0100
0010
0000
0001
0010
0100
1000
0000
0000
1000
0000
,
0000
0000
0000
0000
0000
1000
0010
1000
0001
0100
0010
0000
0100
0000
0001
0000
,
0001
0000
0100
0000
0010
0000
0000
1000
0000
0000
1000
0100
0010
0100
1000
0001
,
0100
0001
1000
0001
0010
0000
0000
0001
0000
0000
0001
0100
0010
0100
0001
1000
,
0100
0000
1000
0000
0010
0000
0000
0100
0000
0000
0100
0010
0100
0010
1000
0001
,
0010
0000
0001
1000
0000
0000
0010
0000
1000
0000
0100
0010
0100
0010
0100
1000
,
0001
0000
1000
0000
0010
0000
0000
0100
0000
0000
0001
0010
0100
0010
0001
1000
,
0010
1000
0001
1000
0100
0000
0000
1000
0000
0000
0010
0000
1000
0010
1000
0001
,
0100
0000
0001
0000
1000
0000
0000
0010
0000
0000
1000
0010
0100
0010
0100
0001
,
1000
0000
0100
0010
0000
0000
0100
0000
0010
0000
0001
0010
0001
0010
0100
1000
,
1100
0000
0000
0000
1000
0000
0010
0000
1000
0000
0000
0001
0000
0000
0100
0000
,
0010
0000
0000
0100
0000
0000
0002
0000
1000
0000
0000
1000
0000
0000
1000
0000
,
0013
0000
0000
0000
0001
0000
0010
0000
0001
0000
0000
1000
0000
0000
0100
0000
,
0010
0000
0000
0100
0000
0000
2000
0000
0001
0000
0000
0001
0000
0000
0001
0000
,
3010
0000
0000
0000
1000
0000
0100
0000
1000
0000
0000
0001
0000
0000
0010
0000
,
0100
0000
0000
0010
0000
0000
0002
0000
1000
0000
0000
1000
0000
0000
1003
0000
,
0100
0000
0000
0010
0000
0000
0002
0000
0010
0000
0000
0000
0013
0000
0001
0000
,
0100
0000
0000
0010
0000
0000
2000
0000
0010
0000
0000
0000
3010
0000
0000
0000
,
0110
0000
0000
0000
1000
0000
0100
0000
1000
0000
0000
0001
0000
0000
0010
0000
,
0100
0000
0000
0010
0000
0000
0002
0000
1000
0000
0000
1000
0000
0000
1000
0000
,
0103
0000
0000
0000
0001
0000
0100
0000
0001
0000
0000
1000
0000
0000
0010
0000
,
0100
0000
0000
0010
0000
0000
2000
0000
0001
0000
0000
0001
0000
0000
0001
0000
,
3100
0000
0000
0000
1000
0000
0010
0000
1000
0000
0000
0001
0000
0000
0100
0000
,
0010
0000
0000
0100
0000
0000
0002
0000
1000
0000
0000
1000
0000
0000
1003
0000
,
0010
0000
0000
0100
0000
0000
0002
0000
0100
0000
0000
0000
0103
0000
0001
0000
,
0010
0000
0000
0100
0000
0000
2000
0000
0100
0000
0000
0000
3100
0000
0000
0000
,
0110
1100
0011
0101
,
0001
0000
0100
0000
0000
0000
1001
0000
1000
0000
0100
0000
0000
1000
0001
1000
,
0010
0000
0100
0000
0001
0010
0100
0010
0001
0000
0000
0002
0000
0000
1000
0000
,
0003
0000
0000
0000
0000
0001
0010
0001
1000
0100
0010
0000
0100
0000
1000
0000
,
0110
0011
1100
0101
,
1000
0000
0000
0000
0100
0000
0000
0000
0000
0000
0000
1000
0001
0000
0000
0000
0001
0000
0000
0000
0100
0000
0000
0000
0100
0000
0001
0000
1000
0000
0001
0000
,
0010
0000
0100
0000
1000
0010
0100
0000
0001
0100
0010
2000
0000
3000
2000
0000
,
3000
0000
0000
0000
0000
1000
0010
1000
0001
0100
0020
0000
0230
0000
0301
0000
,
1000
0000
0100
0000
0010
0000
0000
0001
0000
0000
0001
0100
0010
0100
0001
1000
,
0100
1000
0001
1000
0010
0000
0000
1000
0000
0000
0010
0000
0000
0000
0000
0000
,
0100
0000
0001
0000
0010
0000
0000
0100
0000
0000
0100
0010
0100
0010
0001
1000
,
0010
0000
1000
0001
0000
0000
0010
0000
0001
0000
0100
0010
0100
0010
0100
0001
,
1000
0000
0001
0000
0010
0000
0000
0100
0000
0000
1000
0010
0100
0010
1000
0001
,
0010
0001
1000
0001
0100
0000
0000
0001
0000
0000
0010
0000
0000
0000
0000
0000
,
0010
0000
0001
0000
1000
0000
0000
0001
0000
0000
0001
0010
0100
0010
0100
1000
,
0001
0000
0100
0010
0000
0000
0100
0000
0010
0000
1000
0010
1000
0010
0100
0000
,
0010
0000
1000
0010
1000
0010
0100
0000
0100
0000
0001
0000
0010
0000
0010
0000
,
0010
0000
0001
0010
0001
0010
0100
0000
0100
0000
0100
0000
0010
0000
0100
0000
,
0010
0000
0001
0010
0001
0010
0100
0000
0100
0000
0100
0000
1000
0000
0010
0000
,
0010
0000
1000
0001
0010
0000
0010
0000
0001
0000
1000
0010
1000
0010
0100
0000
,
0001
0010
0001
0010
0001
0010
0001
0010
0001
1000
0001
1000
0001
1000
0001
1000
,
0100
1000
0100
1000
0100
1000
0100
1000
0100
0010
0100
0010
0100
0010
0100
0010
,
0004
0040
0000
0000
0000
0000
0000
0000
0000
0000
0000
0000
0000
0000
0000
0000
,
0033
0000
0000
0000
2001
0000
0000
3001
,
0011
0000
0040
0000
0031
0010
0001
0010
0100
0000
1000
0000
0000
1000
0000
0000
,
1000
0010
0100
0001
0100
0010
0100
0001
0100
0000
0000
0100
0000
0000
0100
0000
,
0010
0000
1000
0000
0010
0000
0100
0000
0110
0000
0000
0110
0000
0010
1000
0010
,
0100
0001
0000
0000
0100
0000
0010
0000
0220
0000
0000
0000
0330
0000
0000
0000
,
0010
1000
0010
1000
0010
1000
0010
1000
0000
0000
1010
0000
0000
1000
0000
0000
,
0010
0000
0100
0000
0000
0000
0100
0000
0010
0000
1000
0000
0100
0000
0000
0010
,
0000
0000
0001
0010
0100
1000
0100
0010
0001
0000
0100
0010
0000
0000
0010
0000
,
0100
0000
0001
1000
0001
1000
0010
0000
0120
0000
0000
1000
0000
0000
0100
0000
,
1030
0000
0000
0001
0000
0000
0100
0000
0010
0000
0000
1000
0000
0000
0200
0000
,
0000
0000
1300
0001
0010
0000
0010
0100
0020
0000
0000
0001
0000
0000
0100
0000
,
0031
0000
1000
0100
1000
0000
1000
0000
0010
0000
0000
0100
0000
0000
0002
0000
,
0010
0000
0000
0010
0000
0000
0013
0000
0011
0000
0000
0000
1000
0000
0010
0000
,
1000
0000
0000
0100
0000
0000
0010
0000
0001
0000
0000
0010
0000
0000
0200
0000
,
0010
0000
0000
0010
0000
0000
0310
0000
0001
0000
0000
1000
0000
0000
0020
0000
,
0100
0000
0000
0100
0000
0000
0130
0000
0001
0000
0000
1000
0000
0000
0200
0000
,
0310
0000
0000
0000
0010
0100
1000
0001
1001
0000
0000
1000
0010
0000
0100
0000
,
0010
0000
0000
1000
0000
0000
0100
0000
0010
0000
0000
0100
0000
0000
0020
0000
,
0001
0000
0000
0100
0000
0000
0130
0000
1000
0000
0000
0001
0010
0000
0100
0000
,
0010
0000
0000
0001
0000
0000
0100
0000
0010
0000
0000
0100
0000
0000
0020
0000
,
1000
0000
0000
0100
0000
0000
0130
0000
0001
0000
0000
1000
0100
0000
0010
0000
,
0100
0000
0000
1000
0000
0000
0010
0000
0100
0000
0000
0010
0000
0000
0200
0000
,
0001
0000
0000
0010
0000
0000
0310
0000
1000
0000
0000
1000
0010
0000
0100
0000
,
0010
0000
0000
1000
0000
0000
0001
0000
0010
0000
0100
0000
1000
0000
0001
0000
,
0000
0000
0100
0000
0000
0010
0000
0000
0220
0000
0000
0000
0000
0000
0000
0000
,
0000
0000
0000
0030
0040
0000
0000
0000
0330
0000
1000
0000
1000
0000
0000
1000
,
0000
0000
0000
1000
0000
0000
1000
0000
0010
0000
0000
0000
0010
0000
0000
0000
,
0010
0000
0000
0010
0000
0000
0100
0000
0000
0000
0100
0000
0100
0000
0000
0000
,
0001
0000
0000
0001
0000
0000
0001
0000
0010
0000
0000
0000
0010
0000
0000
0000
,
0010
0000
0000
0010
0000
0000
0001
0000
0000
0000
0001
0000
0001
0000
0000
0000
,
0001
0000
0000
0001
0000
0000
0001
0000
0010
0000
0000
0000
0010
0000
0000
0000
,
0010
0000
0000
0010
0000
0000
0100
0000
0000
0000
0100
0000
0100
0000
0000
0000
,
1000
0000
0000
1000
0000
0000
1000
0000
0000
0000
0000
0000
0000
0000
0000
0000
;

//--------------- dance-single - ----------------
#NOTES:
     dance-single:
     :
     Challenge:
     15:
     0,0,0,0,0:
0000
0000
0000
0000
,
0000
0000
0000
0000
,
0000
0000
0000
0000
,
0000
0000
0000
0000
,
0001
0010
0100
1000
,
0100
0000
0000
0000
1000
0000
0000
0000
0000
0000
0000
0100
1000
0000
0000
0000
0001
0000
0000
0000
0010
0000
0000
0000
0010
0000
0001
0000
1000
0000
0001
0000
,
0020
0000
2030
0000
3001
0100
0010
0000
0001
0010
0100
1000
0000
0000
1000
0000
,
0000
0000
0000
0000
0000
1000
0010
1000
0001
0100
0010
0000
0100
0000
0001
0000
,
0001
0000
0100
0000
0010
0000
0000
1000
0000
0000
1000
0100
0010
0100
1000
0001
,
0100
0001
1000
0001
0010
0000
0000
0001
0000
0000
0001
0100
0010
0100
0001
1000
,
0100
0000
1000
0000
0010
0000
0000
0100
0000
0000
0100
0010
0100
0010
1000
0001
,
0010
0000
0001
1000
0000
0000
0010
0000
1000
0000
0100
0010
0100
0010
0100
1000
,
0001
0000
1000
0000
0010
0000
0000
0100
0000
0000
0001
0010
0100
0010
0001
1000
,
0010
1000
0001
1000
0100
0000
0000
1000
0000
0000
0010
0000
1000
0010
1000
0001
,
0100
0000
1000
0000
0001
0000
0000
0010
0000
0000
1000
0010
0100
0010
0100
0001
,
1000
0000
0100
0010
0000
0000
0100
0000
0010
0000
0001
0010
0001
0010
0100
1000
,
1100
0000
0000
0000
1000
0000
0010
0000
1000
0000
0000
0001
0000
0000
0100
0000
,
0010
0000
0000
0100
0000
0000
0002
0000
1000
0000
0000
1000
0000
0000
1000
0000
,
0013
0000
0000
0000
0001
0000
0010
0000
0001
0000
0000
1000
0000
0000
0100
0000
,
0010
0000
0000
0100
0000
0000
2000
0000
0001
0000
0000
0001
0000
0000
0001
0000
,
3010
0000
0000
0000
1000
0000
0100
0000
1000
0000
0000
0001
0000
0000
0010
0000
,
0100
0000
0000
0010
0000
0000
0002
0000
1000
0000
0000
1000
0000
0000
1003
0000
,
010M
0000
0000
0010
0000
0000
2000
0000
0010
0000
0000
0000
3010
0000
0001
0000
,
0100
0000
0000
0010
0000
0000
0002
0000
0010
0000
0000
0000
0013
0000
0000
0000
,
0110
0000
0000
0000
1000
0000
0100
0000
1000
0000
0000
0001
0000
0000
0010
0000
,
0100
0000
0000
0010
0000
0000
0002
0000
1000
0000
0000
1000
0000
0000
1000
0000
,
0103
0000
0000
0000
0001
0000
0100
0000
0001
0000
0000
1000
0000
0000
0010
0000
,
0100
0000
0000
0010
0000
0000
2000
0000
0001
0000
0000
0001
0000
0000
0001
0000
,
3100
0000
0000
0000
1000
0000
0010
0000
1000
0000
0000
0001
0000
0000
0100
0000
,
0010
0000
0000
0100
0000
0000
0002
0000
1000
0000
0000
1000
0000
0000
1003
0000
,
001M
0000
0000
0100
0000
0000
2000
0000
0100
0000
0000
0000
3100
0000
0001
0000
,
0010
0000
0000
0100
0000
0000
0002
0000
0100
0000
0000
0000
0103
0000
0000
0000
,
0110
1100
0011
0101
,
0001
0000
0100
0000
0000
0000
1001
0000
1000
0000
0100
0000
0000
1000
0001
1000
,
0010
0000
0100
0000
0001
0010
0100
0010
0001
0000
0000
0002
0000
0000
1000
0000
,
0003
0000
0000
0000
0000
0001
0010
0001
1000
0100
0010
0000
0100
0000
1000
0000
,
0110
0011
1100
0101
,
1000
0000
0000
0000
0100
0000
0000
0000
0000
0000
0000
1000
0001
0000
0000
0000
0001
0000
0000
0000
0100
0000
0000
0000
0100
0000
0001
0000
1000
0000
0001
0000
,
0010
0000
0100
0000
1000
0010
0100
0000
0001
0100
0010
2000
0000
3000
2000
0000
,
3000
0000
0000
0000
0000
1000
0010
1000
0001
0100
0020
0000
0230
0000
0301
0000
,
1000
0000
0100
0000
0010
0000
0000
0001
0000
0000
0001
0100
0010
0100
0001
1000
,
0100
1000
0001
1000
0010
0000
0000
1000
0000
0000
0010
0000
0000
0000
0000
0000
,
0100
0000
0001
0000
0010
0000
0000
0100
0000
0000
0100
0010
0100
0010
0001
1000
,
0010
0000
1000
0001
0000
0000
0010
0000
0001
0000
0100
0010
0100
0010
0100
0001
,
1000
0000
0001
0000
0010
0000
0000
0100
0000
0000
1000
0010
0100
0010
1000
0001
,
0010
0001
1000
0001
0100
0000
0000
0001
0000
0000
0010
0000
0000
0000
0000
0000
,
0010
0000
0001
0000
1000
0000
0000
0001
0000
0000
0001
0010
0100
0010
0100
1000
,
0001
0000
0100
0010
0000
0000
0100
0000
0010
0000
1000
0010
1000
0010
0100
0000
,
0010
0000
1000
0010
1000
0010
0100
0000
0100
0000
0001
0000
0010
0000
0010
0000
,
0010
0000
0001
0010
0001
0010
0100
0000
0100
0000
0100
0000
0010
0000
0100
0000
,
0010
0000
0001
0010
0001
0010
0100
0000
0100
0000
0100
0000
1000
0000
0010
0000
,
0010
0000
1000
0001
0010
0000
0010
0000
0001
0000
1000
0010
1000
0010
0100
0000
,
0001
0010
0001
0010
0001
0010
0001
0010
0001
1000
0001
1000
0001
1000
0001
1000
,
0100
1000
0100
1000
0100
1000
0100
1000
0100
0010
0100
0010
0100
0010
0100
0010
,
0004
0040
0000
0000
0000
0000
0000
0000
0000
0000
0000
0000
0000
0000
0000
0000
,
0033
0000
0000
0000
2001
0000
0000
3001
,
0011
0000
0040
0000
0031
0010
0001
0010
0100
0000
1000
0000
0000
1000
0000
0000
,
1000
0010
0100
0001
0100
0010
0100
0001
0100
0000
0000
0100
0000
0000
0100
0000
,
0010
0000
1000
0000
M100
0000
0100
0000
0110
0000
0000
0110
0000
0010
1000
0010
,
0100
0001
0000
0000
0100
0000
0010
0000
MMMM
0000
0000
MMMM
0000
0000
0000
0000
,
0010
1000
0010
1000
0010
1000
0010
1000
0000
0000
1010
0000
0000
1000
0000
0000
,
0010
0000
0100
0000
0000
0000
0100
0000
0010
0000
1000
0000
0100
0000
0000
0010
,
0000
0000
0001
0010
0100
0001
0100
0010
0001
0000
0010
0100
0000
0000
0001
0000
,
0100
0000
1000
0001
1000
0001
0100
0000
0120
0000
0000
1000
0000
0000
0100
0000
,
1030
0000
0000
0001
0000
0000
0100
0000
0010
0000
0000
1000
0000
0000
0200
0000
,
0000
0000
1300
0001
0010
0000
0010
0100
0020
0000
0000
0001
0000
0000
0100
0000
,
0031
0000
1000
0100
1000
0000
1000
0000
0010
0000
0000
0100
0000
0000
0002
0000
,
0010
0000
0000
0010
0000
0000
0013
0000
0011
0000
0000
0000
1000
0000
0010
0000
,
1000
0000
0000
0100
0000
0000
0001
0000
1000
0000
0000
0001
0000
0000
0200
0000
,
0010
0000
0000
0010
0000
0000
0310
0000
0001
0000
0000
1000
0000
0000
0020
0000
,
0100
0000
0000
0100
0000
0000
0130
0000
0001
0000
0000
1000
0000
0000
0200
0000
,
0310
0000
0000
0000
MMMM
0000
0000
0000
1001
0000
0000
1000
0010
0000
0100
0000
,
0010
0000
0000
1000
0000
0000
0100
0000
0010
0000
0000
0100
0000
0000
0020
0000
,
0001
0000
0000
0100
0000
0000
0130
0000
1000
0000
0000
0001
0010
0000
0100
0000
,
0010
0000
0000
0001
0000
0000
0100
0000
0010
0000
0000
0100
0000
0000
0020
0000
,
1000
0000
0000
0100
0000
0000
0130
0000
0001
0000
0000
1000
0100
0000
0010
0000
,
0100
0000
0000
1000
0000
0000
0010
0000
0100
0000
0000
0010
0000
0000
0200
0000
,
0001
0000
0000
0010
0000
0000
0310
0000
1000
0000
0000
1000
0010
0000
0100
0000
,
0010
0000
0000
1000
0000
0000
0001
0000
0010
0000
0100
0000
1000
0000
0001
0000
,
0000
0000
0100
0000
0000
0010
0000
0000
0220
0000
0000
0000
0000
0000
0000
0000
,
0000
0000
0000
0030
0040
0000
0000
0000
0330
0000
1000
0000
1000
0000
0000
1000
,
0000
0000
0000
1000
0000
0000
1000
0000
0010
0000
0000
0000
0010
0000
0000
0000
,
0010
0000
0000
0010
0000
0000
0100
0000
0000
0000
0100
0000
0100
0000
0000
0000
,
0001
0000
0000
0001
0000
0000
0001
0000
0010
0000
0000
0000
0010
0000
0000
0000
,
0010
0000
0000
0010
0000
0000
0001
0000
0000
0000
0001
0000
0001
0000
0000
0000
,
0001
0000
0000
0001
0000
0000
0001
0000
0010
0000
0000
0000
0010
0000
0000
0000
,
0010
0000
0000
0010
0000
0000
0100
0000
0000
0000
0100
0000
0100
0000
0000
0000
,
1000
0000
0000
1000
0000
0000
1000
0000
0000
0000
0000
0000
0000
0000
0000
0000
;
