#TITLE:Spirit in the Sky;
#SUBTITLE:He lå e loi la, Cajet dan cuovgga;
#ARTIST:Keiino;
#CREDIT:Vndt;
#MUSIC:SpiritintheSky_audio.ogg;
#SELECTABLE:YES;
#BACKGROUND:SpiritintheSky_bg.png;
#BANNER:SpiritintheSky_bn.png;
#CDTITLE:OKTA;
#OFFSET:-0.48;
#SAMPLESTART:51.873;
#SAMPLELENGTH:17.459;
#BPMS:0=122.003,1=121.998,2=122.003,3=121.998,4=122.003,5=121.998,6=122.003,7=121.998,9=122.003,10=121.998,11=122.003,12=121.998,13=122.003,14=121.998,15=122.003,16=121.998,18=122.003,19=121.998,20=122.003,21=121.998,22=122.003,23=121.998,25=122.003,26=121.998,27=122.003,28=121.998,29=122.003,30=121.998,31=122.003,32=121.998,34=122.003,35=121.998,36=122.003,37=121.998,38=122.003,39=121.998,41=122.003,42=121.998,43=122.003,44=121.998,45=122.003,46=121.998,47=122.003,48=121.998,49=122.003,50=121.998,51=122.003,52=121.998,53=122.003,54=121.998,55=122.003,56=121.998,57=122.003,58=121.998,59=122.003,60=121.998,61=122.003,62=121.998,63=122.003,64=121.998,65=122.003,66=121.998,67=122.003,68=121.998,69=122.003,70=121.998,71=122.003,72=121.998,73=122.003,74=121.998,75=122.003,76=121.998,77=122.003,78=121.998,79=122.003,80=121.998,81=122.003,82=121.998,83=122.003,84=121.998,85=122.003,86=121.998,87=122.003,88=121.998,89=122.003,90=121.998,91=122.003,92=121.998,93=122.003,94=121.998,95=122.003,96=121.998,97=122.003,98=121.998,99=122.003,100=121.998,101=122.003,102=121.998,103=122.003,104=121.998,105=122.003,106=121.998,107=122.003,108=121.998,109=122.003,110=121.998,111=122.003,112=121.998,113=122.003,114=121.998,115=122.003,116=121.998,117=122.003,118=121.998,119=122.003,120=121.998,121=122.003,122=121.998,123=122.003,124=121.998,125=122.003,126=121.998,127=122.003,128=121.998,129=122.003,130=121.998,131=122.003,132=121.998,133=122.003,134=121.998,135=122.003,136=121.998,137=122.003,138=121.998,139=122.003,140=121.998,141=122.003,142=121.998,143=122.003,144=121.998,145=122.003,146=121.998,147=122.003,148=121.998,149=122.003,150=121.998,151=122.003,152=121.998,153=122.003,154=121.998,155=122.003,156=121.998,157=122.003,158=121.998,159=122.003,160=121.998,161=122.003,162=121.998,163=122.003,164=121.998,165=122.003,166=121.998,167=122.003,168=121.998,169=122.003,170=121.998,171=122.003,172=121.998,173=122.003,174=121.998,175=122.003,176=121.998,178=122.003,179=121.998,180=122.003,181=121.998,182=122.003,183=121.998,184=122.003,185=121.998,186=122.003,187=121.998,188=122.003,189=121.998,190=122.003,191=121.998,192=122.003,193=121.998,194=122.003,195=121.998,196=122.003,197=121.998,198=122.003,199=121.998,200=122.003,201=121.998,202=122.003,203=121.998,204=122.003,205=121.998,206=122.003,207=121.998,208=122.003,209=121.998,210=122.003,211=121.998,212=122.003,213=121.998,214=122.003,215=121.998,216=122.003,217=121.998,218=122.003,219=121.998,220=122.003,221=121.998,222=122.003,223=121.998,224=122.003,225=121.998,226=122.003,227=121.998,228=122.003,229=121.998,230=122.003,231=121.998,232=122.003,233=121.998,234=122.003,235=121.998,236=122.003,237=121.998,238=122.003,239=121.998,240=122.003,241=121.998,242=122.003,243=121.998,244=122.003,245=121.998,246=122.003,247=121.998,248=122.003,249=121.998,250=122.003,251=121.998,252=122.003,253=121.998,254=122.003,255=121.998,256=122.003,257=121.998,258=122.003,259=121.998,260=122.003,261=121.998,262=122.003,263=121.998,264=122.003,265=121.998,266=122.003,267=121.998,268=122.003,269=121.998,270=122.003,271=121.998,272=122.003,273=121.998,274=122.003,275=121.998,276=122.003,277=121.998,278=122.003,279=121.998;
#STOPS:;
#GENRE:Electropop, Sami folk;
#JACKET:SpiritintheSky_jk.jpg;
#BGCHANGES:-0.976=SpiritintheSky_video.mov=1.000=1=0=0=StretchNoLoop==CrossFade==,
99999.000=-nosongbg-=1.000=0=0=0=StretchNoLoop====
;

//---------------dance-single - ----------------
#NOTES:
     dance-single:
     :
     Beginner:
     4:
     0.000,0.000,0.000,0.000,0.000:
0000
0000
0000
0000
,
0000
0000
0000
0000
,
0000
0000
0000
0000
,
2000
0000
0000
3000
,
0100
0000
0010
0000
,
0002
0003
0020
0030
,
0100
0000
0010
0000
,
0100
0000
0010
0000
,
0100
0000
1000
0000
,
0010
0000
0100
0000
,
2002
0000
0000
0000
0000
0000
0000
0003
,
3000
0000
0001
0000
0001
1000
0000
0000
,
0000
0100
0020
0030
,
0010
0000
0000
0000
0001
0000
0000
0000
1000
0000
0002
0000
0000
0003
0000
0000
,
0001
0000
0000
0000
0001
0000
0000
0000
0200
0000
0000
0300
0000
0000
0000
0000
,
0000
0000
0000
0000
0010
0000
0000
0000
0020
0000
0000
0030
0000
0000
0000
0000
,
0000
0000
0000
0000
0100
0000
0000
0000
0200
0000
0000
0300
0000
0000
0000
0000
,
0001
0000
0000
1000
,
0000
0001
1000
0001
,
1000
0000
0000
0010
0000
0000
0000
0000
,
1000
0000
0000
0200
0300
0000
0000
0000
,
2000
0000
3000
0000
0000
0001
0000
0002
,
0003
0100
0000
0000
0010
0000
1000
0000
,
2001
0000
0000
0000
0000
3000
0000
0000
,
1000
0010
0010
1000
,
0000
0001
0100
0001
,
0000
1000
0010
1000
,
1001
0000
0000
0001
,
0100
0100
0100
0001
,
0000
1000
0100
1000
,
0200
0000
0000
0300
0010
0000
0100
0000
,
1001
0000
0000
0001
,
1000
1000
1000
0001
,
0000
0001
0100
0001
,
0000
1000
0010
1000
,
0020
0000
0000
0000
,
0130
0000
0100
0000
,
0001
0000
0001
0000
,
1000
0000
1000
0000
,
1000
0000
1000
0000
,
0200
0000
0000
2300
,
3002
0000
0023
0032
,
0023
0000
0000
0000
0000
0032
0000
0000
,
2003
0000
3200
2300
,
3020
0000
0000
2030
,
3002
0000
0203
0302
,
0203
0000
0000
0000
0000
0302
0000
0000
,
2003
0000
3020
2030
,
3020
0000
0000
2030
,
3002
0000
0203
0302
,
0203
0000
0000
0000
0000
0302
0000
0000
,
2003
0000
3020
0000
,
1030
0000
0000
0000
,
1001
0000
0000
1000
,
0100
1000
1000
1100
,
0000
0001
0100
0101
,
0200
0000
0000
0300
0010
0000
0100
0000
,
1001
0000
0000
1000
,
0001
1000
1001
1001
,
0000
1000
1100
1100
,
0000
0001
0101
0101
,
0001
0000
0000
0010
0001
0000
0000
1000
,
0010
0000
0000
0100
0010
0000
0010
0000
,
0000
0100
0110
1001
,
0000
0100
0010
0100
,
1001
0000
0000
2000
,
0200
3000
0002
0300
0020
0003
2000
3030
,
0000
1000
0100
0000
1100
0000
1100
0000
,
0000
0001
0100
0000
0101
0000
0102
0000
,
0000
0003
0000
0000
,
0000
0000
0000
0000
;

//---------------dance-single - ----------------
#NOTES:
     dance-single:
     :
     Easy:
     7:
     0.000,0.000,0.000,0.000,0.000:
0000
0000
0000
0000
,
0000
0000
0000
0000
,
0000
0000
1000
0100
,
0020
0000
0000
0030
,
0100
0000
0000
0100
0010
0000
0000
0010
,
0002
0003
0020
0130
,
0100
0000
0000
0100
0010
0000
0000
0000
,
0100
0000
0000
0100
0010
0000
0000
0010
,
0100
0000
0000
0000
0000
0000
0100
0000
0000
0010
0000
0000
0001
0000
0000
0000
,
0100
1000
0010
0001
,
2002
0000
0000
0000
0000
0000
0000
0003
,
3001
0000
0001
0000
0001
1000
0000
0000
,
0000
0010
0100
0000
0002
0000
1003
0000
,
0010
0000
0000
0000
1000
0000
0000
0000
1000
0000
0002
0000
0000
0003
0100
0000
,
0001
0000
0000
0000
0001
0000
0000
0000
0200
0000
0000
0300
0000
0000
0000
0000
,
0000
0000
0010
0000
1000
0000
0010
0000
2000
3000
0000
0100
0000
0000
0000
0000
,
0000
0000
0100
0000
0020
0030
0001
0000
0020
0030
0000
0100
0000
0000
1000
0000
,
1000
0000
0000
1000
0000
0000
0000
0000
0000
0000
0010
0000
0010
0000
0100
0000
,
0000
0100
0010
0100
0010
0100
0010
0100
,
0010
0000
0000
1000
0000
0000
0010
0000
0000
0000
0000
0000
0000
0000
0010
0000
,
1000
0000
0000
0200
0300
0000
2000
0000
3000
0000
0000
0000
0010
0000
0000
0000
,
1000
0000
0000
2000
0000
0000
3000
0000
0000
0000
0010
0000
0100
0000
0002
0000
,
0003
0100
0100
0100
0010
0100
0001
1000
,
2001
0000
0000
0000
0000
3001
0100
0010
,
0110
0101
1100
0110
,
0000
0001
0100
0001
0101
0000
1010
0000
,
0000
1000
1000
1000
0010
1000
0001
1000
,
1001
0000
1000
0000
0100
0010
0001
1000
,
1100
0000
0000
0000
0110
0000
0000
0000
0012
0000
0000
0003
1001
0000
0000
0000
,
0000
1000
0100
1000
1100
0000
0101
0000
,
0200
0000
0000
0310
0100
0000
0010
0000
,
1010
0000
0010
0000
1000
1000
0010
0100
,
0101
0000
0000
0000
0110
0000
0000
0000
2010
0000
0000
3000
1001
0000
0000
0000
,
1000
0001
0100
0001
0101
0000
1100
0000
,
0001
0010
0001
0010
0011
0000
1010
0000
,
0120
0000
0000
0000
,
0130
0000
0000
0100
0000
0000
0001
0000
0100
0000
0000
0100
0000
0000
0010
0000
,
1000
0000
0000
1000
0000
0000
0010
0000
1000
0000
0000
0001
0000
0000
0100
0000
,
0001
0000
0000
0001
0000
0000
0100
0000
0001
0000
0000
0001
0000
0000
0010
0000
,
0001
0000
0000
0001
0000
0000
0010
0000
0001
0000
0000
1000
0000
0000
0001
0000
,
0100
0000
0000
0100
0000
0000
0001
0000
0100
0000
0000
0100
0000
0000
0010
0000
,
1000
0000
0000
1000
0000
0000
0010
0000
1000
0000
0000
0001
0000
0000
0100
0000
,
0000
0001
0001
0100
0002
0003
0010
0000
,
0001
1000
1000
0100
2000
3000
0010
1000
,
1000
0000
0000
1000
0000
0000
0010
0000
0010
0000
0000
1000
0000
0000
0100
0000
,
0100
0000
0000
0010
0000
0000
0001
0000
0020
0000
0130
0000
1000
0000
1000
0000
,
0001
0000
0000
0001
0000
0000
0010
0000
0010
0000
0000
0001
0000
0000
0100
0000
,
0010
0000
0000
0010
0000
0000
1000
0000
0020
0000
0030
0000
1000
0000
1000
0000
,
0100
0000
0000
0100
0000
0000
0010
0000
0001
0000
0000
0001
0000
0000
0100
0000
,
0020
0000
0030
0010
0000
0000
1000
0000
0020
0000
0030
0000
0100
0000
0100
0000
,
0000
0010
0010
0100
0110
0000
1001
0000
,
0000
0100
0100
0010
0110
0000
1001
0000
,
1001
0000
0000
0000
,
1001
0000
1000
0000
0010
0100
0001
1000
,
1010
0000
0000
0000
0110
0000
0000
0000
0102
0000
0000
0003
1001
0000
0000
0000
,
0000
1000
0010
1000
1010
0000
0011
0000
,
0020
0000
0000
0130
0010
0000
0100
0000
,
1100
0000
0100
0000
1000
1000
0100
0010
,
0011
0000
0000
0000
0110
0000
0000
0000
2100
0000
0000
3000
1001
0000
0000
0000
,
1000
0001
0010
0001
0011
0000
1010
0000
,
0001
0100
0001
0100
0101
0000
1100
1000
,
0010
0000
0000
0010
0000
0000
0100
0000
0001
0000
0000
0001
0000
0000
0010
0000
,
0200
0000
0300
0100
0000
0000
1000
0000
0200
0000
0300
0000
0010
0000
0010
0000
,
0000
0100
0100
0010
0110
0000
1001
0000
,
0000
0010
0010
0100
0010
0100
0010
0100
,
2001
0010
3100
1000
,
0200
0000
0002
0300
0020
0003
2000
3030
,
0000
1000
0100
1000
1100
0000
0101
0000
,
0000
0001
0100
0001
0200
0000
0002
0000
,
0000
0303
0000
0000
,
0000
0000
0000
0000
;

//---------------dance-single - ----------------
#NOTES:
     dance-single:
     :
     Medium:
     9:
     0.000,0.000,0.000,0.000,0.000:
0000
0000
0000
0000
,
0000
0000
0000
0000
,
0000
0000
1000
0100
,
0020
0000
0000
0030
,
0100
0000
0000
1000
0000
0000
0100
0000
0010
0000
0000
0001
0000
0000
0010
0000
,
0002
0003
0020
0130
,
0100
0000
0000
1000
0000
0000
0100
0000
0010
0000
0000
0000
0000
0000
0000
0000
,
0100
0000
0000
0100
0000
0000
0100
0000
0010
0000
0000
0010
0000
0000
0010
0000
,
0100
0000
0000
1000
0000
0000
0100
0000
0000
0010
0000
0000
0001
0000
0000
0000
,
0100
1000
0010
0001
,
2001
0001
0001
0004
0000
0000
0000
0003
,
3001
0001
0001
0001
0001
1000
0000
0000
,
0010
0000
0100
0000
0001
0000
0000
0100
0020
0000
0000
0000
1030
0000
0000
0000
,
0010
0000
1000
0000
1000
0000
1000
0000
1000
0000
0002
0000
0000
0003
0100
0000
,
0001
0000
0000
0100
0001
0000
0000
0100
0002
0000
0000
0003
0000
0000
0000
0000
,
0001
0000
1000
0000
0020
0030
0010
0000
2000
3000
0000
0100
0000
0000
0000
0000
,
0000
0000
0010
0000
0002
0003
0010
0000
0020
0030
0000
0100
0000
0000
0100
0000
,
0100
0000
0000
1000
0000
0000
0000
0000
0000
0000
0010
0000
0010
0000
0100
0000
,
0000
0100
0010
0100
0010
0100
0010
0100
,
0010
0000
0000
1000
0000
0000
0010
0000
0000
0000
0000
0000
0000
0000
0010
0000
,
1000
0000
0000
0200
0300
0000
2000
0000
3000
0000
0100
0000
0010
0000
0100
0000
,
1000
0000
0000
2000
0000
0000
3000
0000
0000
0000
0010
0000
0100
0000
1000
0000
,
0000
0100
0100
0100
0010
0100
0001
0100
,
2001
0000
0000
0000
0000
3001
0100
0010
,
0110
0101
1100
0110
,
0000
0001
0100
0001
0201
0310
1010
0000
,
MMMM
1000
1000
1000
0010
1000
0001
1000
,
1001
1000
0100
1000
0100
0010
0001
0100
,
1100
0000
0000
0000
0110
0000
0000
0000
0012
0000
0000
0003
1001
0000
0000
0000
,
0001
1000
0100
1000
1100
1000
0101
0000
,
0100
0000
0100
0010
0000
0000
0010
0000
0100
0000
0010
0000
1000
0000
0010
0000
,
1010
0001
0010
0100
1000
1000
0010
0100
,
0101
0000
0000
0000
0110
0000
0000
0000
2010
0000
0000
3000
1001
0000
0000
0000
,
1000
0001
0100
0001
0101
0001
1100
0000
,
0001
0000
0010
0000
0001
0000
0010
0000
0011
0000
0000
0000
1010
0000
0010
1000
,
0020
0000
0000
0000
,
0130
0000
0000
0100
0000
0000
0001
0000
0100
0000
0000
0100
0000
0000
0010
0000
,
1000
0000
0000
1000
0000
0000
0010
0000
1000
0000
0000
0001
0000
0000
0100
0000
,
0001
0000
0000
0001
0000
0000
0100
0000
0001
0000
0000
0001
0000
0000
0010
0000
,
0001
0000
0000
0001
0000
0000
0010
0000
0001
0000
0000
1000
0000
0000
0001
0000
,
0100
0000
0000
0100
0000
0000
0001
0000
0100
0000
0000
0100
0000
0000
0010
0000
,
1000
0000
0000
1000
0000
0000
0010
0000
1000
0000
0000
0001
0000
0000
0100
0000
,
0000
0001
0001
0100
0002
0013
0010
0000
,
0001
1000
1000
0100
2000
3010
0010
1000
,
1001
0000
0000
1000
0000
0000
0010
0000
0110
0000
0000
1000
0000
0000
0100
0000
,
0110
0000
0000
0010
0000
0000
0001
0000
0020
0000
0130
0000
1000
0000
0001
0000
,
1001
0000
0000
0001
0000
0000
0010
0000
0110
0000
0000
0001
0000
0000
0100
0000
,
0110
0000
0000
0010
0000
0000
1000
0000
0020
0000
0130
0000
0001
0000
1000
0000
,
0200
0000
0000
0301
0000
0000
1000
0000
0020
0000
0000
0031
0000
0000
0100
0000
,
0020
0000
0030
0010
0000
0000
1000
0000
0020
0000
0130
0000
0100
0000
0100
0000
,
0001
1000
0100
0010
0210
1300
0001
0000
,
1000
0001
0100
0010
0210
0301
0010
0100
,
0000
0000
0000
0000
,
1001
0001
0100
0001
0100
0010
1000
0100
,
0101
0000
0000
0000
0110
0000
0000
0000
2010
0000
0000
3000
1001
0000
0000
0000
,
1000
0001
0100
0001
0101
0001
1100
0000
,
0100
0000
0100
0010
0000
0000
0010
0000
0100
0000
0010
0000
0001
0000
0010
0000
,
0011
1000
0010
0100
0001
0001
0010
0100
,
1100
0000
0000
0000
0110
0000
0000
0000
0012
0000
0000
0003
1001
0000
0000
0000
,
0001
1000
0100
1000
1100
1000
0101
0000
,
1000
0010
1000
0010
1010
0000
0011
1000
,
0200
0000
0300
0100
1000
0000
0010
0000
0200
0000
0300
0100
0001
0000
0001
0000
,
0020
0000
0030
0010
0100
0000
1000
0000
0020
0000
0130
0000
0001
0000
1000
0000
,
0001
1000
0100
0010
0210
1300
0001
0000
,
1000
0010
0010
0010
0010
0100
0001
0100
,
2001
0000
0010
0000
3100
0010
0001
2000
,
0200
3000
0002
0300
0020
0003
2000
3030
,
1000
1000
0100
1000
1100
0000
0101
0000
,
0000
0001
0100
0001
0200
0302
2000
0000
,
0000
3003
0000
0000
,
0000
0000
0000
0000
;

//---------------dance-single - ----------------
#NOTES:
     dance-single:
     :
     Hard:
     11:
     0.000,0.000,0.000,0.000,0.000:
0000
0000
0000
0000
,
0000
0000
0000
0000
,
0000
0000
1000
0100
,
0020
0000
0000
0030
,
0100
0000
0000
1000
0000
0000
0100
0000
0010
0000
0000
0001
0000
0000
0010
0000
,
0002
0003
0020
0130
,
0100
0000
0000
1000
0000
0000
0100
0000
0010
0000
0000
0000
0000
0000
0000
0000
,
0100
0000
0000
0100
0000
0000
0100
0000
0010
0000
0000
0010
0000
0000
0010
0000
,
0100
0000
0000
1000
0000
0000
0100
0000
0000
0010
0000
0000
0001
0000
0000
0000
,
0100
1000
0010
0001
,
2001
0001
0001
0004
0000
0000
0000
0003
,
3001
0000
0001
0100
0001
0000
0001
0000
0001
0000
1000
0000
0000
0000
0000
0000
,
0010
0000
0100
0000
0001
0000
0000
0100
0020
0000
0000
0000
1030
0000
0000
0000
,
0010
0000
1000
0000
1000
0010
1000
0000
1000
0000
0002
0000
0000
0003
0100
0000
,
0001
0000
0000
0100
0001
0000
0000
0100
0002
0000
0000
0003
0001
0000
0001
0100
,
0010
0000
1000
0000
0020
0130
0010
0000
2000
3010
0000
0100
0000
0000
0100
0001
,
0100
0000
0001
0000
0020
0130
0010
0000
0002
0013
0000
0100
0000
0000
0100
1000
,
0100
0000
0000
0010
0000
0000
0010
0001
1000
0000
0010
0000
0010
0000
0100
0000
,
0000
0100
0010
0100
0010
0100
0010
0100
,
0010
0000
0000
0100
0010
0000
1000
0000
0010
0000
0010
0100
0001
0000
0010
0001
,
1000
0000
0000
2000
3001
0000
2000
0000
3001
0010
0001
0000
0010
0000
0001
0000
,
0020
0130
0000
0200
0000
0000
0300
0000
1000
0000
2000
3001
0010
0000
0001
0000
,
0010
0100
0010
0000
0010
0000
0010
0000
0001
0000
0100
0000
0010
0000
0100
0000
,
2001
0000
0000
0000
0000
3001
0100
0010
,
0110
0101
1100
0110
,
0010
0001
0100
0001
0201
0310
1010
0000
,
MMMM
1000
1000
1000
0010
0100
0001
0100
,
1001
0000
1000
0010
0100
0000
0100
0010
1000
0000
0001
0000
0010
0000
0100
0000
,
1100
0000
0000
0000
0110
0000
0000
0000
0012
0000
0000
0003
1001
0000
0001
0010
,
0100
0000
1000
0000
0100
0000
1000
0000
1100
0000
1000
0000
0101
0000
0001
0100
,
0010
0000
0010
0010
0000
0000
0010
0000
0100
0000
0010
0000
1000
0000
0010
0000
,
1010
0000
0001
0010
0100
0000
0100
0010
0001
0000
1000
0000
0010
0000
0100
0000
,
0101
0000
0000
0000
0110
0000
0000
0000
2010
0000
0000
3000
1001
0000
1000
0010
,
0100
0000
0001
0000
0100
0000
0001
0000
0101
0000
0001
0000
1100
0000
1000
0100
,
0010
0000
0010
0000
0001
0000
0010
0000
0011
0000
0000
0000
1010
0000
0010
1000
,
0020
0000
0000
0000
,
0130
0000
0000
0100
0000
0000
0001
0000
0100
0000
0000
0100
0000
0000
0010
0000
,
1000
0000
0000
1000
0000
0000
0010
0000
1000
0000
0000
0001
0000
0000
0100
0000
,
0001
0000
0000
0001
0000
0000
0100
0000
0001
0000
0000
0001
0000
0000
0010
0000
,
0001
0000
0000
0001
0000
0000
0010
0000
0001
0000
0000
1000
0000
0000
0001
0010
,
0100
0000
0000
0100
0000
0000
1000
0000
0100
0000
0000
0100
0000
0000
0010
0000
,
0001
0000
0000
0001
0000
0000
0010
0000
0001
0000
0000
1000
0000
0000
0100
0000
,
1000
1000
1000
0100
2000
3010
0010
0000
,
1000
0001
0001
0100
0002
0013
0010
0001
,
1001
0000
0000
1000
0000
0000
0010
0000
0110
0000
0000
1000
0000
0000
0100
0000
,
0110
0000
0000
0010
0000
0000
0001
0000
0020
0000
0130
0000
1000
0000
0001
0000
,
1001
0000
0000
0001
0000
0000
0010
0000
0110
0000
0000
0001
0000
0000
0100
0000
,
0110
0000
0000
0010
0000
0000
1000
0000
0020
0000
0130
0000
0001
0000
1000
0000
,
0200
0000
0300
0100
1000
0000
0010
0000
0200
0000
0300
0100
0001
0000
0001
0000
,
0020
0000
0030
0010
0100
0000
1000
0000
0020
0000
0130
0001
1000
0000
1000
0000
,
0001
1000
0100
0010
0210
1300
0001
0000
,
1000
0001
0100
0010
0210
0301
0010
0100
,
0000
0000
0000
0000
,
1001
0000
1000
0100
0010
0000
0010
0100
1000
0000
0001
0000
0100
0000
0010
0000
,
1010
0000
0000
0000
0110
0000
0000
0000
0102
0000
0000
0003
1001
0000
0001
0100
,
0010
0000
1000
0000
0010
0000
1000
0000
1010
0000
1000
0000
0011
0000
0001
0010
,
0100
0000
0100
0100
0000
0000
0100
0000
0010
0000
0100
0000
1000
0000
0100
0000
,
1100
0000
0001
0100
0010
0000
0010
0100
0001
0000
1000
0000
0100
0000
0010
0000
,
0011
0000
0000
0000
0110
0000
0000
0000
2100
0000
0000
3000
1001
0000
1000
0100
,
0010
0000
0001
0000
0010
0000
0001
0000
0011
0000
0001
0000
1010
0000
1000
0010
,
0100
0100
0001
0100
0101
0000
1100
1000
,
0020
0000
0130
0010
1000
0000
0100
0000
0020
0000
0130
0010
0001
0000
0001
0000
,
0200
0000
0310
0100
0010
0000
1000
0000
0200
0000
0310
0001
1000
0000
1000
0000
,
0001
0000
1000
0100
1000
0000
0010
0000
0120
0000
1030
0000
0001
0000
0000
0000
,
1000
0010
0010
0010
0010
0100
0001
0100
,
1001
0000
1000
0010
1000
0000
0001
0010
0001
0000
0010
0001
0010
0000
0001
1000
,
0010
0000
0010
1000
0001
0000
0010
0001
1000
0000
0010
1000
0001
0000
0100
0001
,
1000
0000
0100
1000
0001
0000
0100
0000
1100
0000
0000
0000
0101
0000
0100
0001
,
0100
0010
0100
0010
0200
0302
2000
0000
,
0000
3003
0000
0000
,
0000
0000
0000
0000
;

//---------------dance-single - ----------------
#NOTES:
     dance-single:
     :
     Challenge:
     12:
     0.000,0.000,0.000,0.000,0.000:
0000
0000
0000
0000
,
0000
0000
0000
0000
,
0000
0000
1000
0100
,
0020
0000
0000
0030
,
0100
0000
0000
1000
0000
0000
0100
0000
0010
0000
0000
0001
0000
0000
0010
0000
,
2000
3000
0020
0130
,
0100
0000
0000
1000
0000
0000
0100
0000
0010
0000
0000
0000
0000
0000
0000
0000
,
0100
0000
0000
0100
0000
0000
0100
0000
0010
0000
0000
0010
0000
0000
0010
0000
,
0100
0000
0000
1000
0000
0000
0100
0000
0000
0010
0000
0000
0001
0000
0000
0000
,
0100
1000
0010
0001
,
2001
0001
0001
0004
0000
0000
0000
0003
,
3001
0000
0001
0100
0001
0000
0001
0000
0001
0000
1000
0000
0000
0000
0000
0000
,
0010
0000
0100
0000
1000
0000
0000
0100
0020
0000
0000
0000
1030
0000
0000
0000
,
0010
0000
1000
0000
1000
0010
1000
0000
1000
0000
0002
0000
0000
0003
0100
0000
,
0001
0000
0000
0100
0001
0000
0000
0100
0002
0023
0000
0000
0031
0000
0001
0100
,
0010
0000
1000
0000
0020
0130
0010
0000
0002
0013
0000
0100
0000
0000
0100
0001
,
0100
0000
0001
0000
0020
0130
0010
0000
2000
3010
0000
0100
0000
0000
0100
1000
,
0100
0000
0000
0010
0000
0000
0010
0001
1000
0000
0010
0000
0010
0000
0100
0000
,
0000
0100
1000
0001
0010
1000
0001
0100
,
1000
0000
0000
0100
0010
0000
1000
0000
0010
0000
0010
0100
0001
0000
0010
0001
,
1000
0000
0000
2000
3001
0000
2000
0000
3001
0010
0001
0000
0010
0000
0001
0000
,
0020
0130
0000
0200
0000
0000
0300
0000
1000
0000
2000
3001
0010
0000
1000
0000
,
0010
0100
0010
0000
0010
0100
0010
0000
0001
0000
0100
0000
0010
0000
0100
0000
,
2001
0000
0000
0000
0000
0001
3010
0100
,
0110
0101
1100
0110
,
0010
0001
0100
0001
0201
0310
1010
0000
,
MMMM
1000
1000
1000
0010
0100
0001
0100
,
1001
0000
1000
0010
0100
0000
0100
0010
1000
0000
0001
0000
0010
0000
0100
0000
,
1100
0000
0000
0000
0110
0000
0000
0000
0012
0000
0000
0003
1001
0000
0001
0010
,
0100
0000
1000
0000
0100
0000
1000
0000
1100
0000
1000
0000
0101
0000
0001
0100
,
0010
0000
0010
0010
0000
0000
0010
0000
0100
0000
0010
0000
1000
0000
0010
0000
,
1010
0000
0001
0010
0100
0000
0100
0010
0001
0000
1000
0000
0010
0000
0100
0000
,
0101
0000
0000
0000
0110
0000
0000
0000
2010
0000
0000
3000
1001
0000
1000
0010
,
0100
0000
0001
0000
0100
0000
0001
0000
0101
0000
0001
0000
1100
0000
1000
0100
,
0010
0000
0010
0000
0001
0000
0010
0000
0011
0000
0000
0000
1010
0000
0010
1000
,
0020
0000
0000
0000
,
0130
0000
0000
0100
0000
0000
1000
0000
0100
0000
0000
0100
0000
0000
0010
0000
,
0001
0000
0000
0001
0000
0000
0010
0000
0001
0000
0000
1000
0000
0000
0100
0000
,
0001
0000
0000
0001
0000
0000
0100
0000
0001
0000
0000
0001
0000
0000
0010
0000
,
0001
0000
0000
0001
0000
0000
0010
0000
0001
0000
0000
1000
0000
0000
0001
0010
,
0100
0000
0000
0100
0000
0000
0001
0000
0100
0000
0000
0100
0000
0000
0010
0000
,
1000
0000
0000
1000
0000
0000
0010
0000
1000
0000
0000
0001
0000
0000
0100
0000
,
1000
1000
1000
0100
2000
3010
0010
0000
,
1000
0001
0001
0100
0002
0013
0010
0001
,
1001
0000
0000
1000
0000
0000
0010
0000
0110
0000
0000
1000
0000
0000
0100
0000
,
0110
0000
0000
0010
0000
0000
0001
0000
0020
0000
0130
0000
1000
0000
0001
0000
,
1001
0000
0000
0001
0000
0000
0010
0000
0110
0000
0000
0001
0000
0000
0100
0000
,
0110
0000
0000
0010
0000
0000
1000
0000
0020
0000
0130
0000
0001
0000
1000
0000
,
0200
0000
0300
0100
1000
0000
0010
0000
0200
0000
0300
0100
0001
0000
0001
0000
,
0020
0000
0030
0010
0100
0000
1000
0000
0020
0000
0130
0001
1000
0000
1000
0000
,
0001
1000
0100
0010
0210
1300
0001
0000
,
1000
0001
0100
0010
0210
0301
0010
0100
,
0000
0000
0000
0000
,
1001
0000
1000
0100
0010
0000
0010
0100
1000
0000
0001
0000
0100
0000
0010
0000
,
1010
0000
0000
0000
0110
0000
0000
0000
0102
0000
0000
0003
1001
0000
0001
0100
,
0010
0000
1000
0000
0010
0000
1000
0000
1010
0000
1000
0000
0011
0000
0001
0010
,
0100
0000
0100
0100
0000
0000
0100
0000
0010
0000
0100
0000
1000
0000
0100
0000
,
1100
0000
0001
0100
0010
0000
0010
0100
0001
0000
1000
0000
0100
0000
0010
0000
,
0011
0000
0000
0000
0110
0000
0000
0000
2100
0000
0000
3000
1001
0000
1000
0100
,
0010
0000
0001
0000
0010
0000
0001
0000
0011
0000
0001
0000
1010
0000
1000
0010
,
0100
0100
0001
0100
0101
0000
1100
1000
,
0020
0000
0130
0010
1000
0000
0100
0000
0020
0000
0130
0010
0001
0000
0001
0000
,
0200
0000
0310
0100
0010
0000
1000
0000
0200
0000
0310
0001
1000
0000
1000
0000
,
0001
0000
1000
0100
1000
0000
0010
0000
0120
0000
1030
0000
0001
0000
0000
0000
,
1000
0010
0010
0010
0010
0100
0001
0100
,
1001
0000
1000
0010
1000
0000
0001
0010
0001
0000
0010
0001
1000
0000
0010
1000
,
0010
0000
M010
0001
0010
0000
001M
1000
0010
0000
M010
0001
0010
0000
0100
1000
,
0100
0000
M100
0001
0100
0000
010M
0000
1100
0000
0000
0000
0101
0000
010M
1000
,
0100
0010
0100
0010
0200
0302
2000
0000
,
0000
3003
0000
0000
,
0000
0000
0000
0000
;
