#TITLE:Smokin Out the Window;
#SUBTITLE:;
#ARTIST:Silk Sonic (Bruno Mars, Anderson Paak);
#CREDIT:Vndt;
#MUSIC:SmokingOuttheWindow_audio.ogg;
#SELECTABLE:YES;
#BACKGROUND:smokingoutthewindow_bg.png;
#BANNER:smokingoutthewindow_bg.png;
#CDTITLE:An Evening with Silk Sonic;
#OFFSET:-0.174989;
#SAMPLESTART:44.443;
#SAMPLELENGTH:20.854;
#BPMS:0=82.0007,1=81.9982,2=82.0007,5=81.9982,6=82.0007,8=81.9982,9=82.0007,12=81.9982,13=82.0007,15=81.9982,16=82.0007,18=81.9982,19=82.0007,22=81.9982,23=82.0007,25=81.9982,26=82.0007,28=81.9982,29=82.0007,31=81.9982,32=82.0007,35=81.9982,36=82.0007,39=81.9982,40=82.0007,43=81.9982,44=82.0007,46=81.9982,47=82.0007,50=81.9982,51=82.0007,54=81.9982,55=82.0007,58=81.9982,59=82.0007,62=81.9982,63=82.0007,65=81.9982,66=82.0007,69=81.9982,70=82.0007,73=81.9982,74=82.0007,77=81.9982,78=82.0007,81=81.9982,82=82.0007,85=81.9982,86=82.0007,89=81.9982,90=82.0007,93=81.9982,94=82.0007,97=81.9982,98=82.0007,101=81.9982,102=82.0007,105=81.9982,106=82.0007,109=81.9982,110=82.0007,113=81.9982,114=82.0007,117=81.9982,118=82.0007,121=81.9982,122=82.0007,125=81.9982,126=82.0007,128=81.9982,129=82.0007,130=81.9982,131=82.0007,132=81.9982,133=82.0007,134=20.4999,138=81.9982,139=82.0007,140=81.9982,141=82.0007,142=81.9982,143=82.0007,144=81.9982,145=82.0007,146=81.9982,147=82.0007,148=81.9982,149=82.0007,150=81.9982,151=82.0007,152=81.9982,153=82.0007,154=81.9982,155=82.0007,156=81.9982,157=82.0007,158=81.9982,159=82.0007,160=81.9982,161=82.0007,162=20.4999;
#STOPS:44.25=0.36585,44.75=0.36585;
#BGCHANGES:-0.24=smokingoutthewindow_video.mov=1.000=1=0=0=StretchNoLoop==CrossFade==,
99999=-nosongbg-=1.000=0=0=0 // don't automatically add -songbackground-;
#ATTACKS:TIME=5.29:LEN=2.9270000:MODS=*0.5 Tornado, *0.5 -140% Mini, *0.5 60% Stealth, *1.5 100% Drunk, *1.5 150% Tipsy

//---------------dance-single - ----------------
#NOTES:
     dance-single:
     :
     Beginner:
     2:
     0.000,0.000,0.000,0.000,0.000:
0000
0000
0000
0000
,
0000
0000
0000
2200
,
0000
0000
0000
0000
,
0000
0000
0000
0000
0000
0000
3000
0000
0010
0300
0000
0000
0001
0000
0000
0000
,
0001
0100
0010
1000
,
0010
0000
0020
0000
0000
0000
2000
0000
0000
3000
2000
0030
3000
0000
0000
0000
,
0001
1000
0001
0000
0010
0000
0001
0000
,
0010
0000
0020
0000
0000
0000
0002
0000
0003
0000
0002
0030
0003
0000
1000
0000
,
0000
0000
0100
0000
0000
0000
0010
0000
0010
0000
0000
0000
0100
0000
0000
0100
,
0000
0000
0200
0000
0000
0000
0300
0000
0000
0000
0000
0020
0000
0000
0031
0000
,
0000
0000
0000
0002
0000
0000
0013
0000
0001
0000
0000
0000
0000
0000
0000
0000
,
MMMM
MMMM
MMMM
0000
0001
0000
0000
0001
,
0000
0000
0100
0000
0100
0010
0000
0010
,
0000
0000
1000
0000
0000
0000
0000
0020
0000
0000
0000
0000
0030
0000
2000
0000
,
0000
0000
3000
0000
0000
0000
0000
1001
0000
0000
0000
1001
0000
0000
0000
0000
,
0001
0000
0000
0000
0100
0000
0000
0000
0002
0000
0000
0000
1003
0000
0000
0100
,
0000
0010
0000
0000
0010
0010
0000
0100
,
0100
0000
0100
2000
0000
0000
3001
0000
,
0001
0000
0000
0000
0001
0000
1000
0000
0001
0000
0000
0000
0200
0000
0000
0300
,
0001
0001
0010
0100
,
1000
0000
0000
0000
0001
0000
0010
0000
0000
0000
0020
0000
0000
0000
0000
0030
,
0000
0100
0200
0000
,
0000
0000
1000
0300
2002
0000
0000
0000
,
0000
0000
0003
0001
0000
0000
3100
0000
,
0000
0000
0000
2002
0000
0000
0000
0000
,
0000
0000
0000
0000
0000
3003
2002
0000
0000
3003
0000
0000
0000
0000
2000
0000
,
3000
0002
0003
0000
2000
0000
0010
0000
,
3002
0010
2003
0010
,
3002
0100
2003
0100
,
3002
0000
0000
0000
0100
0000
0000
0000
2003
0000
0000
0000
3010
0000
0000
0100
,
0000
0100
0000
0100
0000
0000
0000
0020
0000
0000
0030
0100
0000
0000
0000
0020
,
0000
0030
0000
1000
1000
1000
1000
0001
,
0001
0000
0001
0000
0000
0001
0000
0020
0000
0000
0000
0000
0000
0000
0031
0000
,
1000
0000
0000
0000
0000
0000
0000
0000
0100
0000
0000
0000
0000
0000
0000
0000
0200
0000
0000
0000
0000
0000
0000
0000
0000
0000
0000
0000
0000
0000
0000
1000
,
0000
0000
0000
0000
1000
1000
1300
0000
0100
0000
0000
0000
0010
0000
0000
0000
,
0010
0000
0000
0000
0100
0000
2000
0000
0000
3000
0002
0000
0000
0000
0003
0000
,
0000
0000
1000
0000
1002
0000
2003
3002
,
0000
0000
0000
0003
0010
0000
0000
0000
0210
0000
0000
0300
0020
0000
0230
0000
,
0000
0000
0310
0002
0000
0000
1003
2000
,
0000
3001
0000
0002
0000
0000
1003
2000
,
0000
3001
0000
2002
0000
0000
0000
0000
,
3003
0000
0000
0000
;

//---------------dance-single - ----------------
#NOTES:
     dance-single:
     :
     Easy:
     6:
     0.000,0.000,0.000,0.000,0.000:
0000
0000
0000
0000
,
0000
0000
0000
2200
,
0000
0000
0000
0000
,
0000
0000
0000
0000
0000
0000
3000
0000
0010
0300
0000
0000
0001
0000
0000
0000
,
0001
0010
0100
0100
0010
0010
0001
0100
,
0010
0000
0020
0000
0000
0000
2000
0000
0000
3000
0200
0030
0310
0000
1000
0000
,
0101
1100
0001
0100
0010
1000
1001
0010
,
1000
0000
0020
0000
0000
0000
0200
0000
0000
0300
2000
0030
3010
0000
1000
0000
,
0010
0000
0100
0000
0010
0000
1001
0000
0110
0000
0001
0000
0100
0000
0000
0100
,
0000
0000
0200
0000
0000
0000
0300
0000
0000
0000
0100
0002
0000
0000
0103
0000
,
0000
0000
0001
0020
0000
0000
0031
0000
0100
0000
0010
0000
0000
0000
0000
0000
,
0110
0000
1010
0000
1001
0000
1000
0000
0001
0000
0000
0010
0000
0000
0001
0000
,
0000
0010
0000
0000
0100
0000
0100
0000
0100
0000
0010
0000
0010
0000
0010
0000
,
0000
0000
0001
0000
0100
0000
0100
0020
0000
0000
0000
0000
0030
1000
0020
0000
,
0000
0000
0030
0000
0000
0000
1000
0001
0000
0000
1000
0001
0000
0000
0001
0000
,
0001
1000
0000
0000
0001
1000
0000
0000
0102
0000
0100
0000
1003
0000
0010
0200
,
0000
0000
0320
0000
0000
0000
0000
0000
0130
0000
0100
0000
0000
0010
0100
0000
,
0002
0003
0010
0020
0000
0000
0031
0100
,
0001
0000
0010
0000
0001
0000
0100
0000
0010
0000
0000
0000
0200
0000
0000
0301
,
1000
0010
1000
0000
0001
0100
0010
0100
,
0002
0000
0000
0000
1003
0000
0010
0000
0000
1000
0020
0000
0000
0000
0000
0030
,
0000
0000
0000
0000
1000
0100
0000
0000
0210
0000
0000
0000
0000
0000
0000
0000
,
0000
0000
1000
0300
2002
0000
0000
0000
,
0000
3003
0001
0200
0000
0000
0310
0200
,
0320
0130
0001
2000
0000
0000
3010
0200
,
0000
0310
0100
0020
0000
1030
0010
2020
,
0000
3030
0022
0000
0033
0000
1000
0000
2000
0000
0000
0000
0010
0000
0001
0000
,
3002
0000
0010
1003
2000
0000
0010
0001
,
3002
0000
0100
1000
2003
0000
0100
0001
,
3002
0000
0000
0000
0100
0000
1000
0000
1003
0000
0000
0000
0110
0000
0000
0010
,
0000
0100
0000
1001
0000
0000
1000
0020
0000
0000
0130
0001
0000
0001
0000
0020
,
0000
0031
0000
1001
1000
1000
1000
0001
,
0001
0000
0001
0000
0000
0001
0000
0020
0000
0230
0000
0000
0000
0300
1000
0000
,
1000
0000
0100
0000
0000
0000
0000
0000
1000
0000
0200
0000
0000
0300
0000
0000
0200
0000
0000
2000
0000
0000
0000
0000
0000
0000
0000
0000
0000
0000
0000
3300
,
0002
0100
0100
0100
1000
1000
1000
1000
0103
0000
0001
0000
0010
0000
0200
0000
,
0310
0000
0000
0000
0100
0000
2000
0000
0000
3001
2000
0000
0000
0000
3000
0000
,
0001
0000
0000
0000
1000
0010
0000
0000
1002
0000
0000
0000
2003
0000
3002
0000
,
0000
0000
0000
0003
0010
0100
0000
0000
0210
0000
0000
0300
0020
0000
0230
0000
,
0000
0000
0310
0012
0000
0000
1003
2010
,
0000
3001
0000
0102
0000
0000
1003
2100
,
0000
3001
0000
2002
0000
0000
0000
0000
,
3003
0000
0000
0000
;

//---------------dance-single - ----------------
#NOTES:
     dance-single:
     :
     Medium:
     9:
     0.000,0.000,0.000,0.000,0.000:
0000
0000
0000
0000
0000
0000
0000
0000
0000
0000
0000
0000
0000
0000
0MM0
000M
,
M000
0000
0000
00M0
0000
0000
0000
0000
000M
0000
0000
0000
MM00
0000
0000
0000
0000
0000
0000
0000
000M
0000
0000
0000
M000
0000
0000
0000
0M00
0000
0000
0000
000M
0000
0000
0000
M0M0
0000
0000
0000
0000
0000
0000
0000
0000
0000
0000
0000
M000
0000
0000
0000
0000
0000
0000
0000
0000
0M00
0000
0000
0000
0000
0000
0000
0000
0000
0000
0000
0000
0000
0000
0000
2200
0000
0000
0000
0000
0000
0000
0000
0000
0000
0000
0000
0000
0000
0000
0000
0000
0000
0000
0000
0000
0000
0000
0000
,
0000
0000
0000
0000
,
0000
0000
0000
0000
0000
0000
0000
0000
0000
0000
0000
0000
3000
0000
0000
0000
0010
0000
0300
0M00
0000
0000
0000
0000
1000
0000
0000
0000
0000
0000
0000
0000
,
0001
0010
0100
0100
0010
0010
0001
0100
,
0010
1000
0020
0000
0000
0000
2000
0000
0000
3000
0002
0030
0013
0000
1000
0000
,
0101
1100
0001
0010
0001
0010
0100
1000
,
0010
1000
0020
0000
0000
0000
0002
0000
0000
0003
2000
0030
3010
0000
1000
0000
,
0010
0000
0100
0000
0010
0000
1001
0000
0110
0000
0001
0000
0101
0000
0000
1100
,
0000
0000
0022
0000
0000
0000
0033
0000
0000
1000
0010
2000
0000
0000
3010
0000
,
0000
0100
0001
0200
0000
0000
0301
0000
0100
0000
0010
0000
0000
0000
0000
0000
,
0101
0000
1100
0000
0011
0000
0010
0000
0001
0010
0001
0010
0000
0000
0M1M
1000
,
0010
1000
0000
0000
1000
0010
0100
0010
1000
0000
0001
0010
0100
0010
0001
0000
,
0000
0000
0010
0000
0100
0000
0100
0020
0000
0000
0000
0000
0030
0001
0100
0020
,
0000
0000
0030
0000
0000
1000
0001
1000
0000
1000
0001
2000
3000
0000
0001
0000
,
0010
0010
0000
0000
0010
0010
0000
0000
0102
0000
0100
0000
1003
0000
0010
0200
,
0000
0000
0310
0000
1000
0100
1000
0100
0010
0000
0010
0000
0000
0100
0010
0000
,
0002
0000
0003
0000
1000
0100
0020
0000
0000
0000
0000
0000
0001
0000
0001
0000
,
0001
0000
0001
0000
0001
0000
0001
0030
0020
0000
0000
0000
0230
0000
0000
0301
,
0100
0000
0001
0000
1000
0020
0000
0000
0031
0000
0100
0000
0010
0000
0100
0000
,
0001
0000
0000
1000
0000
0000
M000
0000
0010
0000
0000
0000
0100
0000
0000
1000
0000
0100
0000
1000
0000
0000
0000
0000
0000
0000
0002
0000
0000
0000
0000
0000
,
0013
0001
0010
0000
0001
0100
0000
0000
0210
0000
0000
0310
0100
0010
0200
0000
,
0000
0000
0000
0000
0001
0001
0300
0000
2002
0000
0003
0000
3001
2000
0002
0000
,
0000
3003
0001
0100
0010
1000
0010
0200
,
0320
0130
0001
1000
0200
0000
0310
0100
,
1000
0010
0100
0020
0000
1030
0010
2020
,
0000
3030
0202
0000
0303
0000
0001
0010
0001
0000
2000
0000
0010
0000
0010
0000
,
3002
0010
0010
1003
2000
0010
0010
0001
,
3002
0100
0100
1000
2003
0100
0100
0001
,
3002
0000
0100
0000
0100
0000
1000
0003
1001
0000
0000
0000
0110
0000
0100
0010
,
0000
0110
0000
1001
0000
0000
1000
0020
0000
0000
0130
0001
0000
0001
0100
0020
,
0000
0000
0130
0000
0000
0000
1001
0000
1000
0100
1000
0100
1000
0000
0001
0100
,
0001
0100
0001
0000
0000
0001
0100
0020
0000
2030
0000
0100
0100
3000
2001
0000
,
0100
0000
0000
0000
3100
0000
0000
0000
0000
0000
0000
0000
0000
0000
0000
0000
0100
0000
0000
0000
0200
0000
0000
0000
0000
0000
0300
0000
0000
0000
0000
0000
0210
0000
0000
0000
0000
0000
2000
0000
0000
0000
0000
0000
0000
0000
0000
0000
0000
0000
0000
0000
0000
0000
3000
0000
0000
0000
0300
0000
0001
0100
0020
0000
,
0000
0000
0000
0000
1000
0000
1000
0000
1000
0000
1000
0000
1000
0000
1030
0000
1000
0000
0010
0000
0100
0000
0001
0000
0100
0000
0000
0000
0000
0021
0000
0000
0130
0000
0000
0000
0000
0000
0000
0000
1000
0000
0000
0000
0000
0000
0000
0000
0010
0000
0000
0000
0000
0000
0000
0000
0200
0000
0000
0000
0000
0000
0000
0000
,
0310
0200
0000
0300
0100
0000
0002
0000
0000
1003
0001
0000
0020
0000
0032
0203
,
0301
0000
0000
0001
1000
0010
0000
0000
1002
0000
0000
0000
2003
3002
2003
3002
,
0000
0000
0003
0100
0010
0100
0000
0000
0210
0000
0000
0320
0230
0320
0230
0000
,
0000
0000
0000
0000
0000
0000
0310
1000
0010
1000
0010
1000
0020
0000
0000
0000
0000
0000
0130
0000
0000
0020
0000
0000
,
1030
0010
1000
0001
1000
0010
1000
0002
0000
0000
0100
0003
0001
0000
0010
0000
,
0001
0010
0001
1000
0001
0010
0002
2000
0000
0000
0000
0000
0000
0000
0000
0000
,
3003
0000
0000
0000
;

//---------------dance-single - ----------------
#NOTES:
     dance-single:
     :
     Hard:
     10:
     0.000,0.000,0.000,0.000,0.000:
0000
0000
0000
0000
0000
0000
0000
0000
0000
0000
0000
0000
0000
0000
0MM0
000M
,
M000
0000
0000
00M0
0000
0000
0000
0000
000M
0000
0000
0000
MM00
0000
0000
0000
0000
0000
0000
0000
000M
0000
0000
0000
M000
0000
0000
0000
0M00
0000
0000
0000
000M
0000
0000
0000
M0M0
0000
0000
0000
0000
0000
0000
0000
0000
0000
0000
0000
M000
0000
0000
0000
0000
0000
0000
0000
0000
0M00
0000
0000
0000
0000
0000
0000
0000
0000
0000
0000
0000
0000
0000
0000
2200
0000
0000
0000
0000
0000
0000
0000
0000
0000
0000
0000
0000
0000
0000
0000
0000
0000
0000
0000
0000
0000
0000
0000
,
0000
0000
0000
0000
,
0000
0000
0000
0000
0000
0000
0000
0000
0000
0000
0000
0000
3000
0000
0000
0000
0010
0000
0300
0M00
0000
0000
0000
0000
1000
0000
0000
0000
0000
0000
0000
0000
,
0001
0010
0100
0100
0010
0010
0001
0100
,
0010
1000
0020
0000
0000
0000
2000
0000
0000
3000
0002
0030
0013
0000
1000
0000
,
0101
1100
0001
0010
0001
0010
0100
1000
,
0010
1000
0020
0000
0000
0000
0002
0000
0000
0003
2000
0030
3010
0000
1000
0000
,
0010
0000
0100
0000
0010
0000
1001
0000
0110
0000
0001
0000
0101
0000
0000
1100
,
0000
0000
0022
0000
0000
0000
0033
0000
0000
1000
0010
2000
0000
0000
3010
0000
,
0000
0100
0001
0200
0000
0000
0301
0000
0100
0000
0010
0000
0000
0000
0000
0000
,
0101
0000
1100
0000
0011
0000
0010
0000
0001
0010
0001
0010
0000
0000
0M1M
1000
,
0010
1000
0000
0000
1000
0010
0100
0010
1000
0000
0001
0010
0100
0010
0001
0000
,
0000
0000
0010
0000
0100
0000
0100
0020
0000
0000
0000
0000
0030
0001
0100
0020
,
0000
0000
0030
0000
0000
1000
0001
1000
0000
1000
0001
2000
3000
0000
0001
0000
,
0010
0010
0000
0000
0010
0010
0000
0000
0102
0000
0100
0000
1003
0000
0010
0200
,
0000
0000
0310
0000
1000
0100
1000
0100
0010
0000
0010
0000
0000
0100
0010
0000
,
0002
0000
0003
0000
1000
0100
0020
0000
0000
0000
0000
0000
0001
0000
0001
0000
,
0001
0000
0001
0000
0001
0000
0001
0030
0020
0000
0000
0000
0230
0000
0000
0301
,
0100
0000
0001
0000
1000
0020
0000
0000
0031
0000
0100
0000
0010
0000
0100
0000
,
0001
0000
0000
1000
0000
0000
M000
0000
0010
0000
0000
0000
0100
0000
0000
1000
0000
0100
0000
1000
0000
0000
0000
0000
0000
0000
0002
0000
0000
0000
0000
0000
,
0013
0001
0010
0000
0001
0100
0000
0000
0210
0000
0000
0310
0100
0010
0200
0000
,
0000
0000
0000
0000
0001
0001
0300
0000
2002
0000
0003
0000
3001
2000
0002
0000
,
0000
3003
0001
0100
0010
1000
0010
0200
,
0320
0130
0001
1000
0200
0000
0310
0100
,
1000
0010
0100
0020
0000
1030
0010
2020
,
0000
3030
0202
0000
0303
0000
0001
0010
0001
0000
2000
0000
0010
0000
0010
0000
,
3002
0010
0010
1003
2000
0010
0010
0001
,
3002
0100
0100
1000
2003
0100
0100
0001
,
3002
0000
0100
0000
0100
0000
1000
0003
1001
0000
0000
0000
0110
0000
0100
0010
,
0000
0110
0000
1001
0000
0000
1000
0020
0000
0000
0130
0001
0000
0001
0100
0020
,
0000
0000
0130
0000
0000
0000
1001
0000
1000
0100
1000
0100
1000
0000
0001
0100
,
0001
0100
0001
0000
0000
0001
0100
0020
0000
2030
0000
0100
0100
3000
2001
0000
,
0100
0000
3100
0000
0000
0000
0000
0000
0100
0000
0200
0000
0000
0300
0000
0000
0210
0000
0000
2000
0000
0000
0000
0000
0000
0000
0000
0020
0000
0000
0000
0000
,
0000
0000
0000
0000
0000
0000
0000
0000
0000
0000
0000
0000
0030
3300
0000
0000
0100
0000
0000
0000
1000
0000
0000
0000
0010
0000
0000
0000
0200
0000
0000
0000
,
0310
0200
0000
0300
0100
0000
0002
0000
0000
1003
0001
0000
0020
0000
0032
0203
,
0301
0000
0000
0001
1000
0010
0000
0000
1002
0000
0000
0000
2003
3002
2003
3002
,
0000
0000
0003
0100
0010
0100
0000
0000
0210
0000
0000
0320
0230
0320
0230
0000
,
0000
0000
0000
0000
0000
0000
0310
1000
0010
1000
0010
1000
0020
0000
0000
0000
0000
0000
0130
0000
0000
0020
0000
0000
,
1030
0010
1000
0001
1000
0010
1000
0002
0000
0000
0100
0003
0001
0000
0010
0000
,
0001
0010
0001
1000
0001
0010
0002
2000
0000
0000
0000
0000
0000
0020
0000
0000
,
3033
0000
0000
0000
;

//---------------dance-single - ----------------
#NOTES:
     dance-single:
     :
     Challenge:
     13:
     0.000,0.000,0.000,0.000,0.000:
0000
0000
0000
0000
0000
0000
0000
0000
0000
0000
0000
0000
0000
0000
0MM0
000M
,
M000
0000
0000
00M0
0000
0000
0000
0000
000M
0000
0000
0000
MM00
0000
0000
0000
0000
0000
0000
0000
000M
0000
0000
0000
M000
0000
0000
0000
0M00
0000
0000
0000
000M
0000
0000
0000
M0M0
0000
0000
0000
0000
0000
0000
0000
0000
0000
0000
0000
M000
0000
0000
0000
0000
0000
0000
0000
0000
0M00
0000
0000
0000
0000
0000
0000
0000
0000
0000
0000
0000
0000
0000
0000
2200
0000
0000
0000
0000
0000
0000
0000
0000
0000
0000
0000
0000
0000
0000
0000
0000
0000
0000
0000
0000
0000
0000
0000
,
0000
0000
0000
0000
,
0000
0000
0000
0000
0000
0000
0000
0000
0000
0000
0000
0000
3000
0000
0000
0000
0010
0000
0300
0M00
0000
0000
0000
0000
10M0
0000
0000
0000
1000
0000
0000
0000
,
0001
0010
0100
0000
1000
0010
0100
0000
0001
0100
0001
0000
1000
0010
0100
0001
,
0010
0001
0020
0000
0000
0000
2000
0000
0000
3000
0002
0030
0013
0000
0001
0100
,
0101
0000
1100
0000
0001
0000
0001
0010
0001
1000
0100
0000
0010
0000
0001
0100
,
0001
1000
0020
0000
0000
0000
0002
0000
0000
0003
2000
0030
3010
0000
1000
0010
,
0100
0001
0100
0000
0010
1000
1001
0000
0110
0000
0001
0010
0002
0103
0000
0002
,
0103
0000
0002
0203
0320
1030
0000
0000
0000
1000
0010
0200
0000
0000
0310
0000
,
00M0
0001
0010
0200
0000
0000
0310
0001
0100
0010
2000
3002
1003
0000
0000
0000
,
0101
0000
1100
0000
0011
0000
1000
0000
0001
0M10
0001
0M10
0000
0000
001M
1000
,
001M
1000
0000
0000
1000
0010
0001
0010
1000
0000
1000
0100
0001
0100
1000
0000
,
0000
0100
0010
0100
0010
0001
0100
0020
0000
0000
2030
3020
0030
1000
0100
0020
,
0000
0000
0230
0300
0000
1000
0001
1000
0000
1000
0001
2000
3001
0000
0001
0010
,
0001
0001
1000
0010
1000
2000
3001
0000
0102
0000
0100
0000
1003
0000
0010
0100
,
0010
1000
0010
0100
0001
0100
0001
1000
0010
0000
0010
0000
0000
0100
0010
0000
,
2000
3002
0013
0000
0001
0010
0120
0000
0000
0000
0000
0000
0001
0000
1000
0000
,
0001
0000
1000
0000
0001
0000
1000
0030
0020
0000
0000
0000
0230
0000
0000
0301
,
0100
0000
0001
0000
1000
0020
0000
0000
0031
0000
0100
0000
0010
0000
0100
0000
,
0001
0000
0000
1000
0000
0000
M000
0000
0010
0000
0000
0000
0100
0000
0000
1000
0000
0100
0000
1000
0000
0000
0000
0000
0000
0000
0002
0000
0000
0000
0000
0000
,
0013
0000
0000
0001
0000
0000
1000
0000
0100
0000
0010
0000
0100
0000
1000
0000
0100
0000
0010
0000
0001
0000
0100
0000
0210
0000
0000
0000
0000
0000
0000
0000
0000
0310
0000
0000
0100
0000
0000
0010
0000
0000
0200
0000
0000
0000
0000
0000
,
0000
0000
0000
0000
1000
0001
0000
0300
1002
0000
0003
1000
0001
2000
0002
0000
,
0000
0000
0000
3003
0000
0000
0001
0100
0001
1000
0100
1000
0001
0000
0000
1000
0000
0000
0010
0000
0000
0100
0000
0000
,
0010
0000
0000
1000
0000
0000
0010
0000
0000
0100
0000
0000
0001
0000
0000
0100
0000
0000
0010
0000
1000
0000
0100
0000
1000
0000
0000
0001
0000
0000
1000
0000
0000
0000
0000
0000
0001
0000
0000
0000
0000
0000
0001
0000
0000
1000
0000
0000
,
0100
0010
0100
0010
0001
1000
0002
1000
0000
0000
0013
0000
0010
0000
1010
1000
,
0010
0000
0101
0001
0100
0000
0001
0010
0001
0000
2000
0000
0010
0000
0010
0000
,
3002
0000
0010
0000
0010
0000
1003
1000
2000
0000
0010
0000
0010
0000
0001
0001
,
3002
0000
0100
0000
0100
0000
1000
1000
2003
0000
0100
0000
0100
0000
0001
0001
,
3002
0000
0100
0000
0100
0000
1000
1000
1003
0000
0000
0000
0110
0000
0100
0010
,
0000
0110
0000
1001
0000
0000
0001
0020
0000
0000
0130
1000
0000
1000
0100
0010
,
0001
0000
0100
0000
0010
0000
0100
0000
0001
0000
0100
0000
0010
0000
1000
0000
0100
0000
0010
0000
0100
0000
1000
0000
0001
0000
0000
0010
0000
0000
1000
0000
0000
0010
0000
0000
0001
0000
0000
0000
0000
0000
0001
0000
0000
0100
0000
0000
,
1000
0100
0001
0000
0000
0001
0100
0020
0000
2030
0000
0100
0100
3000
1002
0000
,
0100
0000
0103
0000
0001
0000
1000
0000
0100
0000
0200
0000
0300
0000
0000
0000
0210
0000
0000
2000
0000
0000
0000
0000
0000
0000
0000
0022
0000
0000
0000
0000
,
0000
0000
0000
0000
0000
0000
0000
0000
0000
0000
0000
0000
0003
0030
3300
0000
0100
0000
0000
0000
1000
0000
0000
0000
0010
0000
0000
0000
0100
0000
0000
0000
,
0010
0100
0010
0000
0100
0000
0002
0000
0000
1003
0001
0100
0020
0000
2030
3200
,
1300
0000
0000
0000
0100
0000
0010
0000
0001
0000
0100
0000
0010
0000
1000
0000
0100
0000
0010
0000
0100
0000
1000
0000
1002
0000
0000
0000
0000
0000
0000
0000
0000
0000
0000
0000
2003
0000
0000
3002
0000
0000
2003
0000
0000
3002
0000
0000
,
0000
0000
0003
0100
0010
0100
0000
0000
0210
0000
0000
0320
0230
0320
0230
0302
,
1003
0000
0000
0100
0000
0000
0000
0000
0000
0100
0000
0000
0010
0000
0001
0000
1000
0000
0010
0000
1000
0000
0001
0000
0010
0000
0000
0000
0000
0000
0001
0000
0000
0000
0000
0000
0100
0000
0000
0000
0000
0000
0020
0000
0000
0000
0000
0000
,
1030
0000
0000
0010
0000
0000
0100
0000
0000
0010
0000
0000
1000
0000
0000
0001
0000
0000
0100
0000
0001
0000
0010
0000
0100
0000
0000
1000
0000
0000
0000
0000
0000
0000
0000
0000
0001
0000
0000
0000
0000
0000
0010
0000
0000
0000
0000
0000
,
0100
0010
0100
0010
0001
1000
0002
2000
0000
0000
0000
0000
0000
0020
0000
0000
,
3033
0000
0000
0000
;

//---------------dance-single - ----------------
#NOTES:
     dance-single:
     No Knees:
     Edit:
     13:
     0.000,0.000,0.000,0.000,0.000:
0000
0000
0000
0000
0000
0000
0000
0000
0000
0000
0000
0000
0000
0000
0MM0
000M
,
M000
0000
0000
00M0
0000
0000
0000
0000
000M
0000
0000
0000
MM00
0000
0000
0000
0000
0000
0000
0000
000M
0000
0000
0000
M000
0000
0000
0000
0M00
0000
0000
0000
000M
0000
0000
0000
M0M0
0000
0000
0000
0000
0000
0000
0000
0000
0000
0000
0000
M000
0000
0000
0000
0000
0000
0000
0000
0000
0M00
0000
0000
0000
0000
0000
0000
0000
0000
0000
0000
0000
0000
0000
0000
2200
0000
0000
0000
0000
0000
0000
0000
0000
0000
0000
0000
0000
0000
0000
0000
0000
0000
0000
0000
0000
0000
0000
0000
,
0000
0000
0000
0000
,
0000
0000
0000
0000
0000
0000
0000
0000
0000
0000
0000
0000
3000
0000
0000
0000
0010
0000
0300
0M00
0000
0000
0000
0000
10M0
0000
0000
0000
1000
0000
0000
0000
,
0001
0010
0100
0000
1000
0010
0100
0000
0001
0100
0001
0000
1000
0010
0100
0001
,
0010
0001
0020
0000
0000
0000
2000
0000
0000
3000
0002
0030
0013
0000
0001
0100
,
0101
0000
1100
0000
0001
0000
0001
0010
0001
1000
0100
0000
0010
0000
0001
0100
,
0001
1000
0020
0000
0000
0000
0002
0000
0000
0003
2000
0030
3010
0000
1000
0010
,
0100
0001
0100
0000
0010
1000
1001
0000
0110
0000
0001
0010
0002
0103
0000
0002
,
0103
0000
0002
0203
0320
1030
0000
0000
0000
1000
0010
0200
0000
0000
0310
0000
,
00M0
0001
0010
0200
0000
0000
0310
0001
0100
0010
2000
3002
1003
0000
0000
0000
,
0101
0000
1100
0000
0011
0000
1000
0000
0001
0M10
0001
0M10
0000
0000
001M
1000
,
001M
1000
0000
0000
1000
0010
0001
0010
1000
0000
1000
0100
0001
0100
1000
0000
,
0000
0100
0010
0100
0010
0001
0100
0020
0000
0000
2030
3020
0030
1000
0100
0020
,
0000
0000
0230
0300
0000
1000
0001
1000
0000
1000
0001
2000
3001
0000
0001
0010
,
0001
0001
1000
0010
1000
2000
3001
0000
0102
0000
0100
0000
1003
0000
0010
0100
,
0010
1000
0010
0100
0001
0100
0001
1000
0010
0000
0010
0000
0000
0100
0010
0000
,
2000
3002
0013
0000
0001
0010
0120
0000
0000
0000
0000
0000
0001
0000
1000
0000
,
0001
0000
1000
0000
0001
0000
1000
0030
0020
0000
0000
0000
0230
0000
0000
0301
,
0100
0000
0001
0000
1000
0020
0000
0000
0031
0000
0100
0000
0010
0000
0100
0000
,
0001
0000
0000
1000
0000
0000
M000
0000
0010
0000
0000
0000
0100
0000
0000
1000
0000
0100
0000
1000
0000
0000
0000
0000
0000
0000
0002
0000
0000
0000
0000
0000
,
0013
0000
0000
0001
0000
0000
1000
0000
0100
0000
0010
0000
0100
0000
1000
0000
0100
0000
0010
0000
0001
0000
0100
0000
0210
0000
0000
0000
0000
0000
0000
0000
0000
0310
0000
0000
0100
0000
0000
0010
0000
0000
0200
0000
0000
0000
0000
0000
,
0000
0000
0000
0000
1000
0001
0000
0300
1002
0000
0003
1000
0001
2000
0002
0000
,
0000
0000
0000
3003
0000
0000
0001
0100
0001
1000
0100
1000
0001
0000
0000
1000
0000
0000
0010
0000
0000
0100
0000
0000
,
0010
0000
0000
1000
0000
0000
0010
0000
0000
0100
0000
0000
0001
0000
0000
0100
0000
0000
0010
0000
1000
0000
0100
0000
1000
0000
0000
0001
0000
0000
1000
0000
0000
0000
0000
0000
0001
0000
0000
0000
0000
0000
0001
0000
0000
1000
0000
0000
,
0100
0010
0100
0010
0001
1000
0002
1000
0000
0000
0013
0000
0010
0000
1010
1000
,
0010
0000
0101
0001
0100
0000
0001
0010
0001
0000
2000
0000
0010
0000
0010
0000
,
3002
0000
0010
0000
0010
0000
1003
1000
2000
0000
0010
0000
0010
0000
0001
0001
,
3002
0000
0100
0000
0100
0000
1000
1000
2003
0000
0100
0000
0100
0000
0001
0001
,
3002
0000
0100
0000
0100
0000
1000
1000
1003
0000
0000
0000
0110
0000
0100
0010
,
0000
0110
0000
1001
0000
0000
0001
0020
0000
0000
0130
1000
0000
1000
0100
0010
,
0001
0000
0100
0000
0010
0000
0100
0000
0001
0000
0100
0000
0010
0000
1000
0000
0100
0000
0010
0000
0100
0000
1000
0000
0001
0000
0000
0010
0000
0000
1000
0000
0000
0010
0000
0000
0001
0000
0000
0000
0000
0000
0001
0000
0000
0100
0000
0000
,
1000
0100
0001
0000
0000
0001
0100
0020
0000
2030
0000
0100
0100
3000
1002
0000
,
0100
0000
0000
0000
0103
0000
0000
0000
0001
0000
0000
0000
1000
0000
0000
0000
0100
0000
0000
0000
0200
0000
0000
0000
0300
0000
0000
0000
0000
0000
0000
0000
0210
0000
1000
0000
1000
0000
0010
0010
0000
0000
0001
0001
0000
0000
1000
4000
0000
0000
0000
0000
0000
0000
0000
0000
0000
3000
0300
0000
0001
0010
0210
0000
,
0000
0000
0000
0000
0000
0000
0001
0000
0000
1000
0000
0000
0001
0000
0000
1000
0000
0000
0001
0000
0000
1300
0100
1000
0001
0000
0000
0001
0100
0001
1000
0000
0000
0010
1000
0001
0100
0000
0000
0100
0001
1000
0010
0000
1000
0000
0000
0000
0100
0000
0000
0000
0000
0000
0000
0000
0000
0000
0000
0000
1000
0000
0000
0000
0000
0000
0000
0000
0000
0000
0000
0000
0010
0000
0000
0000
0000
0000
0000
0000
0000
0000
0000
0000
0100
0000
0000
0000
0000
0000
0000
0000
0000
0000
0000
0000
,
0010
0100
0010
0000
0100
0000
0002
0000
0000
1003
0001
0100
0020
0000
2030
3200
,
1300
0000
0000
0000
0100
0000
0010
0000
0001
0000
0100
0000
0010
0000
1000
0000
0100
0000
0010
0000
0100
0000
1000
0000
1002
0000
0000
0000
0000
0000
0000
0000
0000
0000
0000
0000
2003
0000
0000
3002
0000
0000
2003
0000
0000
3002
0000
0000
,
0000
0000
0003
0100
0010
0100
0000
0000
0210
0000
0000
0320
0230
0320
0230
0302
,
1003
0000
0000
0100
0000
0000
0000
0000
0000
0100
0000
0000
0010
0000
0001
0000
1000
0000
0010
0000
1000
0000
0001
0000
0010
0000
0000
0000
0000
0000
0001
0000
0000
0000
0000
0000
0100
0000
0000
0000
0000
0000
0020
0000
0000
0000
0000
0000
,
1030
0000
0000
0010
0000
0000
0100
0000
0000
0010
0000
0000
1000
0000
0000
0001
0000
0000
0100
0000
0001
0000
0010
0000
0100
0000
0000
1000
0000
0000
0000
0000
0000
0000
0000
0000
0001
0000
0000
0000
0000
0000
0010
0000
0000
0000
0000
0000
,
0100
0010
0100
0010
0001
1000
0002
2000
0000
0000
0000
0000
0000
0000
0000
0000
,
3003
0000
0000
0000
;
